<?xml version="1.0" standalone="no"?>
<!DOCTYPE svg PUBLIC "-//W3C//DTD SVG 1.1//EN" "http://www.w3.org/Graphics/SVG/1.1/DTD/svg11.dtd" >
<svg xmlns="http://www.w3.org/2000/svg" xmlns:xlink="http://www.w3.org/1999/xlink" version="1.1">
<metadata>
Created by FontForge 20170731 at Mon Sep  3 21:32:14 2018
 By Aleksey,,,
</metadata>
<defs>
<font id="ProductSans-ThinItalic" horiz-adv-x="528" >
  <font-face 
    font-family="Product Sans Thin"
    font-weight="250"
    font-style="italic"
    font-stretch="normal"
    units-per-em="1000"
    panose-1="2 11 2 3 3 5 2 9 2 3"
    ascent="800"
    descent="-200"
    x-height="490"
    cap-height="716"
    bbox="-210 -253 3284 956"
    underline-thickness="50"
    underline-position="-250"
    slope="-10"
    unicode-range="U+000D-2215"
  />
<missing-glyph horiz-adv-x="562" 
d="M82 716h398v-716h-398v716zM118 34h326v648h-326v-648z" />
    <glyph glyph-name="f_i" unicode="fi" horiz-adv-x="478" 
d="M309 724q26 0 43.5 -8t29.5 -18l-18 -28q-10 8 -25.5 15t-33.5 7q-38 0 -69.5 -26t-41.5 -81l-17 -95h256l-86 -490h-36l80 458h-220l-80 -458h-36l80 458h-92l6 32h92l17 98q13 71 55.5 103.5t95.5 32.5zM445 625q-14 0 -24 10t-10 24t10 24t24 10t24 -10t10 -24
t-10 -24t-24 -10z" />
    <glyph glyph-name="f_l" unicode="fl" horiz-adv-x="474" 
d="M311 0l121 688h-119q-45 0 -78 -28t-42 -79l-16 -91h128l-5 -32h-128l-81 -458h-36l81 458h-92l5 32h92l16 90q12 67 54 103.5t108 36.5h155l-127 -720h-36z" />
    <glyph glyph-name="f_b" unicode="fb" horiz-adv-x="873" 
d="M431 688h-119q-45 0 -78 -28t-42 -79l-16 -91h128l-5 -32h-128l-81 -458h-36l81 458h-92l5 32h92l16 90q12 67 54 103.5t108 36.5h155l-47 -265l-16 -68h4q14 24 34.5 45.5t47.5 38t60 26t71 9.5q45 0 82 -16.5t63 -45.5t40 -69.5t14 -88.5q0 -55 -19 -109t-55 -97
t-88 -69.5t-118 -26.5q-38 0 -67.5 11t-52 28.5t-37.5 39.5t-24 43h-4l-19 -106h-32zM546 16q55 0 100 23t77 60.5t49.5 84.5t17.5 95q0 46 -13 82.5t-35.5 61.5t-53 38t-66.5 13q-53 0 -97 -24.5t-76 -63t-49.5 -87t-17.5 -96.5q0 -46 13 -81t35.5 -58.5t52.5 -35.5t63 -12
z" />
    <glyph glyph-name="f_f" unicode="ff" horiz-adv-x="582" 
d="M565 724q26 0 43.5 -8t29.5 -18l-18 -28q-10 8 -25.5 15t-33.5 7q-38 0 -69.5 -26t-41.5 -81l-17 -95h128l-6 -32h-128l-80 -458h-36l80 458h-220l-80 -458h-36l80 458h-92l6 32h92l17 98q13 71 55.5 103.5t95.5 32.5q26 0 43.5 -8t29.5 -18l-18 -28q-10 8 -25.5 15
t-33.5 7q-38 0 -69.5 -26t-41.5 -81l-17 -95h220l17 98q13 71 55.5 103.5t95.5 32.5z" />
    <glyph glyph-name="f_f_b" unicode="ffb" horiz-adv-x="1130" 
d="M687 688h-119q-45 0 -78 -28t-42 -79l-16 -91h128l-5 -32h-128l-81 -458h-36l81 458h-220l-80 -458h-36l80 458h-92l6 32h92l17 98q13 71 55.5 103.5t95.5 32.5q26 0 43.5 -8t29.5 -18l-18 -28q-10 8 -25.5 15t-33.5 7q-38 0 -69.5 -26t-41.5 -81l-17 -95h219l16 90
q12 67 54 103.5t108 36.5h155l-47 -265l-16 -68h4q14 24 34.5 45.5t47.5 38t60 26t71 9.5q45 0 82 -16.5t63 -45.5t40 -69.5t14 -88.5q0 -55 -19 -109t-55 -97t-88 -69.5t-118 -26.5q-38 0 -67.5 11t-52 28.5t-37.5 39.5t-24 43h-4l-19 -106h-32zM802 16q55 0 100 23
t77 60.5t49.5 84.5t17.5 95q0 46 -13 82.5t-35.5 61.5t-53 38t-66.5 13q-53 0 -97 -24.5t-76 -63t-49.5 -87t-17.5 -96.5q0 -46 13 -81t35.5 -58.5t52.5 -35.5t63 -12z" />
    <glyph glyph-name="f_f_h" unicode="ffh" horiz-adv-x="1096" 
d="M688 688h-119q-45 0 -78 -28t-42 -79l-16 -91h128l-5 -32h-128l-81 -458h-36l81 458h-221l-80 -458h-36l80 458h-92l6 32h92l17 98q13 71 55.5 103.5t95.5 32.5q26 0 43.5 -8t29.5 -18l-18 -28q-10 8 -25.5 15t-33.5 7q-38 0 -69.5 -26t-41.5 -81l-17 -95h220l16 90
q12 67 54 103.5t108 36.5h155l-47 -263l-20 -88h4q35 63 89 100t126 37q38 0 66 -12t46 -32.5t27 -48.5t9 -61q0 -11 -1 -24t-3 -22l-54 -306h-36l54 305q4 23 4 48q0 52 -29 86.5t-89 34.5q-39 0 -76.5 -18.5t-69 -51.5t-54.5 -77.5t-32 -96.5l-41 -230h-36z" />
    <glyph glyph-name="f_f_i" unicode="ffi" horiz-adv-x="734" 
d="M565 724q26 0 43.5 -8t29.5 -18l-18 -28q-10 8 -25.5 15t-33.5 7q-38 0 -69.5 -26t-41.5 -81l-17 -95h256l-86 -490h-36l80 458h-220l-80 -458h-36l80 458h-220l-80 -458h-36l80 458h-92l6 32h92l17 98q13 71 55.5 103.5t95.5 32.5q26 0 43.5 -8t29.5 -18l-18 -28
q-10 8 -25.5 15t-33.5 7q-38 0 -69.5 -26t-41.5 -81l-17 -95h220l17 98q13 71 55.5 103.5t95.5 32.5zM701 625q-14 0 -24 10t-10 24t10 24t24 10t24 -10t10 -24t-10 -24t-24 -10z" />
    <glyph glyph-name="f_f_j" unicode="ffj" horiz-adv-x="732" 
d="M309 724q26 0 43.5 -8t29.5 -18l-18 -28q-10 8 -25.5 15t-33.5 7q-38 0 -69.5 -26t-41.5 -81l-17 -95h220l17 98q13 71 55.5 103.5t95.5 32.5q26 0 43.5 -8t29.5 -18l-18 -28q-10 8 -25.5 15t-33.5 7q-38 0 -69.5 -26t-41.5 -81l-17 -95h256l-107 -608
q-8 -45 -36.5 -76.5t-77.5 -31.5q-15 0 -27.5 3t-18.5 7l13 32q6 -4 15 -7t20 -3q31 0 50 22t27 63l100 567h-220l-80 -458h-36l80 458h-220l-80 -458h-36l80 458h-92l6 32h92l17 98q13 71 55.5 103.5t95.5 32.5zM700 625q-14 0 -24 10t-10 24t10 24t24 10t24 -10t10 -24
t-10 -24t-24 -10z" />
    <glyph glyph-name="f_f_k" unicode="ffk" horiz-adv-x="1023" 
d="M309 724q26 0 43.5 -8t29.5 -18l-18 -28q-10 8 -25.5 15t-33.5 7q-38 0 -69.5 -26t-41.5 -81l-17 -95h220l16 90q12 67 54 103.5t108 36.5h155l-91 -512l332 282h46l-1 -4l-208 -179l151 -303l-1 -4h-38l-142 282l-148 -126l-28 -156h-35l121 688h-119q-45 0 -78 -28
t-42 -79l-16 -91h128l-5 -32h-128l-81 -458h-36l81 458h-221l-80 -458h-36l80 458h-92l6 32h92l17 98q13 71 55.5 103.5t95.5 32.5z" />
    <glyph glyph-name="f_f_l" unicode="ffl" horiz-adv-x="730" 
d="M567 0l121 688h-119q-45 0 -78 -28t-42 -79l-16 -91h128l-5 -32h-128l-81 -458h-36l81 458h-221l-80 -458h-36l80 458h-92l6 32h92l17 98q13 71 55.5 103.5t95.5 32.5q26 0 43.5 -8t29.5 -18l-18 -28q-10 8 -25.5 15t-33.5 7q-38 0 -69.5 -26t-41.5 -81l-17 -95h220
l16 90q12 67 54 103.5t108 36.5h155l-127 -720h-36z" />
    <glyph glyph-name="f_f_t" unicode="fft" horiz-adv-x="832" 
d="M309 724q26 0 43.5 -8t29.5 -18l-18 -28q-10 8 -25.5 15t-33.5 7q-38 0 -69.5 -26t-41.5 -81l-17 -95h220l17 98q13 71 55.5 103.5t95.5 32.5q26 0 43.5 -8t29.5 -18l-18 -28q-10 8 -25.5 15t-33.5 7q-38 0 -69.5 -26t-41.5 -81l-17 -95h220l27 150h36l-27 -150h124
l-5 -32h-124l-60 -340q-2 -8 -2.5 -15t-0.5 -15q0 -23 15.5 -43.5t50.5 -20.5q15 0 27 3t28 11l11 -30q-30 -16 -71 -16t-69 24.5t-28 68.5q0 11 1.5 21.5l3.5 24.5l58 327h-221l-80 -458h-36l80 458h-220l-80 -458h-36l80 458h-92l6 32h92l17 98q13 71 55.5 103.5
t95.5 32.5z" />
    <glyph glyph-name="f_h" unicode="fh" horiz-adv-x="839" 
d="M431 688h-119q-45 0 -78 -28t-42 -79l-16 -91h128l-5 -32h-128l-81 -458h-36l81 458h-92l5 32h92l16 90q12 67 54 103.5t108 36.5h155l-47 -263l-20 -88h4q35 63 89 100t126 37q38 0 66 -12t46 -32.5t27 -48.5t9 -61q0 -11 -1 -24t-3 -22l-54 -306h-36l54 305q4 23 4 48
q0 52 -29 86.5t-89 34.5q-39 0 -76.5 -18.5t-69 -51.5t-54.5 -77.5t-32 -96.5l-41 -230h-36z" />
    <glyph glyph-name="f_j" unicode="fj" horiz-adv-x="476" 
d="M179 -184q6 -4 15 -7t20 -3q31 0 50 22t27 63l100 567h-220l-80 -458h-36l80 458h-92l6 32h92l17 98q13 71 55.5 103.5t95.5 32.5q26 0 43.5 -8t29.5 -18l-18 -28q-10 8 -25.5 15t-33.5 7q-38 0 -69.5 -26t-41.5 -81l-17 -95h256l-107 -608q-8 -45 -36.5 -76.5
t-77.5 -31.5q-15 0 -27.5 3t-18.5 7zM444 625q-14 0 -24 10t-10 24t10 24t24 10t24 -10t10 -24t-10 -24t-24 -10z" />
    <glyph glyph-name="f_k" unicode="fk" horiz-adv-x="766" 
d="M431 688h-119q-45 0 -78 -28t-42 -79l-16 -91h128l-5 -32h-128l-81 -458h-36l81 458h-92l5 32h92l16 90q12 67 54 103.5t108 36.5h155l-91 -512l332 282h46l-1 -4l-208 -179l151 -303l-1 -4h-38l-142 282l-148 -126l-28 -156h-35z" />
    <glyph glyph-name="f_t" unicode="ft" horiz-adv-x="577" 
d="M392 458h-221l-80 -458h-36l80 458h-92l6 32h92l17 98q13 71 55.5 103.5t95.5 32.5q26 0 43.5 -8t29.5 -18l-18 -28q-10 8 -25.5 15t-33.5 7q-38 0 -69.5 -26t-41.5 -81l-17 -95h220l27 150h36l-27 -150h124l-5 -32h-124l-60 -340q-2 -8 -2.5 -15t-0.5 -15
q0 -23 15.5 -43.5t50.5 -20.5q15 0 27 3t28 11l11 -30q-30 -16 -71 -16t-69 24.5t-28 68.5q0 11 1.5 21.5l3.5 24.5z" />
    <glyph glyph-name="r_f" unicode="rf" horiz-adv-x="631" 
d="M287 468q-12 2 -20 3t-20 1q-26 0 -52 -15.5t-48.5 -42t-38.5 -61t-23 -73.5l-50 -280h-35l86 490h32l-16 -87h4q25 45 63 73t85 28q9 0 19 -1t20 -3zM614 724q26 0 43.5 -8t29.5 -18l-18 -28q-10 8 -25.5 15t-33.5 7q-38 0 -69.5 -26t-41.5 -81l-17 -95h128l-6 -32h-128
l-80 -458h-36l80 458h-92l6 32h92l17 98q13 71 55.5 103.5t95.5 32.5z" />
    <glyph glyph-name="r_f_f" unicode="rff" horiz-adv-x="888" 
d="M287 468q-12 2 -20 3t-20 1q-26 0 -52 -15.5t-48.5 -42t-38.5 -61t-23 -73.5l-50 -280h-35l86 490h32l-16 -87h4q25 45 63 73t85 28q9 0 19 -1t20 -3zM871 724q26 0 43.5 -8t29.5 -18l-18 -28q-10 8 -25.5 15t-33.5 7q-38 0 -69.5 -26t-41.5 -81l-17 -95h128l-6 -32h-128
l-80 -458h-36l80 458h-220l-80 -458h-36l80 458h-92l6 32h92l17 98q13 71 55.5 103.5t95.5 32.5q26 0 43.5 -8t29.5 -18l-18 -28q-10 8 -25.5 15t-33.5 7q-38 0 -69.5 -26t-41.5 -81l-17 -95h220l17 98q13 71 55.5 103.5t95.5 32.5z" />
    <glyph glyph-name="r_t" unicode="rt" horiz-adv-x="627" 
d="M443 458h-92l5 32h92l27 150h36l-27 -150h124l-5 -32h-124l-60 -340q-2 -8 -2.5 -15t-0.5 -15q0 -23 15.5 -43.5t50.5 -20.5q15 0 27 3t28 11l11 -30q-30 -16 -71 -16t-69 24.5t-28 68.5q0 11 1.5 21.5l3.5 24.5zM287 468q-12 2 -20 3t-20 1q-26 0 -52 -15.5t-48.5 -42
t-38.5 -61t-23 -73.5l-50 -280h-35l86 490h32l-16 -87h4q25 45 63 73t85 28q9 0 19 -1t20 -3z" />
    <glyph glyph-name="t_f" unicode="tf" horiz-adv-x="582" 
d="M566 724q26 0 43.5 -8t29.5 -18l-18 -28q-10 8 -25.5 15t-33.5 7q-38 0 -69.5 -26t-41.5 -81l-17 -95h128l-6 -32h-128l-80 -458h-36l80 458h-219l-60 -340q-2 -8 -2.5 -15t-0.5 -15q0 -23 15.5 -43.5t50.5 -20.5q15 0 27 3t28 11l11 -30q-30 -16 -71 -16t-69 24.5
t-28 68.5q0 11 1.5 21.5l3.5 24.5l58 327h-92l5 32h92l27 150h36l-27 -150h220l17 98q13 71 55.5 103.5t95.5 32.5z" />
    <glyph glyph-name="t_t" unicode="tt" horiz-adv-x="577" 
d="M393 458h-220l-60 -340q-2 -8 -2.5 -15t-0.5 -15q0 -23 15.5 -43.5t50.5 -20.5q15 0 27 3t28 11l11 -30q-30 -16 -71 -16t-69 24.5t-28 68.5q0 11 1.5 21.5l3.5 24.5l58 327h-92l5 32h92l27 150h36l-27 -150h220l27 150h36l-27 -150h124l-5 -32h-124l-60 -340
q-2 -8 -2.5 -15t-0.5 -15q0 -23 15.5 -43.5t50.5 -20.5q15 0 27 3t28 11l11 -30q-30 -16 -71 -16t-69 24.5t-28 68.5q0 11 1.5 21.5l3.5 24.5z" />
    <glyph glyph-name=".notdef" horiz-adv-x="562" 
d="M82 716h398v-716h-398v716zM118 34h326v648h-326v-648z" />
    <glyph glyph-name=".null" horiz-adv-x="0" 
 />
    <glyph glyph-name="uni000D" horiz-adv-x="0" 
d="M0 0z" />
    <glyph glyph-name="NULL" horiz-adv-x="0" 
d="M0 0z" />
    <glyph glyph-name="NULL" horiz-adv-x="0" 
d="M0 0z" />
    <glyph glyph-name="nonmarkingreturn" unicode="&#xd;" horiz-adv-x="333" 
 />
    <glyph glyph-name="space" unicode=" " horiz-adv-x="250" 
d="M0 0z" />
    <glyph glyph-name="exclam" unicode="!" horiz-adv-x="178" 
d="M71 360l63 356h36l-63 -356l-46 -218h-20zM32 -6q-15 0 -25 10t-10 25t10 25t25 10t25 -10t10 -25t-10 -25t-25 -10z" />
    <glyph glyph-name="quotedbl" unicode="&#x22;" horiz-adv-x="242" 
d="M190 530l33 186h32l-33 -186h-32zM80 530l33 186h32l-33 -186h-32z" />
    <glyph glyph-name="numbersign" unicode="#" horiz-adv-x="598" 
d="M112 0l38 223h-128l8 32h126l32 183h-124l7 32h123l37 214h36l-37 -214h180l37 214h36l-37 -214h128l-7 -32h-127l-32 -183h125l-7 -32h-124l-38 -223h-36l38 223h-180l-38 -223h-36zM192 255h180l32 183h-180z" />
    <glyph glyph-name="dollar" unicode="$" horiz-adv-x="517" 
d="M184 -15q-33 4 -64 17.5t-56.5 36t-43 53.5t-23.5 69l33 14q13 -68 56 -109t104 -47l56 318q-33 15 -62 33t-50 40.5t-33 49.5t-12 60q0 43 17 76t47 55.5t70 35t86 13.5l15 84h32l-15 -86q60 -7 99.5 -45.5t53.5 -87.5l-35 -13q-6 19 -16.5 37.5t-26 34t-36 26
t-45.5 14.5l-53 -303q34 -15 63 -33.5t50 -41t32.5 -49.5t11.5 -61q0 -44 -17.5 -78.5t-48 -59.5t-71.5 -39t-87 -15l-14 -84h-32zM403 174q0 53 -35.5 89t-92.5 62l-54 -307q36 1 68.5 11.5t58 30t40.5 48t15 66.5zM125 524q0 -28 10.5 -51t28.5 -41t41 -32.5t47 -25.5
l51 292q-35 -1 -67.5 -10.5t-57 -27.5t-39 -44.5t-14.5 -59.5z" />
    <glyph glyph-name="percent" unicode="%" horiz-adv-x="806" 
d="M109 22l561 660l26 -22l-562 -659zM209 358q-29 0 -55.5 11.5t-46 32t-31 47.5t-11.5 58q0 39 13.5 74.5t38.5 61.5t60 41.5t78 15.5q31 0 57 -12t45 -32t29.5 -47t10.5 -57q0 -42 -14 -77.5t-39 -61.5t-59.5 -40.5t-75.5 -14.5zM213 388q34 0 62 12.5t48 33.5t31 50
t11 62q0 25 -8.5 47.5t-24 39.5t-36.5 27t-45 10q-33 0 -61 -12.5t-49 -34t-32.5 -50.5t-11.5 -62q0 -53 32 -88t84 -35zM552 -16q-29 0 -55.5 11.5t-46 32t-31 47.5t-11.5 58q0 39 13.5 74.5t38.5 61.5t60 41.5t78 15.5q31 0 57 -12t45 -32t29.5 -47t10.5 -57
q0 -42 -14 -77.5t-39 -61.5t-59.5 -40.5t-75.5 -14.5zM556 14q34 0 62 12.5t48 33.5t31 50t11 62q0 25 -8.5 47.5t-24 39.5t-36.5 27t-45 10q-33 0 -61 -12.5t-49 -34t-32.5 -50.5t-11.5 -62q0 -53 32 -88t84 -35z" />
    <glyph glyph-name="ampersand" unicode="&#x26;" horiz-adv-x="590" 
d="M431 99l55 -96l-30 -19l-51 87q-43 -47 -89 -67t-100 -20q-47 0 -84.5 16t-64 43t-40.5 64t-14 79t13.5 78t37 67t55.5 57.5t70 49.5l-7 12q-8 14 -19.5 44t-11.5 68q0 35 13 66t36 54t54.5 36.5t67.5 13.5q30 0 54.5 -10.5t43 -27.5t31 -39t18.5 -46l-32 -15
q-8 22 -18 41t-24.5 33t-32.5 22t-42 8q-29 0 -53 -11t-41.5 -30t-27.5 -44.5t-10 -54.5q0 -49 35 -108l189 -318l111 157l28 -20zM222 18q51 0 90.5 21t74.5 61l-180 306q-30 -15 -58.5 -37t-50 -49t-35 -60t-13.5 -71q0 -37 12.5 -68.5t35 -54t54.5 -35.5t70 -13z" />
    <glyph glyph-name="quotesingle" unicode="'" horiz-adv-x="132" 
d="M80 530l33 186h32l-33 -186h-32z" />
    <glyph glyph-name="parenleft" unicode="(" horiz-adv-x="299" 
d="M169 -136q-19 29 -38 67t-34.5 83.5t-25 98t-9.5 110.5q0 82 19.5 159t54.5 147.5t84.5 133.5t109.5 117l21 -24q-56 -50 -103 -109t-80.5 -126.5t-52.5 -142t-19 -155.5q0 -105 29.5 -192.5t70.5 -147.5z" />
    <glyph glyph-name="parenright" unicode=")" horiz-adv-x="299" 
d="M129 780q19 -29 38 -67t34.5 -83.5t25 -98t9.5 -110.5q0 -82 -19.5 -159t-54.5 -147.5t-84.5 -133.5t-109.5 -117l-21 24q56 50 103 109t80.5 126.5t52.5 142t19 155.5q0 105 -29.5 192.5t-70.5 147.5z" />
    <glyph glyph-name="asterisk" unicode="*" horiz-adv-x="390" 
d="M102 633l106 -40l11 5l21 118h36l-21 -118l9 -6l113 39l11 -34l-120 -40l-5 -11l54 -99l-32 -21l-54 99h-11l-88 -99l-28 24l89 98l-2 11l-104 38z" />
    <glyph glyph-name="plus" unicode="+" horiz-adv-x="538" 
d="M305 477l-33 -190h190l-6 -32h-190l-33 -190h-32l33 190h-190l6 32h190l33 190h32z" />
    <glyph glyph-name="comma" unicode="," horiz-adv-x="201" 
d="M-18 -78l64 77q-8 3 -13.5 11.5t-5.5 18.5q0 15 10 25t25 10q13 0 24 -8t11 -23q0 -11 -5.5 -19t-13.5 -18l-77 -90z" />
    <glyph glyph-name="hyphen" unicode="-" horiz-adv-x="426" 
d="M57 326h300l-6 -32h-300z" />
    <glyph glyph-name="period" unicode="." horiz-adv-x="178" 
d="M32 -6q-15 0 -25 10t-10 25t10 25t25 10t25 -10t10 -25t-10 -25t-25 -10z" />
    <glyph glyph-name="slash" unicode="/" horiz-adv-x="393" 
d="M-34 0l423 716h38l-424 -716h-37z" />
    <glyph glyph-name="zero" unicode="0" horiz-adv-x="622" 
d="M249 -16q-49 0 -88 21t-66 58t-41.5 88.5t-14.5 111.5q0 45 9.5 94.5t28.5 98t46.5 93t64.5 78t82 53.5t99 20q49 0 88 -21t66 -58t41.5 -88.5t14.5 -111.5q0 -45 -9.5 -94.5t-28.5 -98t-46.5 -93t-64.5 -78t-82 -53.5t-99 -20zM254 18q46 0 85.5 18.5t71.5 49.5
t56.5 71.5t41.5 85t25.5 89.5t8.5 85q0 54 -11 100t-33 79t-55.5 51.5t-79.5 18.5t-85.5 -18.5t-71.5 -49.5t-56.5 -71.5t-41.5 -85t-25.5 -89.5t-8.5 -85q0 -54 11 -100t33 -79t55.5 -51.5t79.5 -18.5z" />
    <glyph glyph-name="one" unicode="1" horiz-adv-x="318" 
d="M123 0l112 635l-132 -63l-15 30l169 82h23l-121 -684h-36z" />
    <glyph glyph-name="two" unicode="2" horiz-adv-x="503" 
d="M-18 0l7 38q59 49 114 96q48 40 97.5 83.5t84.5 75.5q34 31 62.5 58t48.5 53.5t31 55.5t11 65q0 29 -9 54.5t-27 45t-45.5 30.5t-64.5 11q-38 0 -67 -12t-51 -31t-36.5 -41.5t-21.5 -44.5l-31 14q8 24 24.5 50.5t42.5 48t61.5 36t82.5 14.5q43 0 76.5 -14t56 -37.5
t34 -54.5t11.5 -65q0 -39 -12 -72.5t-33.5 -64t-51 -59.5t-63.5 -59q-13 -11 -31 -27q-19 -17 -41 -35q-22 -19 -46 -39.5t-46 -40.5q-54 -47 -112 -98h357l-6 -34h-407z" />
    <glyph glyph-name="three" unicode="3" horiz-adv-x="509" 
d="M199 -16q-34 0 -66 10.5t-58.5 31.5t-44.5 53t-24 74l34 13q12 -72 56 -110t107 -38q41 0 77 14t63 38.5t43 57.5t16 72q0 67 -41.5 107.5t-111.5 40.5h-57l6 34h62q39 0 71 12.5t55.5 33.5t36.5 48.5t13 58.5q0 58 -36 94.5t-102 36.5t-108 -34.5t-63 -88.5l-32 16
q25 62 76 101.5t129 39.5q42 0 74 -12.5t54 -34.5t33.5 -51.5t11.5 -62.5t-12 -61.5t-31.5 -51t-43.5 -38.5t-47 -22l-1 -4q45 -17 73 -58t28 -96q0 -51 -20 -92t-53 -70.5t-76.5 -45.5t-90.5 -16z" />
    <glyph glyph-name="four" unicode="4" horiz-adv-x="568" 
d="M330 0l30 170h-349l4 18l428 496h44l-85 -480h88l-6 -34h-88l-30 -170h-36zM440 625h-4l-363 -421h293z" />
    <glyph glyph-name="five" unicode="5" horiz-adv-x="545" 
d="M213 -16q-39 0 -73.5 12t-61 35t-44 57.5t-22.5 78.5l34 11q11 -78 55.5 -119t116.5 -41q49 0 88.5 18t68 48.5t44 71t15.5 84.5q0 80 -43 123t-117 43q-46 0 -87.5 -20.5t-72.5 -55.5l-43 20l103 334h327l-6 -34h-295l-90 -280l4 -2q32 32 74 52t94 20q40 0 74.5 -13.5
t60 -38.5t40 -62t14.5 -83q0 -52 -18 -99t-52 -82.5t-81.5 -56.5t-106.5 -21z" />
    <glyph glyph-name="six" unicode="6" horiz-adv-x="547" 
d="M285 434q41 0 76.5 -14t61.5 -39.5t41 -61t15 -77.5q0 -52 -19.5 -98.5t-54 -82t-81.5 -56.5t-103 -21q-47 0 -84.5 17t-63.5 45t-40.5 63.5t-14.5 72.5q0 35 8.5 65.5t23.5 58.5t36 55.5t46 56.5l243 282l26 -22l-243 -281l2 -2q28 19 59 29t66 10zM229 18q45 0 83.5 18
t67.5 48t45.5 69.5t16.5 83.5q0 37 -12.5 67t-35 51.5t-53 33t-66.5 11.5q-44 0 -83.5 -17.5t-69.5 -47.5t-48 -68.5t-18 -80.5q0 -38 13.5 -68.5t37 -53t55 -34.5t67.5 -12z" />
    <glyph glyph-name="seven" unicode="7" horiz-adv-x="509" 
d="M38 4l439 646h-380l8 34h417l-6 -38l-449 -662z" />
    <glyph glyph-name="eight" unicode="8" horiz-adv-x="538" 
d="M176 368q-11 7 -24.5 19.5t-25.5 29.5t-20.5 39t-8.5 48q0 42 17 77.5t46.5 62t70.5 41.5t89 15q38 0 71 -11.5t57 -32.5t38 -50.5t14 -65.5q0 -60 -38 -106t-96 -69l-1 -4q43 -20 72 -61t29 -94q0 -48 -19.5 -88.5t-53.5 -70.5t-81 -46.5t-101 -16.5q-44 0 -80.5 14.5
t-63 39t-41 56.5t-14.5 68q0 72 44.5 122.5t118.5 79.5zM268 347q-39 0 -78.5 -12.5t-70.5 -36t-50.5 -58t-19.5 -79.5q0 -31 13 -57.5t35 -45.5t52 -29.5t64 -10.5q45 0 85 13.5t69 38t46 58.5t17 76q0 33 -12 59t-33.5 45t-51 29t-65.5 10zM310 666q-32 0 -63.5 -11.5
t-56.5 -32.5t-41 -50.5t-16 -65.5q0 -30 11.5 -53.5t30.5 -40.5t44.5 -26t53.5 -9q34 0 68.5 11.5t61.5 32t44 48.5t17 62q0 64 -43 99.5t-111 35.5z" />
    <glyph glyph-name="nine" unicode="9" horiz-adv-x="547" 
d="M255 250q-41 0 -76.5 14t-61.5 39.5t-41 61t-15 77.5q0 52 19.5 98.5t54 82t81.5 56.5t103 21q46 0 84 -17t64 -45t40.5 -63.5t14.5 -72.5q0 -35 -8.5 -65.5t-23.5 -58.5t-36 -55.5t-46 -56.5l-243 -282l-26 22l243 281l-2 2q-28 -19 -59 -29t-66 -10zM311 666
q-45 0 -83.5 -18t-67.5 -48t-45.5 -70t-16.5 -83q0 -37 12.5 -67t35 -51.5t53 -33t66.5 -11.5q43 0 83 17.5t70 47.5t48 68.5t18 80.5q0 37 -13.5 68t-37 53.5t-55 34.5t-67.5 12z" />
    <glyph glyph-name="colon" unicode=":" horiz-adv-x="178" 
d="M32 -6q-15 0 -25 10t-10 25t10 25t25 10t25 -10t10 -25t-10 -25t-25 -10zM107 426q-15 0 -25 10t-10 25t10 25t25 10t25 -10t10 -25t-10 -25t-25 -10z" />
    <glyph glyph-name="semicolon" unicode=";" horiz-adv-x="174" 
d="M-49 -78l64 77q-8 3 -13.5 11.5t-5.5 18.5q0 15 10 25t25 10q13 0 24 -8t11 -23q0 -11 -5.5 -19t-13.5 -18l-77 -90zM107 426q-15 0 -25 10t-10 25t10 25t25 10t25 -10t10 -25t-10 -25t-25 -10z" />
    <glyph glyph-name="less" unicode="&#x3c;" horiz-adv-x="473" 
d="M45 257l5 28l372 175l-6 -40l-319 -149l-1 -4l267 -148l-7 -37z" />
    <glyph glyph-name="equal" unicode="=" horiz-adv-x="550" 
d="M42 240h424l-6 -32h-424zM75 430h424l-5 -32h-424z" />
    <glyph glyph-name="greater" unicode="&#x3e;" horiz-adv-x="473" 
d="M397 285l-5 -28l-372 -175l6 40l319 149l1 4l-267 148l7 37z" />
    <glyph glyph-name="question" unicode="?" horiz-adv-x="477" 
d="M181 197q7 44 16.5 73t24 51t36.5 41t54 44q25 19 45.5 37.5t35 38.5t22.5 42.5t8 48.5q0 27 -11 50t-30.5 39.5t-46 26t-57.5 9.5q-63 0 -104 -33t-61 -89l-32 16q11 29 28.5 54.5t42.5 44.5t58 30t74 11q39 0 71 -12.5t55.5 -33.5t36.5 -49t13 -59q0 -60 -34 -105.5
t-95 -92.5q-30 -23 -49 -40.5t-31.5 -37t-20 -44t-13.5 -61.5l-9 -55h-36zM170 -6q-15 0 -25 10t-10 25t10 25t25 10t25 -10t10 -25t-10 -25t-25 -10z" />
    <glyph glyph-name="at" unicode="@" horiz-adv-x="870" 
d="M485 690q75 0 137 -26t106.5 -70.5t69.5 -104t25 -127.5q0 -59 -12 -108t-35 -84t-55.5 -54.5t-74.5 -19.5q-22 0 -39 8.5t-29 22t-18 31t-6 34.5q-35 -49 -78.5 -72.5t-93.5 -23.5q-32 0 -60.5 12t-50 34.5t-34 54.5t-12.5 72q0 46 16 88.5t45 75t69.5 52t90.5 19.5
q27 0 49 -7.5t39.5 -19.5t30 -27t18.5 -31h4l13 71h34l-46 -261q-2 -11 -2 -16v-11q0 -35 17.5 -54.5t47.5 -19.5q33 0 58.5 18t43.5 48.5t27 71t9 84.5q0 65 -22.5 121t-63 97t-96.5 64.5t-122 23.5q-81 0 -155 -30t-130 -83.5t-89.5 -127.5t-33.5 -162q0 -63 21.5 -118
t60.5 -95.5t93.5 -64t121.5 -23.5q76 0 138 31l13 -31q-32 -16 -69 -25t-87 -9q-73 0 -133.5 25.5t-103.5 69.5t-67 104.5t-24 131.5q0 94 36 175t96.5 140t141 92.5t170.5 33.5zM387 128q39 0 72.5 17.5t58.5 46.5t39.5 66.5t14.5 78.5q0 31 -10.5 56.5t-28 42.5t-41 26.5
t-50.5 9.5q-40 0 -73.5 -17t-58 -45.5t-38 -65t-13.5 -75.5q0 -32 10 -58t27 -44.5t40.5 -28.5t50.5 -10z" />
    <glyph glyph-name="A" unicode="A" horiz-adv-x="638" 
d="M360 716h44l157 -716h-35l-48 220h-362l-125 -220h-41zM470 254l-92 418h-4l-238 -418h334z" />
    <glyph glyph-name="B" unicode="B" horiz-adv-x="580" 
d="M145 716h241q38 0 69 -12.5t53 -34.5t34 -52t12 -64q0 -33 -12 -62t-31 -53t-44 -42t-50 -27l-1 -4q42 -16 72 -56t30 -99q0 -42 -17.5 -80t-49.5 -67t-76.5 -46t-97.5 -17h-259zM331 383q35 0 68 13t59 35.5t42 52t16 63.5q0 63 -36 99t-98 36h-207l-53 -299h209z
M283 34q42 0 78 14.5t63 38.5t42 55t15 64q0 63 -40.5 103t-110.5 40h-214l-56 -315h223z" />
    <glyph glyph-name="C" unicode="C" horiz-adv-x="720" 
d="M638 116q-54 -60 -125 -96t-175 -36q-62 0 -117 23t-96 65t-65 102t-24 135q0 85 33 161.5t90 134.5t134 92.5t165 34.5q90 0 149 -32.5t98 -88.5l-31 -21q-35 55 -92 81.5t-129 26.5q-80 0 -149 -32.5t-121 -86.5t-81.5 -124.5t-29.5 -146.5q0 -66 21.5 -119.5t58 -91.5
t85.5 -58.5t104 -20.5q47 0 85 8.5t70 24.5t60.5 38.5t56.5 51.5z" />
    <glyph glyph-name="D" unicode="D" horiz-adv-x="678" 
d="M145 716h197q148 0 224.5 -80.5t76.5 -222.5q0 -82 -28.5 -157t-83 -132t-134 -90.5t-182.5 -33.5h-197zM221 34q90 0 161.5 30t121.5 81.5t76.5 119.5t26.5 143q0 139 -71 206.5t-200 67.5h-161l-115 -648h161z" />
    <glyph glyph-name="E" unicode="E" horiz-adv-x="531" 
d="M175 682l-55 -307h322l-5 -34h-322l-55 -307h354l-6 -34h-390l127 716h390l-6 -34h-354z" />
    <glyph glyph-name="F" unicode="F" horiz-adv-x="508" 
d="M145 716h390l-6 -34h-354l-56 -315h322l-6 -34h-322l-59 -333h-36z" />
    <glyph glyph-name="G" unicode="G" horiz-adv-x="795" 
d="M421 367h327q0 -12 -1 -22t-3 -19q-14 -70 -40.5 -125t-66.5 -98q-53 -57 -125.5 -88t-165.5 -31q-65 0 -121.5 24t-98.5 67.5t-66 105t-24 135.5q0 83 32.5 158.5t90.5 132.5t137 91t171 34q81 0 144 -28.5t101 -83.5l-31 -24q-32 48 -89.5 75t-128.5 27
q-81 0 -152 -30.5t-124.5 -82.5t-84 -120.5t-30.5 -143.5q0 -69 21.5 -124.5t59.5 -95.5t89.5 -61.5t111.5 -21.5q78 0 144 30t114 81q39 42 63.5 94.5t32.5 111.5h-293z" />
    <glyph glyph-name="H" unicode="H" horiz-adv-x="678" 
d="M145 716h36l-59 -333h442l59 333h36l-127 -716h-36l62 349h-442l-62 -349h-36z" />
    <glyph glyph-name="I" unicode="I" horiz-adv-x="200" 
d="M145 716h36l-127 -716h-36z" />
    <glyph glyph-name="J" unicode="J" horiz-adv-x="503" 
d="M172 -16q-70 0 -119.5 41.5t-60.5 125.5l30 11q16 -80 55 -112t99 -32q79 0 130 48.5t68 144.5l89 505h36l-90 -511q-18 -105 -81 -163t-156 -58z" />
    <glyph glyph-name="K" unicode="K" horiz-adv-x="567" 
d="M145 716h36l-75 -427h4l446 427h44l-1 -4l-311 -299l214 -409l-1 -4h-37l-204 386l-166 -159l-40 -227h-36z" />
    <glyph glyph-name="L" unicode="L" horiz-adv-x="483" 
d="M145 716h36l-121 -682h338l-6 -34h-374z" />
    <glyph glyph-name="M" unicode="M" horiz-adv-x="820" 
d="M145 716h33l201 -510h4l382 510h36l-127 -716h-34l93 528l26 120h-4l-371 -496h-20l-197 496h-4l-18 -120l-93 -528h-34z" />
    <glyph glyph-name="N" unicode="N" horiz-adv-x="684" 
d="M145 716h49l320 -652h4l20 138l91 514h36l-127 -716h-32l-332 678h-4l-20 -138l-96 -540h-36z" />
    <glyph glyph-name="O" unicode="O" horiz-adv-x="808" 
d="M353 -16q-70 0 -128 25.5t-100 70t-65.5 105t-23.5 130.5q0 85 31.5 161t87.5 133t132.5 90t167.5 33q70 0 128 -25.5t100 -70t65.5 -105t23.5 -130.5q0 -86 -31.5 -161.5t-87.5 -132.5t-132.5 -90t-167.5 -33zM357 18q81 0 150.5 30.5t120 82.5t79.5 120.5t29 145.5
q0 66 -21 121.5t-59 95t-90 62t-115 22.5q-81 0 -150.5 -30.5t-120 -82.5t-79.5 -121t-29 -145q0 -66 21 -121.5t59 -95t90 -62t115 -22.5z" />
    <glyph glyph-name="P" unicode="P" horiz-adv-x="549" 
d="M18 0l127 716h216q43 0 78 -12.5t60 -36t39 -57t14 -75.5q0 -50 -19.5 -92t-54.5 -72.5t-82.5 -47.5t-103.5 -17h-184l-54 -306h-36zM296 340q50 0 90.5 14.5t69 40.5t44 62t15.5 79q0 37 -13 64.5t-34.5 45.5t-49.5 27t-59 9h-184l-61 -342h182z" />
    <glyph glyph-name="Q" unicode="Q" horiz-adv-x="808" 
d="M353 -16q-70 0 -128 25.5t-100 70t-65.5 105t-23.5 130.5q0 85 31.5 161t87.5 133t132.5 90t167.5 33q70 0 128 -25.5t100 -70t65.5 -105t23.5 -130.5q0 -112 -52 -205t-142 -149l29 -58l-31 -15l-28 56q-89 -46 -195 -46zM357 18q48 0 92.5 11.5t83.5 31.5l-82 166
l32 16l80 -165q80 52 126.5 136t46.5 183q0 66 -21 121.5t-59 95t-90 62t-115 22.5q-81 0 -150.5 -30.5t-120 -82.5t-79.5 -121t-29 -145q0 -66 21 -121.5t59 -95t90 -62t115 -22.5z" />
    <glyph glyph-name="R" unicode="R" horiz-adv-x="559" 
d="M145 716h220q43 0 77.5 -14t59 -38.5t37.5 -57t13 -69.5q0 -48 -18.5 -87t-49 -68t-69.5 -47.5t-80 -25.5l-2 -3l152 -302l-1 -4h-36l-156 306h-184l-54 -306h-36zM294 340q45 0 85.5 14.5t70.5 40.5t48 61.5t18 76.5q0 35 -12.5 63t-33.5 47t-48.5 29t-58.5 10h-188
l-61 -342h180z" />
    <glyph glyph-name="S" unicode="S" horiz-adv-x="531" 
d="M216 -16q-47 0 -84.5 14.5t-65 40t-45 60.5t-26.5 76l32 14q20 -80 64.5 -125.5t124.5 -45.5q39 0 76 13t65.5 37.5t46 59t17.5 78.5q0 54 -39.5 89.5t-106.5 60.5l-42 16q-29 11 -55 27.5t-46 38t-31.5 49.5t-11.5 61q0 40 17.5 73.5t47.5 58t69.5 38.5t84.5 14
q49 0 83.5 -13.5t57 -35t35.5 -47.5t20 -50l-34 -14q-8 24 -19.5 46.5t-30 40t-46.5 28.5t-67 11q-36 0 -69 -11t-58 -30.5t-39.5 -47t-14.5 -60.5q0 -29 10 -51.5t27 -40.5t40 -31.5t50 -23.5l44 -17q32 -12 61.5 -28.5t52 -38t36 -50t13.5 -64.5q0 -45 -19 -85t-52 -70
t-77.5 -47.5t-95.5 -17.5z" />
    <glyph glyph-name="T" unicode="T" horiz-adv-x="502" 
d="M169 0l121 682h-206l6 34h448l-6 -34h-206l-121 -682h-36z" />
    <glyph glyph-name="U" unicode="U" horiz-adv-x="628" 
d="M249 -16q-48 0 -86.5 15.5t-65.5 43.5t-41.5 67.5t-14.5 88.5q0 14 1.5 31t5.5 40l79 446h36l-79 -452q-4 -21 -5.5 -35t-1.5 -29q0 -39 12 -72.5t34.5 -57.5t56 -38t75.5 -14q52 0 95 17.5t76 49t55 75t31 94.5l81 462h36l-84 -474q-10 -57 -34.5 -104t-62 -81.5
t-88 -53.5t-111.5 -19z" />
    <glyph glyph-name="V" unicode="V" horiz-adv-x="594" 
d="M76 716h38l123 -652h4l360 652h43l-402 -716h-29z" />
    <glyph glyph-name="W" unicode="W" horiz-adv-x="894" 
d="M611 0h-40l-81 568h-4l-279 -568h-40l-86 716h37l77 -656h4l275 560h44l80 -560h4l297 656h40z" />
    <glyph glyph-name="X" unicode="X" horiz-adv-x="592" 
d="M273 372l-178 344h44l160 -313h4l273 313h49l-304 -346l189 -370h-42l-173 338h-4l-289 -338h-47z" />
    <glyph glyph-name="Y" unicode="Y" horiz-adv-x="564" 
d="M202 0l56 315l-182 401h40l163 -361h4l286 361h45l-320 -401l-56 -315h-36z" />
    <glyph glyph-name="Z" unicode="Z" horiz-adv-x="541" 
d="M-19 42l527 640h-399l6 34h440l-8 -42l-528 -640h419l-6 -34h-459z" />
    <glyph glyph-name="bracketleft" unicode="[" horiz-adv-x="300" 
d="M189 762l-151 -856h150l-5 -30h-182l161 916h182l-5 -30h-150z" />
    <glyph glyph-name="backslash" unicode="\" horiz-adv-x="393" 
d="M263 0l-170 716h35l170 -716h-35z" />
    <glyph glyph-name="bracketright" unicode="]" horiz-adv-x="300" 
d="M111 762l5 30h182l-161 -916h-181l5 30h149l151 856h-150z" />
    <glyph glyph-name="asciicircum" unicode="^" horiz-adv-x="432" 
d="M390 410l-113 266h-4l-206 -266h-45l241 306h32l133 -306h-38z" />
    <glyph glyph-name="underscore" unicode="_" horiz-adv-x="456" 
d="M-74 -184h451l-6 -32h-451z" />
    <glyph glyph-name="grave" unicode="`" horiz-adv-x="380" 
d="M214 596l-42 120h45l29 -120h-32z" />
    <glyph glyph-name="a" unicode="a" horiz-adv-x="501" 
d="M366 101h-4q-36 -55 -90.5 -86t-122.5 -31q-36 0 -65 11.5t-49 32t-31 47.5t-11 57q0 42 17.5 74.5t48 54.5t72 33.5t88.5 11.5q52 0 98.5 -14t76.5 -33l8 42q3 19 3 38q0 64 -39.5 99.5t-106.5 35.5q-24 0 -48.5 -6t-46.5 -17.5t-40.5 -27.5t-31.5 -36l-28 19
q32 49 85 74.5t115 25.5q41 0 74 -12t56 -33.5t35.5 -52t12.5 -67.5q0 -11 -1 -20.5t-3 -20.5l-53 -300h-36zM388 225q-35 23 -76.5 36t-96.5 13q-38 0 -71.5 -9t-59.5 -27t-41 -45t-15 -63q0 -55 37.5 -84.5t91.5 -29.5q41 0 79.5 17t70 46t53 66.5t28.5 79.5z" />
    <glyph glyph-name="b" unicode="b" horiz-adv-x="562" 
d="M127 716h36l-46 -261l-16 -68h4q14 24 34.5 45.5t47.5 38t60 26t71 9.5q45 0 82 -16.5t63 -45.5t40 -69.5t14 -88.5q0 -55 -19 -109t-55 -97t-88 -69.5t-118 -26.5q-38 0 -67.5 11t-52 28.5t-37.5 39.5t-24 43h-4l-19 -106h-32zM237 16q55 0 100 23t77 60.5t49.5 84.5
t17.5 95q0 46 -13 82.5t-35.5 61.5t-53 38t-66.5 13q-53 0 -97 -24.5t-76 -63t-49.5 -87t-17.5 -96.5q0 -46 13 -81t35.5 -58.5t52.5 -35.5t63 -12z" />
    <glyph glyph-name="c" unicode="c" horiz-adv-x="504" 
d="M436 120q-38 -69 -90.5 -102.5t-130.5 -33.5q-45 0 -82.5 17.5t-65.5 47.5t-43.5 70.5t-15.5 87.5q0 58 21 112t58.5 95.5t90 66.5t115.5 25q75 0 119.5 -36.5t67.5 -101.5l-34 -15q-20 58 -56 89.5t-99 31.5q-52 0 -97 -22t-78.5 -58.5t-52.5 -85t-19 -101.5
q0 -43 14 -78.5t38 -60.5t56 -38.5t67 -13.5q66 0 110 30t77 90z" />
    <glyph glyph-name="d" unicode="d" horiz-adv-x="562" 
d="M423 100h-4q-30 -49 -83 -82.5t-126 -33.5q-44 0 -81.5 15.5t-64.5 44.5t-42 70t-15 91q0 54 20 108t56.5 97t88.5 69.5t115 26.5q40 0 70.5 -11t52 -28.5t35.5 -39.5t23 -45h4l8 68l47 266h36l-126 -716h-32zM212 16q54 0 98 23.5t75.5 62t48.5 87t17 98.5q0 43 -12 78
t-34 59t-52 37t-66 13q-56 0 -101 -24t-76.5 -62.5t-49 -86.5t-17.5 -96q0 -45 13.5 -80.5t36.5 -59.5t53.5 -36.5t65.5 -12.5z" />
    <glyph glyph-name="e" unicode="e" horiz-adv-x="520" 
d="M436 116q-17 -28 -38.5 -52t-48.5 -42t-60.5 -28t-74.5 -10q-44 0 -81.5 15.5t-65.5 44t-44 70t-16 93.5t19.5 105.5t55 96.5t86 70t112.5 27q49 0 86 -15t61.5 -42t36.5 -63.5t12 -78.5q0 -38 -8 -67h-421q-3 -17 -3 -41q0 -42 14.5 -76t38.5 -58t55 -36.5t64 -12.5
q36 0 65 9t52.5 24.5t42 37t33.5 46.5zM439 272q1 8 1.5 16t0.5 16q0 28 -8 58t-26.5 55t-50 41t-77.5 16q-35 0 -70.5 -13.5t-66.5 -39t-54.5 -63.5t-34.5 -86h386z" />
    <glyph glyph-name="f" unicode="f" horiz-adv-x="326" 
d="M309 724q26 0 43.5 -8t29.5 -18l-18 -28q-10 8 -25.5 15t-33.5 7q-38 0 -69.5 -26t-41.5 -81l-17 -95h128l-6 -32h-128l-80 -458h-36l80 458h-92l6 32h92l17 98q13 71 55.5 103.5t95.5 32.5z" />
    <glyph glyph-name="g" unicode="g" horiz-adv-x="558" 
d="M191 -232q-44 0 -76.5 12t-56 31.5t-38.5 45t-22 52.5l32 12q14 -54 54.5 -87.5t106.5 -33.5q48 0 86.5 16t67 45t47.5 69t27 88l13 76h-5q-32 -47 -83 -78.5t-123 -31.5q-42 0 -77.5 16.5t-61.5 45.5t-41 69t-15 88q0 59 20.5 113.5t57 96.5t88 67.5t114.5 25.5
q37 0 66.5 -10.5t51 -27.5t35.5 -38.5t20 -43.5h5l18 104h36l-84 -479q-11 -59 -34.5 -104.5t-58 -76t-78 -46.5t-92.5 -16zM224 16q54 0 98 24t75.5 63t49 87.5t17.5 97.5q0 46 -12.5 81t-34.5 58.5t-51 35t-62 11.5q-55 0 -99.5 -22.5t-76 -60t-48.5 -85.5t-17 -99
q0 -44 13 -79.5t35 -60t51 -38t62 -13.5z" />
    <glyph glyph-name="h" unicode="h" 
d="M126 716h36l-46 -259l-20 -88h4q35 63 89 100t126 37q38 0 66 -12t46 -32.5t27 -48.5t9 -61q0 -11 -1 -24t-3 -22l-54 -306h-36l54 305q4 23 4 48q0 52 -29 86.5t-89 34.5q-39 0 -76.5 -18.5t-69 -51.5t-54.5 -77.5t-32 -96.5l-41 -230h-36z" />
    <glyph glyph-name="i" unicode="i" horiz-adv-x="170" 
d="M3 0l87 490h36l-87 -490h-36zM138 625q-14 0 -24 10t-10 24t10 24t24 10t24 -10t10 -24t-10 -24t-24 -10z" />
    <glyph glyph-name="j" unicode="j" horiz-adv-x="170" 
d="M-127 -184q6 -4 15 -7t20 -3q31 0 50 22t27 63l106 599h36l-107 -608q-8 -45 -36.5 -76.5t-77.5 -31.5q-15 0 -27.5 3t-18.5 7zM138 625q-14 0 -24 10t-10 24t10 24t24 10t24 -10t10 -24t-10 -24t-24 -10z" />
    <glyph glyph-name="k" unicode="k" horiz-adv-x="455" 
d="M126 716h36l-90 -508l332 282h46l-1 -4l-208 -179l151 -303l-1 -4h-38l-142 282l-148 -126l-28 -156h-35z" />
    <glyph glyph-name="l" unicode="l" horiz-adv-x="162" 
d="M0 0l126 716h36l-127 -716h-35z" />
    <glyph glyph-name="m" unicode="m" horiz-adv-x="830" 
d="M86 490h32l-21 -116h4q13 27 32 51t43 42t54 28.5t66 10.5q67 0 98.5 -37t34.5 -94q14 28 35 52t46.5 41.5t54.5 27.5t60 10q39 0 66.5 -11.5t44.5 -30t24.5 -43t7.5 -49.5q0 -14 -1.5 -29.5t-5.5 -38.5l-54 -304h-36l55 307q2 14 3.5 28t1.5 27q0 48 -24 80t-86 32
q-37 0 -70.5 -17t-60.5 -46.5t-46.5 -69.5t-27.5 -86l-45 -255h-36l54 303q2 11 3.5 25t1.5 26q0 54 -25 87t-81 33q-40 0 -74.5 -19t-61.5 -51.5t-46 -74.5t-27 -88l-43 -241h-36z" />
    <glyph glyph-name="n" unicode="n" 
d="M97 374h4q15 27 36 51t48 42t60.5 28.5t72.5 10.5q36 0 63.5 -12t46 -32t27.5 -48t9 -59q0 -22 -6 -55l-53 -300h-36l53 300q2 15 4 26q1 11 1 24q0 55 -29 89.5t-89 34.5q-42 0 -79.5 -18t-68 -49t-52 -72.5t-29.5 -88.5l-44 -246h-36l86 490h32z" />
    <glyph glyph-name="o" unicode="o" horiz-adv-x="548" 
d="M291 506q44 0 83 -16.5t67.5 -46.5t45 -71.5t16.5 -90.5q0 -57 -20 -110.5t-57 -95t-89.5 -66.5t-116.5 -25q-44 0 -83 16.5t-67.5 46.5t-45 71t-16.5 91q0 57 20 110.5t57 95t89 66.5t117 25zM224 16q53 0 97.5 22t77 58.5t50.5 84t18 98.5q0 42 -14 77.5t-38.5 61.5
t-57.5 41t-70 15q-53 0 -97.5 -22t-77 -58.5t-50.5 -84t-18 -98.5q0 -42 14 -77.5t38.5 -61.5t57 -41t70.5 -15z" />
    <glyph glyph-name="p" unicode="p" horiz-adv-x="558" 
d="M101 490h32l-17 -99h4q15 23 36.5 44t48 36.5t58 25t67.5 9.5q93 0 147 -58t54 -161q0 -59 -20 -114t-57 -97t-88.5 -67t-114.5 -25q-36 0 -66 10.5t-52.5 27.5t-38 39.5t-24.5 46.5h-4l-8 -68l-46 -256h-35zM254 16q57 0 102 24.5t75.5 62.5t47 85.5t16.5 94.5t-13 82.5
t-35.5 59.5t-53.5 36.5t-67 12.5q-53 0 -96.5 -23.5t-74.5 -62t-48.5 -88.5t-17.5 -103q0 -41 13 -74.5t35 -57t52 -36.5t65 -13z" />
    <glyph glyph-name="q" unicode="q" horiz-adv-x="558" 
d="M398 -226h-36l46 261l16 68h-4q-14 -24 -35 -45.5t-48 -38t-59.5 -26t-70.5 -9.5q-45 0 -82 16.5t-63 45.5t-40 69.5t-14 88.5q0 55 19 109t55 97t88 69.5t118 26.5q37 0 67 -10.5t52.5 -28t38 -39.5t23.5 -44h4l19 106h32zM288 474q-55 0 -100 -23t-77 -60.5
t-49.5 -84.5t-17.5 -95q0 -47 12.5 -83t35 -61t53.5 -38t67 -13q53 0 97 24.5t76 63t49.5 87t17.5 96.5q0 46 -13 81t-35.5 58.5t-52.5 35.5t-63 12z" />
    <glyph glyph-name="r" unicode="r" horiz-adv-x="306" 
d="M0 0l86 490h32l-16 -92h4q23 48 66 77t90 29q23 0 36 -3t27 -11l-16 -32q-11 7 -22.5 10.5t-29.5 3.5q-27 0 -54.5 -14.5t-51 -40t-41.5 -60.5t-25 -77l-50 -280h-35z" />
    <glyph glyph-name="s" unicode="s" horiz-adv-x="441" 
d="M175 -16q-39 0 -70.5 11.5t-55.5 31t-39.5 45t-21.5 53.5l33 14q15 -57 55.5 -90t103.5 -33q29 0 57.5 6.5t51 20.5t36.5 35.5t14 51.5q0 35 -26.5 59.5t-83.5 41.5l-48 14q-27 8 -50.5 19.5t-41 27t-27.5 35.5t-10 45q0 31 14.5 55.5t39.5 42t58.5 27t72.5 9.5
q64 0 109 -27.5t64 -87.5l-33 -13q-13 46 -50 71t-91 25q-30 0 -56.5 -6.5t-47 -19t-32.5 -31.5t-12 -43q0 -39 30 -62t75 -36l58 -17q58 -17 91.5 -48t33.5 -77q0 -35 -16 -63t-44 -47.5t-64.5 -29.5t-76.5 -10z" />
    <glyph glyph-name="t" unicode="t" horiz-adv-x="321" 
d="M137 458h-92l5 32h92l27 150h36l-27 -150h124l-5 -32h-124l-60 -340q-2 -8 -2.5 -15t-0.5 -15q0 -23 15.5 -43.5t50.5 -20.5q15 0 27 3t28 11l11 -30q-30 -16 -71 -16t-69 24.5t-28 68.5q0 11 1.5 21.5l3.5 24.5z" />
    <glyph glyph-name="u" unicode="u" 
d="M392 116h-4q-15 -27 -36.5 -51t-48.5 -42t-60 -28.5t-72 -10.5q-36 0 -63.5 12t-46 32t-27.5 47.5t-9 59.5q0 22 6 55l53 300h36l-53 -300q-2 -15 -3 -26q-2 -11 -2 -24q0 -55 29 -89.5t89 -34.5q42 0 79.5 18t68 49t52 72.5t29.5 88.5l44 246h36l-86 -490h-32z" />
    <glyph glyph-name="v" unicode="v" horiz-adv-x="464" 
d="M28 490h37l105 -456h2l271 456h39l-291 -490h-48z" />
    <glyph glyph-name="w" unicode="w" horiz-adv-x="710" 
d="M446 0l-76 451l-231 -451h-33l-79 490h34l69 -437h1l223 437h42l74 -432h1l223 432h35l-251 -490h-32z" />
    <glyph glyph-name="x" unicode="x" horiz-adv-x="422" 
d="M310 0l-122 222l-196 -222h-46l224 252l-128 238h42l111 -211l187 211h46l-216 -241l137 -249h-39z" />
    <glyph glyph-name="y" unicode="y" horiz-adv-x="458" 
d="M17 -216l160 260l-129 446h39l115 -403h2l247 403h43l-436 -706h-41z" />
    <glyph glyph-name="z" unicode="z" horiz-adv-x="440" 
d="M-22 28l392 430h-309l6 32h356l-5 -28l-393 -430h321l-6 -32h-367z" />
    <glyph glyph-name="braceleft" unicode="{" horiz-adv-x="299" 
d="M161 -124q-62 0 -90 31.5t-28 79.5q0 11 0.5 19.5t2.5 19.5l37 208q2 7 2 13v12q0 26 -14.5 41.5t-47.5 15.5l7 36q41 0 61 23t28 66l36 203q12 67 53.5 107.5t113.5 40.5h21l-5 -30h-19q-56 0 -89 -33t-44 -91l-36 -202q-8 -45 -25.5 -67.5t-46.5 -32.5l-1 -4
q41 -15 41 -70q0 -15 -3 -30l-37 -208q-3 -17 -3 -32q0 -40 23 -63t75 -23h14l-5 -30h-21z" />
    <glyph glyph-name="bar" unicode="|" horiz-adv-x="196" 
d="M162 792h32l-161 -912h-32z" />
    <glyph glyph-name="braceright" unicode="}" horiz-adv-x="299" 
d="M137 792q62 0 90 -31.5t28 -79.5q0 -11 -0.5 -19.5t-2.5 -19.5l-37 -208q-2 -7 -2 -13v-12q0 -26 14.5 -41.5t47.5 -15.5l-7 -36q-41 0 -61 -23t-28 -66l-36 -203q-12 -67 -53.5 -107.5t-113.5 -40.5h-21l5 30h19q56 0 89 33t44 91l36 202q8 45 25.5 67.5t46.5 32.5l1 4
q-41 15 -41 70q0 15 3 30l37 208q3 16 3 32q0 40 -23 63t-75 23h-14l5 30h21z" />
    <glyph glyph-name="asciitilde" unicode="~" horiz-adv-x="506" 
d="M344 249q-31 0 -56 13t-48 29q-24 16 -48 29t-53 13q-35 0 -58 -22.5t-31 -54.5h-32q11 51 44.5 81t80.5 30q31 0 56 -13t49 -29q23 -16 47 -29t53 -13q35 0 58.5 22.5t31.5 54.5h32q-11 -51 -44.5 -81t-81.5 -30z" />
    <glyph glyph-name="uni00A0" unicode="&#xa0;" horiz-adv-x="220" 
d="M0 0z" />
    <glyph glyph-name="exclamdown" unicode="&#xa1;" horiz-adv-x="178" 
d="M68 140l-63 -356h-36l63 356l46 218h20zM107 506q15 0 25 -10t10 -25t-10 -25t-25 -10t-25 10t-10 25t10 25t25 10z" />
    <glyph glyph-name="cent" unicode="&#xa2;" horiz-adv-x="499" 
d="M451 219q-38 -69 -91 -102.5t-127 -33.5l-14 -83h-32l15 84q-39 5 -72 24.5t-57 49t-37 68t-13 80.5q0 58 20 110t56 92t85.5 64.5t108.5 27.5l15 84h32l-15 -84q66 -4 107.5 -38t62.5 -95l-34 -15q-20 54 -52.5 83.5t-89.5 32.5l-80 -453q62 2 105.5 31t76.5 89zM59 306
q0 -39 11.5 -71.5t31 -57t46.5 -40t59 -20.5l80 451q-48 -4 -90 -26.5t-72.5 -58t-48 -81.5t-17.5 -96z" />
    <glyph glyph-name="sterling" unicode="&#xa3;" horiz-adv-x="496" 
d="M157 268q3 -17 3 -34q0 -31 -8.5 -58.5t-23.5 -52t-35.5 -46t-43.5 -40.5l3 -3h228q53 0 79 20t43 55l29 -13q-23 -50 -57.5 -73t-95.5 -23h-305l5 24q71 42 108.5 96.5t37.5 107.5q0 11 -1 20.5t-3 19.5h-96l5 32h84q-6 23 -14 46q-9 22 -16.5 45.5t-13 49t-5.5 54.5
q0 42 15 79t42.5 65t67.5 44.5t90 16.5q40 0 70.5 -11.5t52 -31t35 -44t19.5 -49.5l-37 -14q-6 21 -16 41.5t-27 37t-41.5 27t-57.5 10.5q-42 0 -75 -14t-55.5 -38t-34.5 -55.5t-12 -65.5q0 -29 5.5 -54t13 -48t16.5 -45q9 -23 15 -46h158l-5 -32h-146z" />
    <glyph glyph-name="currency" unicode="&#xa4;" horiz-adv-x="586" 
d="M127 190q-21 28 -32.5 62.5t-11.5 72.5t11.5 72.5t32.5 62.5l-59 59l27 27l58 -57q27 26 62.5 40.5t77.5 14.5q41 0 76.5 -14.5t63.5 -40.5l58 57l27 -27l-59 -59q20 -28 32 -62.5t12 -72.5t-12 -72.5t-32 -62.5l59 -59l-27 -27l-58 56q-28 -26 -63.5 -40t-76.5 -14
q-42 0 -77.5 14t-62.5 40l-58 -56l-27 27zM119 325q0 -38 13.5 -71.5t37 -58.5t55 -40t68.5 -15t68.5 15t55 40t37 58.5t13.5 71.5q0 37 -13.5 71t-37 59t-55 40t-68.5 15t-68.5 -15t-55 -40t-37 -59t-13.5 -71z" />
    <glyph glyph-name="yen" unicode="&#xa5;" horiz-adv-x="524" 
d="M216 188h-166l5 32h166l16 89h-166l6 32h146l-153 343h40l148 -334h4l261 334h45l-270 -343h143l-6 -32h-162l-16 -89h162l-5 -32h-162l-34 -188h-36z" />
    <glyph glyph-name="brokenbar" unicode="&#xa6;" horiz-adv-x="196" 
d="M92 376l67 380h32l-67 -380h-32zM4 -120l73 412h32l-73 -412h-32z" />
    <glyph glyph-name="section" unicode="&#xa7;" horiz-adv-x="512" 
d="M71 276q0 54 35.5 91.5t90.5 60.5q-13 6 -28 18t-28 29t-21.5 39.5t-8.5 49.5q0 35 15.5 66t43.5 53.5t66 35.5t83 13q46 0 78.5 -13.5t54.5 -34t34.5 -45.5t18.5 -49l-36 -14q-6 23 -16 45t-28 39t-44.5 27.5t-64.5 10.5q-33 0 -64 -9.5t-54 -27t-37 -42t-14 -53.5
t12 -50.5t31 -38t43.5 -28t49.5 -20.5q92 -33 139 -73t47 -97q0 -30 -10.5 -54.5t-27.5 -44t-39 -35t-44 -27.5q32 -22 49 -53t17 -67q0 -47 -19 -85.5t-51 -66t-74.5 -43t-89.5 -15.5q-43 0 -76.5 13.5t-57.5 37t-38 54t-18 64.5l34 12q9 -69 49 -108t113 -39q37 0 71.5 12
t61 34.5t42.5 54.5t16 71q0 54 -39 85t-109 54q-81 26 -119.5 65t-38.5 98zM233 150q24 -8 42.5 -15.5t38.5 -16.5q20 10 41 22t38 28t27.5 36.5t10.5 46.5q0 51 -45 84.5t-124 64.5l-23 9q-24 -7 -47 -19t-42 -29t-30.5 -39t-11.5 -48q0 -45 32 -74.5t93 -49.5z" />
    <glyph glyph-name="dieresis" unicode="&#xa8;" horiz-adv-x="338" 
d="M152 627q-14 0 -23 9t-9 23t9 23t23 9t23 -9t9 -23t-9 -23t-23 -9zM260 659q0 14 9 23t23 9t23 -9t9 -23t-9 -23t-23 -9t-23 9t-9 23z" />
    <glyph glyph-name="copyright" unicode="&#xa9;" horiz-adv-x="542" 
d="M271 272q-48 0 -89.5 18t-73 49.5t-49.5 73t-18 89.5q0 47 18 89t49.5 73.5t73 49.5t89.5 18q47 0 89 -18t73.5 -49.5t49.5 -73.5t18 -89q0 -48 -18 -89.5t-49.5 -73t-73.5 -49.5t-89 -18zM275 383q-24 0 -45.5 9.5t-37 25.5t-24.5 38t-9 46q0 25 9 46.5t24.5 37.5
t37 25.5t45.5 9.5q30 0 49.5 -10.5t34.5 -26.5l-23 -22q-11 14 -26 21.5t-35 7.5q-33 0 -58.5 -24t-25.5 -65t25.5 -65t59.5 -24q23 0 39 8.5t29 25.5l22 -19q-16 -21 -38 -33t-53 -12zM71 502q0 -41 16 -77.5t43 -63.5t63.5 -43t77.5 -16t77.5 16t63.5 43t43 63.5t16 77.5
t-16 77.5t-43 63.5t-63.5 43t-77.5 16t-77.5 -16t-63.5 -43t-43 -63.5t-16 -77.5z" />
    <glyph glyph-name="ordfeminine" unicode="&#xaa;" horiz-adv-x="445" 
d="M365 374h-4q-29 -51 -74.5 -76.5t-92.5 -25.5q-33 0 -59.5 10.5t-45 29t-28.5 43t-10 51.5q0 36 15.5 65.5t42 50.5t61.5 32.5t74 11.5q42 0 80 -11t67 -31l5 25q3 18 3 34q0 48 -31 82.5t-91 34.5q-45 0 -82.5 -20t-54.5 -52l-27 16q27 46 69.5 67t94.5 21
q73 0 115.5 -41t42.5 -108q0 -10 -1 -20.5t-3 -19.5l-46 -257h-36zM385 490q-29 19 -61.5 31.5t-82.5 12.5q-29 0 -56.5 -8.5t-49 -24.5t-35 -40.5t-13.5 -55.5q0 -48 32.5 -74.5t79.5 -26.5q32 0 63 15.5t56 41.5t43 59.5t24 69.5z" />
    <glyph glyph-name="guillemotleft" unicode="&#xab;" horiz-adv-x="524" 
d="M207 89l-27 -21l-151 203l223 203l22 -24l-199 -182zM407 89l-27 -21l-151 203l223 203l22 -24l-199 -182z" />
    <glyph glyph-name="logicalnot" unicode="&#xac;" horiz-adv-x="551" 
d="M54 363h406l-45 -258h-36l40 226h-370z" />
    <glyph glyph-name="uni00AD" unicode="&#xad;" horiz-adv-x="426" 
d="M57 326h300l-6 -32h-300z" />
    <glyph glyph-name="registered" unicode="&#xae;" horiz-adv-x="542" 
d="M271 272q-48 0 -89.5 18t-73 49.5t-49.5 73t-18 89.5q0 47 18 89t49.5 73.5t73 49.5t89.5 18q47 0 89 -18t73.5 -49.5t49.5 -73.5t18 -89q0 -48 -18 -89.5t-49.5 -73t-73.5 -49.5t-89 -18zM71 502q0 -41 16 -77.5t43 -63.5t63.5 -43t77.5 -16t77.5 16t63.5 43t43 63.5
t16 77.5t-16 77.5t-43 63.5t-63.5 43t-77.5 16t-77.5 -16t-63.5 -43t-43 -63.5t-16 -77.5zM331 389l-61 88h-40v-88h-32v226h88q30 0 52.5 -19t22.5 -50q0 -26 -15.5 -42.5t-36.5 -22.5l-2 -2l60 -88v-2h-36zM283 507q18 0 32 9t14 30t-14 30t-32 9h-53v-78h53z" />
    <glyph glyph-name="macron" unicode="&#xaf;" horiz-adv-x="392" 
d="M118 643l5 32h256l-5 -32h-256z" />
    <glyph glyph-name="degree" unicode="&#xb0;" horiz-adv-x="326" 
d="M182 442q-50 0 -80.5 33t-30.5 79q0 29 10.5 55.5t29.5 46.5t46 32t61 12q50 0 80.5 -33t30.5 -79q0 -29 -10.5 -55.5t-29.5 -46.5t-46 -32t-61 -12zM186 472q22 0 42.5 9t35.5 25t24 36.5t9 44.5q0 37 -23.5 60t-59.5 23q-23 0 -43 -9t-35 -25t-24 -36.5t-9 -44.5
q0 -37 23.5 -60t59.5 -23z" />
    <glyph glyph-name="plusminus" unicode="&#xb1;" horiz-adv-x="538" 
d="M311 510l-28 -160h190l-6 -32h-190l-28 -160h-32l28 160h-190l6 32h190l28 160h32zM5 32h412l-6 -32h-411z" />
    <glyph glyph-name="twosuperior" unicode="&#xb2;" horiz-adv-x="287" 
d="M13 350l6 30q42 35 76 64q15 12 29.5 24.5t27.5 23.5q12 11 21.5 19t13.5 11q25 20 47.5 45.5t22.5 61.5q0 29 -20 47t-53 18q-32 0 -57.5 -19t-40.5 -58l-26 10q13 47 49 72t76 25q45 0 74.5 -25t29.5 -68q0 -36 -19 -64t-58 -60q-8 -6 -31.5 -26.5t-49.5 -43.5
q-31 -26 -67 -57h183l-6 -30h-228z" />
    <glyph glyph-name="threesuperior" unicode="&#xb3;" horiz-adv-x="314" 
d="M150 342q-18 0 -37 6t-35 18t-27.5 30t-15.5 42l29 11q10 -37 31 -57t59 -20q42 0 70.5 22t28.5 61q0 35 -23.5 52.5t-55.5 17.5h-34l6 30h28q39 0 67.5 20t28.5 59q0 26 -19 43t-52 17q-35 0 -54.5 -16.5t-33.5 -41.5l-26 12q15 36 45.5 56t72.5 20q45 0 72.5 -24
t27.5 -61t-21 -63t-52 -36q22 -9 39 -29t17 -51q0 -26 -10 -47.5t-28 -37.5t-43 -24.5t-55 -8.5z" />
    <glyph glyph-name="acute" unicode="&#xb4;" horiz-adv-x="380" 
d="M214 596l71 120h49l-82 -120h-38z" />
    <glyph glyph-name="mu" unicode="&#xb5;" 
d="M40 60l-10 -87l-34 -189h-36l124 706h36l-53 -300q-2 -15 -3 -26q-2 -11 -2 -24q0 -55 29 -89.5t89 -34.5q42 0 79.5 18t68 49t52 72.5t29.5 88.5l44 246h36l-86 -490h-32l21 116h-4q-15 -27 -36.5 -51t-48.5 -42t-60 -28.5t-72 -10.5q-48 0 -80.5 22.5t-46.5 53.5h-4z
" />
    <glyph glyph-name="paragraph" unicode="&#xb6;" horiz-adv-x="579" 
d="M296 -216v512h-44q-45 0 -86 14.5t-71.5 41.5t-49 66t-18.5 88t18.5 88t49 66t71.5 41.5t86 14.5h236v-932h-36v898h-120v-898h-36z" />
    <glyph glyph-name="periodcentered" unicode="&#xb7;" horiz-adv-x="114" 
d="M51 289q-15 0 -25 10t-10 25t10 25t25 10t25 -10t10 -25t-10 -25t-25 -10z" />
    <glyph glyph-name="cedilla" unicode="&#xb8;" horiz-adv-x="423" 
d="M95 -237q-34 0 -57.5 19.5t-30.5 47.5l34 13q4 -20 18 -34t39 -14q28 0 49 19.5t21 51.5q0 26 -15 41t-38 15q-17 0 -30.5 -7.5t-22.5 -17.5l-23 12l49 91h36l-36 -59q7 5 16.5 9t23.5 4q32 0 54.5 -24t22.5 -61q0 -21 -7.5 -40t-22 -33.5t-35 -23.5t-45.5 -9z" />
    <glyph glyph-name="onesuperior" unicode="&#xb9;" horiz-adv-x="217" 
d="M115 350l57 320l-78 -35l-14 28l122 53h10l-65 -366h-32z" />
    <glyph glyph-name="ordmasculine" unicode="&#xba;" horiz-adv-x="510" 
d="M311 732q39 0 73 -14.5t58.5 -40.5t39 -61.5t14.5 -77.5q0 -58 -19.5 -106.5t-53 -84t-79.5 -55.5t-99 -20q-39 0 -73 14.5t-58.5 40.5t-39 61.5t-14.5 77.5q0 58 19 106.5t53 84t80 55.5t99 20zM249 304q45 0 83.5 18t67 48.5t44.5 72.5t16 90q0 36 -11 67t-31.5 53
t-48.5 34.5t-62 12.5q-45 0 -83.5 -18t-67 -48.5t-44.5 -72.5t-16 -90q0 -36 11 -67t31.5 -53t48.5 -34.5t62 -12.5z" />
    <glyph glyph-name="guillemotright" unicode="&#xbb;" horiz-adv-x="524" 
d="M85 453l27 21l151 -203l-223 -203l-22 24l199 182zM285 453l27 21l151 -203l-223 -203l-22 24l199 182z" />
    <glyph glyph-name="onequarter" unicode="&#xbc;" horiz-adv-x="709" 
d="M60 23l587 692l25 -22l-587 -692zM142 350l57 320l-78 -35l-14 28l122 53h10l-65 -366h-32zM342 105l232 261h20l-44 -249h55l-6 -30h-55l-15 -87h-32l15 87h-174zM518 117l30 172h-4l-152 -172h126z" />
    <glyph glyph-name="onehalf" unicode="&#xbd;" horiz-adv-x="761" 
d="M55 23l587 692l25 -22l-587 -692zM142 350l57 320l-78 -35l-14 28l122 53h10l-65 -366h-32zM440 0l6 30q42 35 76 64q15 12 29.5 24.5t27.5 23.5q12 11 21.5 19t13.5 11q25 20 47.5 45.5t22.5 61.5q0 29 -20 47t-53 18q-32 0 -57.5 -19t-40.5 -58l-26 10q13 47 49 72
t76 25q45 0 74.5 -25t29.5 -68q0 -36 -19 -64t-58 -60q-8 -6 -31.5 -26.5t-49.5 -43.5q-31 -26 -67 -57h183l-6 -30h-228z" />
    <glyph glyph-name="threequarters" unicode="&#xbe;" horiz-adv-x="817" 
d="M186 342q-18 0 -37 6t-35 18t-27.5 30t-15.5 42l29 11q10 -37 31 -57t59 -20q42 0 70.5 22t28.5 61q0 35 -23.5 52.5t-55.5 17.5h-34l6 30h28q39 0 67.5 20t28.5 59q0 26 -19 43t-52 17q-35 0 -54.5 -16.5t-33.5 -41.5l-26 12q15 36 45.5 56t72.5 20q45 0 72.5 -24
t27.5 -61t-21 -63t-52 -36q22 -9 39 -29t17 -51q0 -26 -10 -47.5t-28 -37.5t-43 -24.5t-55 -8.5zM134 23l587 692l25 -22l-587 -692zM433 105l232 261h20l-44 -249h55l-6 -30h-55l-15 -87h-32l15 87h-174zM609 117l30 172h-4l-152 -172h126z" />
    <glyph glyph-name="questiondown" unicode="&#xbf;" horiz-adv-x="464" 
d="M272 303q-7 -44 -16.5 -73t-24 -51t-36.5 -41t-54 -44q-50 -38 -80.5 -76.5t-30.5 -90.5q0 -27 11 -50t30.5 -39.5t46 -26t57.5 -9.5q63 0 104 33t61 89l32 -16q-11 -29 -28.5 -54.5t-42.5 -44.5t-58 -30t-74 -11q-39 0 -71 12t-55.5 33t-36.5 49t-13 60q0 60 34 105.5
t95 92.5q30 22 49 40t31.5 37.5t20 44t13.5 61.5l9 55h36zM283 506q15 0 25 -10t10 -25t-10 -25t-25 -10t-25 10t-10 25t10 25t25 10z" />
    <glyph glyph-name="Agrave" unicode="&#xc0;" horiz-adv-x="638" 
d="M360 716h44l157 -716h-35l-48 220h-362l-125 -220h-41zM470 254l-92 418h-4l-238 -418h334zM361 780l-42 120h45l29 -120h-32z" />
    <glyph glyph-name="Aacute" unicode="&#xc1;" horiz-adv-x="638" 
d="M360 716h44l157 -716h-35l-48 220h-362l-125 -220h-41zM470 254l-92 418h-4l-238 -418h334zM380 780l71 120h49l-82 -120h-38z" />
    <glyph glyph-name="Acircumflex" unicode="&#xc2;" horiz-adv-x="638" 
d="M360 716h44l157 -716h-35l-48 220h-362l-125 -220h-41zM470 254l-92 418h-4l-238 -418h334zM501 784h-36l-60 84h-8l-87 -84h-43l1 5l118 111h38l78 -111z" />
    <glyph glyph-name="Atilde" unicode="&#xc3;" horiz-adv-x="638" 
d="M360 716h44l157 -716h-35l-48 220h-362l-125 -220h-41zM470 254l-92 418h-4l-238 -418h334zM456 794q-22 0 -39.5 9.5t-32.5 21.5q-16 12 -31.5 21.5t-33.5 9.5q-29 0 -42 -14t-18 -38h-32q5 45 32 65.5t64 20.5q22 0 39.5 -9.5t33.5 -21.5q15 -12 30.5 -21.5t33.5 -9.5
q29 0 42 14t18 38h32q-5 -45 -32 -65.5t-64 -20.5z" />
    <glyph glyph-name="Adieresis" unicode="&#xc4;" horiz-adv-x="638" 
d="M360 716h44l157 -716h-35l-48 220h-362l-125 -220h-41zM470 254l-92 418h-4l-238 -418h334zM326 811q-14 0 -23 9t-9 23t9 23t23 9t23 -9t9 -23t-9 -23t-23 -9zM434 843q0 14 9 23t23 9t23 -9t9 -23t-9 -23t-23 -9t-23 9t-9 23z" />
    <glyph glyph-name="Aring" unicode="&#xc5;" horiz-adv-x="638" 
d="M-50 0l383 669q-23 13 -36.5 35.5t-13.5 51.5q0 21 7.5 39t21 31.5t32 21.5t39.5 8t39 -8t31.5 -21.5t21.5 -31.5t8 -39q0 -34 -19 -59.5t-49 -35.5l146 -661h-35l-48 220h-362l-125 -220h-41zM470 254l-89 402h-16l-229 -402h334zM383 688q27 0 46.5 19t19.5 49
t-19.5 49t-46.5 19t-46.5 -19t-19.5 -49t19.5 -49t46.5 -19z" />
    <glyph glyph-name="AE" unicode="&#xc6;" horiz-adv-x="912" 
d="M155 220l-172 -220h-42l558 716h417l-6 -34h-354l-55 -307h322l-5 -34h-322l-55 -307h354l-6 -34h-390l39 220h-283zM181 254h263l76 428h-4z" />
    <glyph glyph-name="Ccedilla" unicode="&#xc7;" horiz-adv-x="720" 
d="M312 -237q-34 0 -57.5 19.5t-30.5 47.5l34 13q4 -20 18 -34t39 -14q28 0 49 19.5t21 51.5q0 26 -15 41t-38 15q-17 0 -30.5 -7.5t-22.5 -17.5l-23 12l41 78q-55 7 -102.5 32.5t-83 67t-55.5 97.5t-20 125q0 85 33 161.5t90 134.5t134 92.5t165 34.5q90 0 149 -32.5
t98 -88.5l-31 -21q-35 55 -92 81.5t-129 26.5q-80 0 -149 -32.5t-121 -86.5t-81.5 -124.5t-29.5 -146.5q0 -66 21.5 -119.5t58 -91.5t85.5 -58.5t104 -20.5q47 0 85 8.5t70 24.5t60.5 38.5t56.5 51.5l25 -25q-54 -60 -125 -96t-175 -36h-7l-26 -43q7 5 16.5 9t23.5 4
q32 0 54.5 -24t22.5 -61q0 -21 -7.5 -40t-22 -33.5t-35 -23.5t-45.5 -9z" />
    <glyph glyph-name="Egrave" unicode="&#xc8;" horiz-adv-x="531" 
d="M175 682l-55 -307h322l-5 -34h-322l-55 -307h354l-6 -34h-390l127 716h390l-6 -34h-354zM324 780l-42 120h45l29 -120h-32z" />
    <glyph glyph-name="Eacute" unicode="&#xc9;" horiz-adv-x="531" 
d="M175 682l-55 -307h322l-5 -34h-322l-55 -307h354l-6 -34h-390l127 716h390l-6 -34h-354zM316 780l71 120h49l-82 -120h-38z" />
    <glyph glyph-name="Ecircumflex" unicode="&#xca;" horiz-adv-x="531" 
d="M175 682l-55 -307h322l-5 -34h-322l-55 -307h354l-6 -34h-390l127 716h390l-6 -34h-354zM454 784h-36l-60 84h-8l-87 -84h-43l1 5l118 111h38l78 -111z" />
    <glyph glyph-name="Edieresis" unicode="&#xcb;" horiz-adv-x="531" 
d="M175 682l-55 -307h322l-5 -34h-322l-55 -307h354l-6 -34h-390l127 716h390l-6 -34h-354zM272 811q-14 0 -23 9t-9 23t9 23t23 9t23 -9t9 -23t-9 -23t-23 -9zM380 843q0 14 9 23t23 9t23 -9t9 -23t-9 -23t-23 -9t-23 9t-9 23z" />
    <glyph glyph-name="Igrave" unicode="&#xcc;" horiz-adv-x="200" 
d="M145 716h36l-127 -716h-36zM158 780l-42 120h45l29 -120h-32z" />
    <glyph glyph-name="Iacute" unicode="&#xcd;" horiz-adv-x="200" 
d="M145 716h36l-127 -716h-36zM153 780l71 120h49l-82 -120h-38z" />
    <glyph glyph-name="Icircumflex" unicode="&#xce;" horiz-adv-x="200" 
d="M145 716h36l-127 -716h-36zM286 784h-36l-60 84h-8l-87 -84h-43l1 5l118 111h38l78 -111z" />
    <glyph glyph-name="Idieresis" unicode="&#xcf;" horiz-adv-x="200" 
d="M123 811q-14 0 -23 9t-9 23t9 23t23 9t23 -9t9 -23t-9 -23t-23 -9zM203 843q0 14 9 23t23 9t23 -9t9 -23t-9 -23t-23 -9t-23 9t-9 23zM145 716h36l-127 -716h-36z" />
    <glyph glyph-name="Eth" unicode="&#xd0;" horiz-adv-x="735" 
d="M65 372h76l61 344h197q148 0 224.5 -80.5t76.5 -222.5q0 -82 -28.5 -157t-83 -132t-134 -90.5t-182.5 -33.5h-197l60 342h-75zM278 34q90 0 161.5 30t121.5 81.5t76.5 119.5t26.5 143q0 139 -71 206.5t-200 67.5h-161l-55 -310h224l-5 -30h-225l-54 -308h161z" />
    <glyph glyph-name="Ntilde" unicode="&#xd1;" horiz-adv-x="684" 
d="M145 716h49l320 -652h4l20 138l91 514h36l-127 -716h-32l-332 678h-4l-20 -138l-96 -540h-36zM488 794q-22 0 -39.5 9.5t-32.5 21.5q-16 12 -31.5 21.5t-33.5 9.5q-29 0 -42 -14t-18 -38h-32q5 45 32 65.5t64 20.5q22 0 39.5 -9.5t33.5 -21.5q15 -12 30.5 -21.5
t33.5 -9.5q29 0 42 14t18 38h32q-5 -45 -32 -65.5t-64 -20.5z" />
    <glyph glyph-name="Ograve" unicode="&#xd2;" horiz-adv-x="808" 
d="M353 -16q-70 0 -128 25.5t-100 70t-65.5 105t-23.5 130.5q0 85 31.5 161t87.5 133t132.5 90t167.5 33q70 0 128 -25.5t100 -70t65.5 -105t23.5 -130.5q0 -86 -31.5 -161.5t-87.5 -132.5t-132.5 -90t-167.5 -33zM357 18q81 0 150.5 30.5t120 82.5t79.5 120.5t29 145.5
q0 66 -21 121.5t-59 95t-90 62t-115 22.5q-81 0 -150.5 -30.5t-120 -82.5t-79.5 -121t-29 -145q0 -66 21 -121.5t59 -95t90 -62t115 -22.5zM443 780l-42 120h45l29 -120h-32z" />
    <glyph glyph-name="Oacute" unicode="&#xd3;" horiz-adv-x="808" 
d="M353 -16q-70 0 -128 25.5t-100 70t-65.5 105t-23.5 130.5q0 85 31.5 161t87.5 133t132.5 90t167.5 33q70 0 128 -25.5t100 -70t65.5 -105t23.5 -130.5q0 -86 -31.5 -161.5t-87.5 -132.5t-132.5 -90t-167.5 -33zM357 18q81 0 150.5 30.5t120 82.5t79.5 120.5t29 145.5
q0 66 -21 121.5t-59 95t-90 62t-115 22.5q-81 0 -150.5 -30.5t-120 -82.5t-79.5 -121t-29 -145q0 -66 21 -121.5t59 -95t90 -62t115 -22.5zM445 780l71 120h49l-82 -120h-38z" />
    <glyph glyph-name="Ocircumflex" unicode="&#xd4;" horiz-adv-x="808" 
d="M353 -16q-70 0 -128 25.5t-100 70t-65.5 105t-23.5 130.5q0 85 31.5 161t87.5 133t132.5 90t167.5 33q70 0 128 -25.5t100 -70t65.5 -105t23.5 -130.5q0 -86 -31.5 -161.5t-87.5 -132.5t-132.5 -90t-167.5 -33zM357 18q81 0 150.5 30.5t120 82.5t79.5 120.5t29 145.5
q0 66 -21 121.5t-59 95t-90 62t-115 22.5q-81 0 -150.5 -30.5t-120 -82.5t-79.5 -121t-29 -145q0 -66 21 -121.5t59 -95t90 -62t115 -22.5zM587 785h-36l-60 84h-8l-87 -84h-43l1 5l118 111h38l78 -111z" />
    <glyph glyph-name="Otilde" unicode="&#xd5;" horiz-adv-x="808" 
d="M353 -16q-70 0 -128 25.5t-100 70t-65.5 105t-23.5 130.5q0 85 31.5 161t87.5 133t132.5 90t167.5 33q70 0 128 -25.5t100 -70t65.5 -105t23.5 -130.5q0 -86 -31.5 -161.5t-87.5 -132.5t-132.5 -90t-167.5 -33zM357 18q81 0 150.5 30.5t120 82.5t79.5 120.5t29 145.5
q0 66 -21 121.5t-59 95t-90 62t-115 22.5q-81 0 -150.5 -30.5t-120 -82.5t-79.5 -121t-29 -145q0 -66 21 -121.5t59 -95t90 -62t115 -22.5zM541 794q-22 0 -39.5 9.5t-32.5 21.5q-16 12 -31.5 21.5t-33.5 9.5q-29 0 -42 -14t-18 -38h-32q5 45 32 65.5t64 20.5
q22 0 39.5 -9.5t33.5 -21.5q15 -12 30.5 -21.5t33.5 -9.5q29 0 42 14t18 38h32q-5 -45 -32 -65.5t-64 -20.5z" />
    <glyph glyph-name="Odieresis" unicode="&#xd6;" horiz-adv-x="808" 
d="M353 -16q-70 0 -128 25.5t-100 70t-65.5 105t-23.5 130.5q0 85 31.5 161t87.5 133t132.5 90t167.5 33q70 0 128 -25.5t100 -70t65.5 -105t23.5 -130.5q0 -86 -31.5 -161.5t-87.5 -132.5t-132.5 -90t-167.5 -33zM357 18q81 0 150.5 30.5t120 82.5t79.5 120.5t29 145.5
q0 66 -21 121.5t-59 95t-90 62t-115 22.5q-81 0 -150.5 -30.5t-120 -82.5t-79.5 -121t-29 -145q0 -66 21 -121.5t59 -95t90 -62t115 -22.5zM405 811q-14 0 -23 9t-9 23t9 23t23 9t23 -9t9 -23t-9 -23t-23 -9zM513 843q0 14 9 23t23 9t23 -9t9 -23t-9 -23t-23 -9t-23 9t-9 23
z" />
    <glyph glyph-name="multiply" unicode="&#xd7;" horiz-adv-x="502" 
d="M447 425l-189 -157l132 -154l-25 -21l-132 154l-188 -157l-21 26l187 157l-130 155l25 21l131 -155l189 157z" />
    <glyph glyph-name="Oslash" unicode="&#xd8;" horiz-adv-x="808" 
d="M90 -5l53 66q-51 45 -79 110.5t-28 143.5q0 85 31.5 161t87.5 133t132.5 90t167.5 33q52 0 97.5 -14.5t83.5 -40.5l53 66l28 -22l-53 -66q51 -45 79.5 -110.5t28.5 -143.5q0 -86 -31.5 -161.5t-87.5 -132.5t-132.5 -90t-167.5 -33q-53 0 -98.5 14.5t-83.5 40.5l-53 -66z
M357 18q81 0 150.5 30.5t120 82.5t79.5 120.5t29 145.5q0 72 -24.5 131t-69.5 99l-449 -560q69 -49 164 -49zM72 319q0 -72 24 -131t69 -99l449 560q-34 23 -75 36t-88 13q-81 0 -150.5 -30.5t-120 -82.5t-79.5 -121t-29 -145z" />
    <glyph glyph-name="Ugrave" unicode="&#xd9;" horiz-adv-x="628" 
d="M249 -16q-48 0 -86.5 15.5t-65.5 43.5t-41.5 67.5t-14.5 88.5q0 14 1.5 31t5.5 40l79 446h36l-79 -452q-4 -21 -5.5 -35t-1.5 -29q0 -39 12 -72.5t34.5 -57.5t56 -38t75.5 -14q52 0 95 17.5t76 49t55 75t31 94.5l81 462h36l-84 -474q-10 -57 -34.5 -104t-62 -81.5
t-88 -53.5t-111.5 -19zM366 780l-42 120h45l29 -120h-32z" />
    <glyph glyph-name="Uacute" unicode="&#xda;" horiz-adv-x="628" 
d="M249 -16q-48 0 -86.5 15.5t-65.5 43.5t-41.5 67.5t-14.5 88.5q0 14 1.5 31t5.5 40l79 446h36l-79 -452q-4 -21 -5.5 -35t-1.5 -29q0 -39 12 -72.5t34.5 -57.5t56 -38t75.5 -14q52 0 95 17.5t76 49t55 75t31 94.5l81 462h36l-84 -474q-10 -57 -34.5 -104t-62 -81.5
t-88 -53.5t-111.5 -19zM358 780l71 120h49l-82 -120h-38z" />
    <glyph glyph-name="Ucircumflex" unicode="&#xdb;" horiz-adv-x="628" 
d="M249 -16q-48 0 -86.5 15.5t-65.5 43.5t-41.5 67.5t-14.5 88.5q0 14 1.5 31t5.5 40l79 446h36l-79 -452q-4 -21 -5.5 -35t-1.5 -29q0 -39 12 -72.5t34.5 -57.5t56 -38t75.5 -14q52 0 95 17.5t76 49t55 75t31 94.5l81 462h36l-84 -474q-10 -57 -34.5 -104t-62 -81.5
t-88 -53.5t-111.5 -19zM493 784h-36l-60 84h-8l-87 -84h-43l1 5l118 111h38l78 -111z" />
    <glyph glyph-name="Udieresis" unicode="&#xdc;" horiz-adv-x="628" 
d="M249 -16q-48 0 -86.5 15.5t-65.5 43.5t-41.5 67.5t-14.5 88.5q0 14 1.5 31t5.5 40l79 446h36l-79 -452q-4 -21 -5.5 -35t-1.5 -29q0 -39 12 -72.5t34.5 -57.5t56 -38t75.5 -14q52 0 95 17.5t76 49t55 75t31 94.5l81 462h36l-84 -474q-10 -57 -34.5 -104t-62 -81.5
t-88 -53.5t-111.5 -19zM313 811q-14 0 -23 9t-9 23t9 23t23 9t23 -9t9 -23t-9 -23t-23 -9zM421 843q0 14 9 23t23 9t23 -9t9 -23t-9 -23t-23 -9t-23 9t-9 23z" />
    <glyph glyph-name="Yacute" unicode="&#xdd;" horiz-adv-x="564" 
d="M202 0l56 315l-182 401h40l163 -361h4l286 361h45l-320 -401l-56 -315h-36zM320 780l71 120h49l-82 -120h-38z" />
    <glyph glyph-name="Thorn" unicode="&#xde;" horiz-adv-x="549" 
d="M18 0l127 716h36l-23 -130h180q43 0 78 -12.5t60 -36t39 -57t14 -75.5q0 -50 -19.5 -92t-54.5 -72.5t-82.5 -47.5t-103.5 -17h-184l-31 -176h-36zM273 210q50 0 90.5 14.5t69 40.5t44 62t15.5 79q0 37 -13 64.5t-34.5 45.5t-49.5 27t-59 9h-184l-61 -342h182z" />
    <glyph glyph-name="germandbls" unicode="&#xdf;" horiz-adv-x="536" 
d="M358 382q23 -8 44 -22.5t37 -36t25.5 -49t9.5 -60.5q0 -44 -18.5 -84.5t-51 -71t-77.5 -48.5t-97 -18q-26 0 -44 2t-33 6l5 33q17 -5 35.5 -7t41.5 -2q42 0 79 14t64 39.5t43 60t16 75.5q0 33 -10.5 61t-32 48.5t-53.5 32.5t-74 12h-41l6 32h39q37 0 72.5 12t63 34
t44.5 53.5t17 71.5q0 60 -38.5 95t-98.5 35q-68 0 -119 -46t-68 -141l-90 -513h-36l91 516q9 48 27.5 88t47 68.5t66.5 44t84 15.5q39 0 71 -12.5t54 -34t34 -50.5t12 -62q0 -32 -11 -61.5t-30.5 -54t-46.5 -43t-58 -28.5z" />
    <glyph glyph-name="agrave" unicode="&#xe0;" horiz-adv-x="501" 
d="M366 101h-4q-36 -55 -90.5 -86t-122.5 -31q-36 0 -65 11.5t-49 32t-31 47.5t-11 57q0 42 17.5 74.5t48 54.5t72 33.5t88.5 11.5q52 0 98.5 -14t76.5 -33l8 42q3 19 3 38q0 64 -39.5 99.5t-106.5 35.5q-24 0 -48.5 -6t-46.5 -17.5t-40.5 -27.5t-31.5 -36l-28 19
q32 49 85 74.5t115 25.5q41 0 74 -12t56 -33.5t35.5 -52t12.5 -67.5q0 -11 -1 -20.5t-3 -20.5l-53 -300h-36zM388 225q-35 23 -76.5 36t-96.5 13q-38 0 -71.5 -9t-59.5 -27t-41 -45t-15 -63q0 -55 37.5 -84.5t91.5 -29.5q41 0 79.5 17t70 46t53 66.5t28.5 79.5zM280 596
l-42 120h45l29 -120h-32z" />
    <glyph glyph-name="aacute" unicode="&#xe1;" horiz-adv-x="501" 
d="M366 101h-4q-36 -55 -90.5 -86t-122.5 -31q-36 0 -65 11.5t-49 32t-31 47.5t-11 57q0 42 17.5 74.5t48 54.5t72 33.5t88.5 11.5q52 0 98.5 -14t76.5 -33l8 42q3 19 3 38q0 64 -39.5 99.5t-106.5 35.5q-24 0 -48.5 -6t-46.5 -17.5t-40.5 -27.5t-31.5 -36l-28 19
q32 49 85 74.5t115 25.5q41 0 74 -12t56 -33.5t35.5 -52t12.5 -67.5q0 -11 -1 -20.5t-3 -20.5l-53 -300h-36zM388 225q-35 23 -76.5 36t-96.5 13q-38 0 -71.5 -9t-59.5 -27t-41 -45t-15 -63q0 -55 37.5 -84.5t91.5 -29.5q41 0 79.5 17t70 46t53 66.5t28.5 79.5zM266 596
l71 120h49l-82 -120h-38z" />
    <glyph glyph-name="acircumflex" unicode="&#xe2;" horiz-adv-x="501" 
d="M366 101h-4q-36 -55 -90.5 -86t-122.5 -31q-36 0 -65 11.5t-49 32t-31 47.5t-11 57q0 42 17.5 74.5t48 54.5t72 33.5t88.5 11.5q52 0 98.5 -14t76.5 -33l8 42q3 19 3 38q0 64 -39.5 99.5t-106.5 35.5q-24 0 -48.5 -6t-46.5 -17.5t-40.5 -27.5t-31.5 -36l-28 19
q32 49 85 74.5t115 25.5q41 0 74 -12t56 -33.5t35.5 -52t12.5 -67.5q0 -11 -1 -20.5t-3 -20.5l-53 -300h-36zM388 225q-35 23 -76.5 36t-96.5 13q-38 0 -71.5 -9t-59.5 -27t-41 -45t-15 -63q0 -55 37.5 -84.5t91.5 -29.5q41 0 79.5 17t70 46t53 66.5t28.5 79.5zM401 600h-36
l-60 84h-8l-87 -84h-43l1 5l118 111h38l78 -111z" />
    <glyph glyph-name="atilde" unicode="&#xe3;" horiz-adv-x="501" 
d="M366 101h-4q-36 -55 -90.5 -86t-122.5 -31q-36 0 -65 11.5t-49 32t-31 47.5t-11 57q0 42 17.5 74.5t48 54.5t72 33.5t88.5 11.5q52 0 98.5 -14t76.5 -33l8 42q3 19 3 38q0 64 -39.5 99.5t-106.5 35.5q-24 0 -48.5 -6t-46.5 -17.5t-40.5 -27.5t-31.5 -36l-28 19
q32 49 85 74.5t115 25.5q41 0 74 -12t56 -33.5t35.5 -52t12.5 -67.5q0 -11 -1 -20.5t-3 -20.5l-53 -300h-36zM388 225q-35 23 -76.5 36t-96.5 13q-38 0 -71.5 -9t-59.5 -27t-41 -45t-15 -63q0 -55 37.5 -84.5t91.5 -29.5q41 0 79.5 17t70 46t53 66.5t28.5 79.5zM372 611
q-22 0 -39.5 9.5t-32.5 21.5q-16 12 -31.5 21.5t-33.5 9.5q-29 0 -42 -14t-18 -38h-32q5 45 32 65.5t64 20.5q22 0 39.5 -9.5t33.5 -21.5q15 -12 30.5 -21.5t33.5 -9.5q29 0 42 14t18 38h32q-5 -45 -32 -65.5t-64 -20.5z" />
    <glyph glyph-name="adieresis" unicode="&#xe4;" horiz-adv-x="501" 
d="M366 101h-4q-36 -55 -90.5 -86t-122.5 -31q-36 0 -65 11.5t-49 32t-31 47.5t-11 57q0 42 17.5 74.5t48 54.5t72 33.5t88.5 11.5q52 0 98.5 -14t76.5 -33l8 42q3 19 3 38q0 64 -39.5 99.5t-106.5 35.5q-24 0 -48.5 -6t-46.5 -17.5t-40.5 -27.5t-31.5 -36l-28 19
q32 49 85 74.5t115 25.5q41 0 74 -12t56 -33.5t35.5 -52t12.5 -67.5q0 -11 -1 -20.5t-3 -20.5l-53 -300h-36zM388 225q-35 23 -76.5 36t-96.5 13q-38 0 -71.5 -9t-59.5 -27t-41 -45t-15 -63q0 -55 37.5 -84.5t91.5 -29.5q41 0 79.5 17t70 46t53 66.5t28.5 79.5zM233 627
q-14 0 -23 9t-9 23t9 23t23 9t23 -9t9 -23t-9 -23t-23 -9zM341 659q0 14 9 23t23 9t23 -9t9 -23t-9 -23t-23 -9t-23 9t-9 23z" />
    <glyph glyph-name="aring" unicode="&#xe5;" horiz-adv-x="501" 
d="M366 101h-4q-36 -55 -90.5 -86t-122.5 -31q-36 0 -65 11.5t-49 32t-31 47.5t-11 57q0 42 17.5 74.5t48 54.5t72 33.5t88.5 11.5q52 0 98.5 -14t76.5 -33l8 42q3 19 3 38q0 64 -39.5 99.5t-106.5 35.5q-24 0 -48.5 -6t-46.5 -17.5t-40.5 -27.5t-31.5 -36l-28 19
q32 49 85 74.5t115 25.5q41 0 74 -12t56 -33.5t35.5 -52t12.5 -67.5q0 -11 -1 -20.5t-3 -20.5l-53 -300h-36zM388 225q-35 23 -76.5 36t-96.5 13q-38 0 -71.5 -9t-59.5 -27t-41 -45t-15 -63q0 -55 37.5 -84.5t91.5 -29.5q41 0 79.5 17t70 46t53 66.5t28.5 79.5zM301 569
q-21 0 -39.5 7.5t-32 21t-21 32t-7.5 39.5t7.5 39t21 31.5t32 21.5t39.5 8t39 -8t31.5 -21.5t21.5 -31.5t8 -39t-8 -39.5t-21.5 -32t-31.5 -21t-39 -7.5zM301 601q27 0 46.5 19t19.5 49t-19.5 49t-46.5 19t-46.5 -19t-19.5 -49t19.5 -49t46.5 -19z" />
    <glyph glyph-name="ae" unicode="&#xe6;" horiz-adv-x="900" 
d="M816 116q-17 -29 -38 -53t-48 -41.5t-60.5 -27.5t-75.5 -10q-40 0 -74 13.5t-60.5 36t-43 52t-22.5 62.5q-40 -80 -104 -122t-141 -42q-36 0 -65 11.5t-49 32t-31 47.5t-11 57q0 42 17.5 74.5t48 54.5t72 33.5t88.5 11.5q52 0 98.5 -14t76.5 -33l8 42q2 8 3 19t1 20
q0 64 -38.5 99t-103.5 35q-51 0 -96.5 -23.5t-69.5 -65.5l-30 16q32 52 84.5 78.5t111.5 26.5q75 0 118.5 -35.5t56.5 -92.5q37 56 93 92t128 36q46 0 82.5 -15t61.5 -41.5t38.5 -63t13.5 -79.5q0 -38 -8 -67h-421q-3 -17 -3 -41q0 -42 14.5 -76t38.5 -58t55 -36.5t64 -12.5
q40 0 69 8.5t51.5 24t40 36.5t35.5 47zM388 225q-35 23 -76.5 36t-96.5 13q-38 0 -71.5 -9t-59.5 -27t-41 -45t-15 -63q0 -55 37.5 -84.5t91.5 -29.5q41 0 79.5 17t70 46t53 66.5t28.5 79.5zM819 272q1 8 1.5 16t0.5 16q0 28 -8 58t-26.5 55t-50 41t-77.5 16
q-35 0 -69.5 -12.5t-65 -37.5t-54.5 -63t-37 -89h386z" />
    <glyph glyph-name="ccedilla" unicode="&#xe7;" horiz-adv-x="504" 
d="M177 -237q-34 0 -57.5 19.5t-30.5 47.5l34 13q4 -20 18 -34t39 -14q28 0 49 19.5t21 51.5q0 26 -15 41t-38 15q-17 0 -30.5 -7.5t-22.5 -17.5l-23 12l43 81q-34 9 -62.5 29t-49.5 48t-32.5 63.5t-11.5 76.5q0 58 21 112t58.5 95.5t90 66.5t115.5 25q75 0 119.5 -36.5
t67.5 -101.5l-34 -15q-20 58 -56 89.5t-99 31.5q-52 0 -97 -22t-78.5 -58.5t-52.5 -85t-19 -101.5q0 -43 14 -78.5t38 -60.5t56 -38.5t67 -13.5q66 0 110 30t77 90l30 -16q-38 -69 -90.5 -102.5t-130.5 -33.5h-8t-11 1l-26 -44q7 5 16.5 9t23.5 4q32 0 54.5 -24t22.5 -61
q0 -21 -7.5 -40t-22 -33.5t-35 -23.5t-45.5 -9z" />
    <glyph glyph-name="egrave" unicode="&#xe8;" horiz-adv-x="520" 
d="M436 116q-17 -28 -38.5 -52t-48.5 -42t-60.5 -28t-74.5 -10q-44 0 -81.5 15.5t-65.5 44t-44 70t-16 93.5t19.5 105.5t55 96.5t86 70t112.5 27q49 0 86 -15t61.5 -42t36.5 -63.5t12 -78.5q0 -38 -8 -67h-421q-3 -17 -3 -41q0 -42 14.5 -76t38.5 -58t55 -36.5t64 -12.5
q36 0 65 9t52.5 24.5t42 37t33.5 46.5zM439 272q1 8 1.5 16t0.5 16q0 28 -8 58t-26.5 55t-50 41t-77.5 16q-35 0 -70.5 -13.5t-66.5 -39t-54.5 -63.5t-34.5 -86h386zM286 596l-42 120h45l29 -120h-32z" />
    <glyph glyph-name="eacute" unicode="&#xe9;" horiz-adv-x="520" 
d="M436 116q-17 -28 -38.5 -52t-48.5 -42t-60.5 -28t-74.5 -10q-44 0 -81.5 15.5t-65.5 44t-44 70t-16 93.5t19.5 105.5t55 96.5t86 70t112.5 27q49 0 86 -15t61.5 -42t36.5 -63.5t12 -78.5q0 -38 -8 -67h-421q-3 -17 -3 -41q0 -42 14.5 -76t38.5 -58t55 -36.5t64 -12.5
q36 0 65 9t52.5 24.5t42 37t33.5 46.5zM439 272q1 8 1.5 16t0.5 16q0 28 -8 58t-26.5 55t-50 41t-77.5 16q-35 0 -70.5 -13.5t-66.5 -39t-54.5 -63.5t-34.5 -86h386zM279 596l71 120h49l-82 -120h-38z" />
    <glyph glyph-name="ecircumflex" unicode="&#xea;" horiz-adv-x="520" 
d="M436 116q-17 -28 -38.5 -52t-48.5 -42t-60.5 -28t-74.5 -10q-44 0 -81.5 15.5t-65.5 44t-44 70t-16 93.5t19.5 105.5t55 96.5t86 70t112.5 27q49 0 86 -15t61.5 -42t36.5 -63.5t12 -78.5q0 -38 -8 -67h-421q-3 -17 -3 -41q0 -42 14.5 -76t38.5 -58t55 -36.5t64 -12.5
q36 0 65 9t52.5 24.5t42 37t33.5 46.5zM439 272q1 8 1.5 16t0.5 16q0 28 -8 58t-26.5 55t-50 41t-77.5 16q-35 0 -70.5 -13.5t-66.5 -39t-54.5 -63.5t-34.5 -86h386zM422 591h-36l-60 84h-8l-87 -84h-43l1 5l118 111h38l78 -111z" />
    <glyph glyph-name="edieresis" unicode="&#xeb;" horiz-adv-x="520" 
d="M436 116q-17 -28 -38.5 -52t-48.5 -42t-60.5 -28t-74.5 -10q-44 0 -81.5 15.5t-65.5 44t-44 70t-16 93.5t19.5 105.5t55 96.5t86 70t112.5 27q49 0 86 -15t61.5 -42t36.5 -63.5t12 -78.5q0 -38 -8 -67h-421q-3 -17 -3 -41q0 -42 14.5 -76t38.5 -58t55 -36.5t64 -12.5
q36 0 65 9t52.5 24.5t42 37t33.5 46.5zM439 272q1 8 1.5 16t0.5 16q0 28 -8 58t-26.5 55t-50 41t-77.5 16q-35 0 -70.5 -13.5t-66.5 -39t-54.5 -63.5t-34.5 -86h386zM241 627q-14 0 -23 9t-9 23t9 23t23 9t23 -9t9 -23t-9 -23t-23 -9zM349 659q0 14 9 23t23 9t23 -9t9 -23
t-9 -23t-23 -9t-23 9t-9 23z" />
    <glyph glyph-name="igrave" unicode="&#xec;" horiz-adv-x="170" 
d="M3 0l87 490h36l-87 -490h-36zM111 596l-42 120h45l29 -120h-32z" />
    <glyph glyph-name="iacute" unicode="&#xed;" horiz-adv-x="170" 
d="M3 0l87 490h36l-87 -490h-36zM109 596l71 120h49l-82 -120h-38z" />
    <glyph glyph-name="icircumflex" unicode="&#xee;" horiz-adv-x="170" 
d="M3 0l87 490h36l-87 -490h-36zM245 600h-36l-60 84h-8l-87 -84h-43l1 5l118 111h38l78 -111z" />
    <glyph glyph-name="idieresis" unicode="&#xef;" horiz-adv-x="170" 
d="M79 627q-14 0 -23 9t-9 23t9 23t23 9t23 -9t9 -23t-9 -23t-23 -9zM159 659q0 14 9 23t23 9t23 -9t9 -23t-9 -23t-23 -9t-23 9t-9 23zM3 0l87 490h36l-87 -490h-36z" />
    <glyph glyph-name="eth" unicode="&#xf0;" horiz-adv-x="564" 
d="M355 620q-29 25 -62.5 43t-71.5 28l12 33q42 -12 82 -34.5t75 -55.5l105 43l12 -30l-93 -38q44 -50 71 -117t27 -152q0 -83 -20 -149t-56.5 -112t-88 -70.5t-114.5 -24.5q-47 0 -86.5 17.5t-68 46.5t-44 68t-15.5 83q0 53 21 102.5t58 88t88 61.5t110 23q37 0 65.5 -10
t49.5 -25t35 -32t22 -31l5 3q-5 63 -29.5 118t-63.5 98l-173 -71l-12 30zM238 16q50 0 91.5 19.5t71 54t46 81.5t16.5 101q0 39 -13 70t-35.5 53.5t-53 34.5t-64.5 12q-50 0 -94 -18.5t-77 -51t-52 -76.5t-19 -95q0 -39 13 -72.5t37 -58.5t58 -39.5t75 -14.5z" />
    <glyph glyph-name="ntilde" unicode="&#xf1;" 
d="M97 374h4q15 27 36 51t48 42t60.5 28.5t72.5 10.5q36 0 63.5 -12t46 -32t27.5 -48t9 -59q0 -22 -6 -55l-53 -300h-36l53 300q2 15 4 26q1 11 1 24q0 55 -29 89.5t-89 34.5q-42 0 -79.5 -18t-68 -49t-52 -72.5t-29.5 -88.5l-44 -246h-36l86 490h32zM390 611
q-22 0 -39.5 9.5t-32.5 21.5q-16 12 -31.5 21.5t-33.5 9.5q-29 0 -42 -14t-18 -38h-32q5 45 32 65.5t64 20.5q22 0 39.5 -9.5t33.5 -21.5q15 -12 30.5 -21.5t33.5 -9.5q29 0 42 14t18 38h32q-5 -45 -32 -65.5t-64 -20.5z" />
    <glyph glyph-name="ograve" unicode="&#xf2;" horiz-adv-x="548" 
d="M291 506q44 0 83 -16.5t67.5 -46.5t45 -71.5t16.5 -90.5q0 -57 -20 -110.5t-57 -95t-89.5 -66.5t-116.5 -25q-44 0 -83 16.5t-67.5 46.5t-45 71t-16.5 91q0 57 20 110.5t57 95t89 66.5t117 25zM224 16q53 0 97.5 22t77 58.5t50.5 84t18 98.5q0 42 -14 77.5t-38.5 61.5
t-57.5 41t-70 15q-53 0 -97.5 -22t-77 -58.5t-50.5 -84t-18 -98.5q0 -42 14 -77.5t38.5 -61.5t57 -41t70.5 -15zM289 596l-42 120h45l29 -120h-32z" />
    <glyph glyph-name="oacute" unicode="&#xf3;" horiz-adv-x="548" 
d="M291 506q44 0 83 -16.5t67.5 -46.5t45 -71.5t16.5 -90.5q0 -57 -20 -110.5t-57 -95t-89.5 -66.5t-116.5 -25q-44 0 -83 16.5t-67.5 46.5t-45 71t-16.5 91q0 57 20 110.5t57 95t89 66.5t117 25zM224 16q53 0 97.5 22t77 58.5t50.5 84t18 98.5q0 42 -14 77.5t-38.5 61.5
t-57.5 41t-70 15q-53 0 -97.5 -22t-77 -58.5t-50.5 -84t-18 -98.5q0 -42 14 -77.5t38.5 -61.5t57 -41t70.5 -15zM296 596l71 120h49l-82 -120h-38z" />
    <glyph glyph-name="ocircumflex" unicode="&#xf4;" horiz-adv-x="548" 
d="M291 506q44 0 83 -16.5t67.5 -46.5t45 -71.5t16.5 -90.5q0 -57 -20 -110.5t-57 -95t-89.5 -66.5t-116.5 -25q-44 0 -83 16.5t-67.5 46.5t-45 71t-16.5 91q0 57 20 110.5t57 95t89 66.5t117 25zM224 16q53 0 97.5 22t77 58.5t50.5 84t18 98.5q0 42 -14 77.5t-38.5 61.5
t-57.5 41t-70 15q-53 0 -97.5 -22t-77 -58.5t-50.5 -84t-18 -98.5q0 -42 14 -77.5t38.5 -61.5t57 -41t70.5 -15zM433 600h-36l-60 84h-8l-87 -84h-43l1 5l118 111h38l78 -111z" />
    <glyph glyph-name="otilde" unicode="&#xf5;" horiz-adv-x="548" 
d="M291 506q44 0 83 -16.5t67.5 -46.5t45 -71.5t16.5 -90.5q0 -57 -20 -110.5t-57 -95t-89.5 -66.5t-116.5 -25q-44 0 -83 16.5t-67.5 46.5t-45 71t-16.5 91q0 57 20 110.5t57 95t89 66.5t117 25zM224 16q53 0 97.5 22t77 58.5t50.5 84t18 98.5q0 42 -14 77.5t-38.5 61.5
t-57.5 41t-70 15q-53 0 -97.5 -22t-77 -58.5t-50.5 -84t-18 -98.5q0 -42 14 -77.5t38.5 -61.5t57 -41t70.5 -15zM393 611q-22 0 -39.5 9.5t-32.5 21.5q-16 12 -31.5 21.5t-33.5 9.5q-29 0 -42 -14t-18 -38h-32q5 45 32 65.5t64 20.5q22 0 39.5 -9.5t33.5 -21.5
q15 -12 30.5 -21.5t33.5 -9.5q29 0 42 14t18 38h32q-5 -45 -32 -65.5t-64 -20.5z" />
    <glyph glyph-name="odieresis" unicode="&#xf6;" horiz-adv-x="548" 
d="M291 506q44 0 83 -16.5t67.5 -46.5t45 -71.5t16.5 -90.5q0 -57 -20 -110.5t-57 -95t-89.5 -66.5t-116.5 -25q-44 0 -83 16.5t-67.5 46.5t-45 71t-16.5 91q0 57 20 110.5t57 95t89 66.5t117 25zM224 16q53 0 97.5 22t77 58.5t50.5 84t18 98.5q0 42 -14 77.5t-38.5 61.5
t-57.5 41t-70 15q-53 0 -97.5 -22t-77 -58.5t-50.5 -84t-18 -98.5q0 -42 14 -77.5t38.5 -61.5t57 -41t70.5 -15zM257 627q-14 0 -23 9t-9 23t9 23t23 9t23 -9t9 -23t-9 -23t-23 -9zM365 659q0 14 9 23t23 9t23 -9t9 -23t-9 -23t-23 -9t-23 9t-9 23z" />
    <glyph glyph-name="divide" unicode="&#xf7;" horiz-adv-x="538" 
d="M50 287h412l-6 -32h-412zM291 452q-15 0 -25 10t-10 25t10 25t25 10t25 -10t10 -25t-10 -25t-25 -10zM215 20q-15 0 -25 10t-10 25t10 25t25 10t25 -10t10 -25t-10 -25t-25 -10z" />
    <glyph glyph-name="oslash" unicode="&#xf8;" horiz-adv-x="548" 
d="M291 506q35 0 66 -10t57 -29l40 50l26 -21l-41 -51q29 -30 46.5 -71.5t17.5 -92.5q0 -57 -20 -110.5t-57 -95t-89.5 -66.5t-116.5 -25q-34 0 -64.5 10t-56.5 27l-37 -46l-28 20l39 48q-30 30 -47.5 72.5t-17.5 93.5q0 57 20 110.5t57 95t89 66.5t117 25zM44 211
q0 -42 13.5 -77.5t38.5 -61.5l295 367q-22 17 -48.5 26t-55.5 9q-53 0 -97.5 -22t-77 -58.5t-50.5 -84t-18 -98.5zM224 16q53 0 97.5 22t77 58.5t50.5 84t18 98.5q0 41 -14 76t-37 61l-294 -367q22 -16 47.5 -24.5t54.5 -8.5z" />
    <glyph glyph-name="ugrave" unicode="&#xf9;" 
d="M392 116h-4q-15 -27 -36.5 -51t-48.5 -42t-60 -28.5t-72 -10.5q-36 0 -63.5 12t-46 32t-27.5 47.5t-9 59.5q0 22 6 55l53 300h36l-53 -300q-2 -15 -3 -26q-2 -11 -2 -24q0 -55 29 -89.5t89 -34.5q42 0 79.5 18t68 49t52 72.5t29.5 88.5l44 246h36l-86 -490h-32zM293 596
l-42 120h45l29 -120h-32z" />
    <glyph glyph-name="uacute" unicode="&#xfa;" 
d="M392 116h-4q-15 -27 -36.5 -51t-48.5 -42t-60 -28.5t-72 -10.5q-36 0 -63.5 12t-46 32t-27.5 47.5t-9 59.5q0 22 6 55l53 300h36l-53 -300q-2 -15 -3 -26q-2 -11 -2 -24q0 -55 29 -89.5t89 -34.5q42 0 79.5 18t68 49t52 72.5t29.5 88.5l44 246h36l-86 -490h-32zM281 596
l71 120h49l-82 -120h-38z" />
    <glyph glyph-name="ucircumflex" unicode="&#xfb;" 
d="M392 116h-4q-15 -27 -36.5 -51t-48.5 -42t-60 -28.5t-72 -10.5q-36 0 -63.5 12t-46 32t-27.5 47.5t-9 59.5q0 22 6 55l53 300h36l-53 -300q-2 -15 -3 -26q-2 -11 -2 -24q0 -55 29 -89.5t89 -34.5q42 0 79.5 18t68 49t52 72.5t29.5 88.5l44 246h36l-86 -490h-32zM423 585
h-36l-60 84h-8l-87 -84h-43l1 5l118 111h38l78 -111z" />
    <glyph glyph-name="udieresis" unicode="&#xfc;" 
d="M392 116h-4q-15 -27 -36.5 -51t-48.5 -42t-60 -28.5t-72 -10.5q-36 0 -63.5 12t-46 32t-27.5 47.5t-9 59.5q0 22 6 55l53 300h36l-53 -300q-2 -15 -3 -26q-2 -11 -2 -24q0 -55 29 -89.5t89 -34.5q42 0 79.5 18t68 49t52 72.5t29.5 88.5l44 246h36l-86 -490h-32zM249 627
q-14 0 -23 9t-9 23t9 23t23 9t23 -9t9 -23t-9 -23t-23 -9zM357 659q0 14 9 23t23 9t23 -9t9 -23t-9 -23t-23 -9t-23 9t-9 23z" />
    <glyph glyph-name="yacute" unicode="&#xfd;" horiz-adv-x="458" 
d="M255 596l71 120h49l-82 -120h-38zM17 -216l160 260l-129 446h39l115 -403h2l247 403h43l-436 -706h-41z" />
    <glyph glyph-name="thorn" unicode="&#xfe;" horiz-adv-x="562" 
d="M334 506q93 0 147 -58t54 -161q0 -59 -20 -114t-57 -97t-88.5 -67t-114.5 -25q-36 0 -66 10.5t-52.5 27.5t-38 39.5t-24.5 46.5h-4l-8 -68l-46 -256h-35l164 932h36l-45 -254l-16 -71h4q15 23 36.5 44t48 36.5t58 25t67.5 9.5zM258 16q57 0 102 24.5t75.5 62.5t47 85.5
t16.5 94.5t-13 82.5t-35.5 59.5t-53.5 36.5t-67 12.5q-53 0 -96.5 -23.5t-74.5 -62t-48.5 -88.5t-17.5 -103q0 -41 13 -74.5t35 -57t52 -36.5t65 -13z" />
    <glyph glyph-name="ydieresis" unicode="&#xff;" horiz-adv-x="458" 
d="M17 -216l160 260l-129 446h39l115 -403h2l247 403h43l-436 -706h-41zM214 627q-14 0 -23 9t-9 23t9 23t23 9t23 -9t9 -23t-9 -23t-23 -9zM322 659q0 14 9 23t23 9t23 -9t9 -23t-9 -23t-23 -9t-23 9t-9 23z" />
    <glyph glyph-name="Amacron" unicode="&#x100;" horiz-adv-x="638" 
d="M360 716h44l157 -716h-35l-48 220h-362l-125 -220h-41zM470 254l-92 418h-4l-238 -418h334zM265 827l5 32h256l-5 -32h-256z" />
    <glyph glyph-name="amacron" unicode="&#x101;" horiz-adv-x="501" 
d="M366 101h-4q-36 -55 -90.5 -86t-122.5 -31q-36 0 -65 11.5t-49 32t-31 47.5t-11 57q0 42 17.5 74.5t48 54.5t72 33.5t88.5 11.5q52 0 98.5 -14t76.5 -33l8 42q3 19 3 38q0 64 -39.5 99.5t-106.5 35.5q-24 0 -48.5 -6t-46.5 -17.5t-40.5 -27.5t-31.5 -36l-28 19
q32 49 85 74.5t115 25.5q41 0 74 -12t56 -33.5t35.5 -52t12.5 -67.5q0 -11 -1 -20.5t-3 -20.5l-53 -300h-36zM388 225q-35 23 -76.5 36t-96.5 13q-38 0 -71.5 -9t-59.5 -27t-41 -45t-15 -63q0 -55 37.5 -84.5t91.5 -29.5q41 0 79.5 17t70 46t53 66.5t28.5 79.5zM177 643
l5 32h256l-5 -32h-256z" />
    <glyph glyph-name="Abreve" unicode="&#x102;" horiz-adv-x="638" 
d="M360 716h44l157 -716h-35l-48 220h-362l-125 -220h-41zM470 254l-92 418h-4l-238 -418h334zM389 782q-18 0 -36 7t-32 19.5t-22.5 30t-8.5 38.5q0 9 2 19h36q-1 -6 -1 -8v-7q0 -27 17 -47t50 -20q19 0 35.5 7t29 18.5t20.5 26t11 30.5h34q-8 -54 -44 -84t-91 -30z" />
    <glyph glyph-name="abreve" unicode="&#x103;" horiz-adv-x="501" 
d="M366 101h-4q-36 -55 -90.5 -86t-122.5 -31q-36 0 -65 11.5t-49 32t-31 47.5t-11 57q0 42 17.5 74.5t48 54.5t72 33.5t88.5 11.5q52 0 98.5 -14t76.5 -33l8 42q3 19 3 38q0 64 -39.5 99.5t-106.5 35.5q-24 0 -48.5 -6t-46.5 -17.5t-40.5 -27.5t-31.5 -36l-28 19
q32 49 85 74.5t115 25.5q41 0 74 -12t56 -33.5t35.5 -52t12.5 -67.5q0 -11 -1 -20.5t-3 -20.5l-53 -300h-36zM388 225q-35 23 -76.5 36t-96.5 13q-38 0 -71.5 -9t-59.5 -27t-41 -45t-15 -63q0 -55 37.5 -84.5t91.5 -29.5q41 0 79.5 17t70 46t53 66.5t28.5 79.5zM294 598
q-18 0 -36 7t-32 19.5t-22.5 30t-8.5 38.5q0 9 2 19h36q-1 -6 -1 -8v-7q0 -27 17 -47t50 -20q19 0 35.5 7t29 18.5t20.5 26t11 30.5h34q-8 -54 -44 -84t-91 -30z" />
    <glyph glyph-name="Aogonek" unicode="&#x104;" horiz-adv-x="638" 
d="M519 -224q-39 0 -65.5 26.5t-26.5 65.5q0 44 28 80.5t69 59.5l-46 212h-362l-125 -220h-41l410 716h44l157 -716q-17 -11 -34.5 -24t-32 -28.5t-23.5 -34t-9 -39.5q0 -32 18 -49t44 -17q13 0 23 2.5t20 7.5l10 -30q-13 -5 -25.5 -8.5t-32.5 -3.5zM470 254l-92 418h-4
l-238 -418h334z" />
    <glyph glyph-name="aogonek" unicode="&#x105;" horiz-adv-x="501" 
d="M343 -224q-39 0 -65.5 26.5t-26.5 65.5q0 44 29.5 78.5t68.5 53.5l17 101h-4q-36 -55 -90.5 -86t-122.5 -31q-36 0 -65 11.5t-49 32t-31 47.5t-11 57q0 42 17.5 74.5t48 54.5t72 33.5t88.5 11.5q52 0 98.5 -14t76.5 -33l8 42q3 19 3 38q0 64 -39.5 99.5t-106.5 35.5
q-24 0 -48.5 -6t-46.5 -17.5t-40.5 -27.5t-31.5 -36l-28 19q32 49 85 74.5t115 25.5q41 0 74 -12t56 -33.5t35.5 -52t12.5 -67.5q0 -11 -1 -20.5t-3 -20.5l-53 -300q-17 -11 -34.5 -24t-32 -28.5t-23.5 -34t-9 -39.5q0 -32 18 -49t44 -17q13 0 23 2.5t20 7.5l10 -30
q-13 -5 -25.5 -8.5t-32.5 -3.5zM388 225q-35 23 -76.5 36t-96.5 13q-38 0 -71.5 -9t-59.5 -27t-41 -45t-15 -63q0 -55 37.5 -84.5t91.5 -29.5q41 0 79.5 17t70 46t53 66.5t28.5 79.5z" />
    <glyph glyph-name="Cacute" unicode="&#x106;" horiz-adv-x="720" 
d="M638 116q-54 -60 -125 -96t-175 -36q-62 0 -117 23t-96 65t-65 102t-24 135q0 85 33 161.5t90 134.5t134 92.5t165 34.5q90 0 149 -32.5t98 -88.5l-31 -21q-35 55 -92 81.5t-129 26.5q-80 0 -149 -32.5t-121 -86.5t-81.5 -124.5t-29.5 -146.5q0 -66 21.5 -119.5t58 -91.5
t85.5 -58.5t104 -20.5q47 0 85 8.5t70 24.5t60.5 38.5t56.5 51.5zM439 780l71 120h49l-82 -120h-38z" />
    <glyph glyph-name="cacute" unicode="&#x107;" horiz-adv-x="504" 
d="M436 120q-38 -69 -90.5 -102.5t-130.5 -33.5q-45 0 -82.5 17.5t-65.5 47.5t-43.5 70.5t-15.5 87.5q0 58 21 112t58.5 95.5t90 66.5t115.5 25q75 0 119.5 -36.5t67.5 -101.5l-34 -15q-20 58 -56 89.5t-99 31.5q-52 0 -97 -22t-78.5 -58.5t-52.5 -85t-19 -101.5
q0 -43 14 -78.5t38 -60.5t56 -38.5t67 -13.5q66 0 110 30t77 90zM276 596l71 120h49l-82 -120h-38z" />
    <glyph glyph-name="Ccircumflex" unicode="&#x108;" horiz-adv-x="720" 
d="M638 116q-54 -60 -125 -96t-175 -36q-62 0 -117 23t-96 65t-65 102t-24 135q0 85 33 161.5t90 134.5t134 92.5t165 34.5q90 0 149 -32.5t98 -88.5l-31 -21q-35 55 -92 81.5t-129 26.5q-80 0 -149 -32.5t-121 -86.5t-81.5 -124.5t-29.5 -146.5q0 -66 21.5 -119.5t58 -91.5
t85.5 -58.5t104 -20.5q47 0 85 8.5t70 24.5t60.5 38.5t56.5 51.5zM580 785h-36l-60 84h-8l-87 -84h-43l1 5l118 111h38l78 -111z" />
    <glyph glyph-name="ccircumflex" unicode="&#x109;" horiz-adv-x="504" 
d="M436 120q-38 -69 -90.5 -102.5t-130.5 -33.5q-45 0 -82.5 17.5t-65.5 47.5t-43.5 70.5t-15.5 87.5q0 58 21 112t58.5 95.5t90 66.5t115.5 25q75 0 119.5 -36.5t67.5 -101.5l-34 -15q-20 58 -56 89.5t-99 31.5q-52 0 -97 -22t-78.5 -58.5t-52.5 -85t-19 -101.5
q0 -43 14 -78.5t38 -60.5t56 -38.5t67 -13.5q66 0 110 30t77 90zM423 600h-36l-60 84h-8l-87 -84h-43l1 5l118 111h38l78 -111z" />
    <glyph glyph-name="Cdotaccent" unicode="&#x10a;" horiz-adv-x="720" 
d="M638 116q-54 -60 -125 -96t-175 -36q-62 0 -117 23t-96 65t-65 102t-24 135q0 85 33 161.5t90 134.5t134 92.5t165 34.5q90 0 149 -32.5t98 -88.5l-31 -21q-35 55 -92 81.5t-129 26.5q-80 0 -149 -32.5t-121 -86.5t-81.5 -124.5t-29.5 -146.5q0 -66 21.5 -119.5t58 -91.5
t85.5 -58.5t104 -20.5q47 0 85 8.5t70 24.5t60.5 38.5t56.5 51.5zM478 824q-14 0 -23 9t-9 23t9 23t23 9t23 -9t9 -23t-9 -23t-23 -9z" />
    <glyph glyph-name="cdotaccent" unicode="&#x10b;" horiz-adv-x="504" 
d="M436 120q-38 -69 -90.5 -102.5t-130.5 -33.5q-45 0 -82.5 17.5t-65.5 47.5t-43.5 70.5t-15.5 87.5q0 58 21 112t58.5 95.5t90 66.5t115.5 25q75 0 119.5 -36.5t67.5 -101.5l-34 -15q-20 58 -56 89.5t-99 31.5q-52 0 -97 -22t-78.5 -58.5t-52.5 -85t-19 -101.5
q0 -43 14 -78.5t38 -60.5t56 -38.5t67 -13.5q66 0 110 30t77 90zM317 627q-14 0 -23 9t-9 23t9 23t23 9t23 -9t9 -23t-9 -23t-23 -9z" />
    <glyph glyph-name="Ccaron" unicode="&#x10c;" horiz-adv-x="720" 
d="M638 116q-54 -60 -125 -96t-175 -36q-62 0 -117 23t-96 65t-65 102t-24 135q0 85 33 161.5t90 134.5t134 92.5t165 34.5q90 0 149 -32.5t98 -88.5l-31 -21q-35 55 -92 81.5t-129 26.5q-80 0 -149 -32.5t-121 -86.5t-81.5 -124.5t-29.5 -146.5q0 -66 21.5 -119.5t58 -91.5
t85.5 -58.5t104 -20.5q47 0 85 8.5t70 24.5t60.5 38.5t56.5 51.5zM355 900h36l60 -84h8l87 84h43l-1 -5l-118 -111h-38l-78 111z" />
    <glyph glyph-name="ccaron" unicode="&#x10d;" horiz-adv-x="504" 
d="M436 120q-38 -69 -90.5 -102.5t-130.5 -33.5q-45 0 -82.5 17.5t-65.5 47.5t-43.5 70.5t-15.5 87.5q0 58 21 112t58.5 95.5t90 66.5t115.5 25q75 0 119.5 -36.5t67.5 -101.5l-34 -15q-20 58 -56 89.5t-99 31.5q-52 0 -97 -22t-78.5 -58.5t-52.5 -85t-19 -101.5
q0 -43 14 -78.5t38 -60.5t56 -38.5t67 -13.5q66 0 110 30t77 90zM215 716h36l60 -84h8l87 84h43l-1 -5l-118 -111h-38l-78 111z" />
    <glyph glyph-name="Dcaron" unicode="&#x10e;" horiz-adv-x="678" 
d="M145 716h197q148 0 224.5 -80.5t76.5 -222.5q0 -82 -28.5 -157t-83 -132t-134 -90.5t-182.5 -33.5h-197zM221 34q90 0 161.5 30t121.5 81.5t76.5 119.5t26.5 143q0 139 -71 206.5t-200 67.5h-161l-115 -648h161zM259 900h36l60 -84h8l87 84h43l-1 -5l-118 -111h-38
l-78 111z" />
    <glyph glyph-name="dcaron" unicode="&#x10f;" horiz-adv-x="599" 
d="M423 100h-4q-30 -49 -83 -82.5t-126 -33.5q-44 0 -81.5 15.5t-64.5 44.5t-42 70t-15 91q0 54 20 108t56.5 97t88.5 69.5t115 26.5q40 0 70.5 -11t52 -28.5t35.5 -39.5t23 -45h4l8 68l47 266h36l-126 -716h-32zM212 16q54 0 98 23.5t75.5 62t48.5 87t17 98.5q0 43 -12 78
t-34 59t-52 37t-66 13q-56 0 -101 -24t-76.5 -62.5t-49 -86.5t-17.5 -96q0 -45 13.5 -80.5t36.5 -59.5t53.5 -36.5t65.5 -12.5zM612 520l35 196h38l-49 -196h-24z" />
    <glyph glyph-name="Dcroat" unicode="&#x110;" horiz-adv-x="670" 
d="M73 357h-86l6 30h86l58 329h197q148 0 224.5 -80.5t76.5 -222.5q0 -82 -28.5 -157t-83 -132t-134 -90.5t-182.5 -33.5h-197zM213 34q90 0 161.5 30t121.5 81.5t76.5 119.5t26.5 143q0 139 -71 206.5t-200 67.5h-161l-53 -295h214l-6 -30h-213l-57 -323h161z" />
    <glyph glyph-name="dcroat" unicode="&#x111;" horiz-adv-x="562" 
d="M423 100h-4q-30 -49 -83 -82.5t-126 -33.5q-44 0 -81.5 15.5t-64.5 44.5t-42 70t-15 91q0 54 20 108t56.5 97t88.5 69.5t115 26.5q40 0 70.5 -11t52 -28.5t35.5 -39.5t23 -45h4l8 68l25 142h-177l6 32h176l17 92h36l-17 -92h64l-6 -32h-63l-104 -592h-32zM212 16
q54 0 98 23.5t75.5 62t48.5 87t17 98.5q0 43 -12 78t-34 59t-52 37t-66 13q-56 0 -101 -24t-76.5 -62.5t-49 -86.5t-17.5 -96q0 -45 13.5 -80.5t36.5 -59.5t53.5 -36.5t65.5 -12.5z" />
    <glyph glyph-name="Emacron" unicode="&#x112;" horiz-adv-x="531" 
d="M175 682l-55 -307h322l-5 -34h-322l-55 -307h354l-6 -34h-390l127 716h390l-6 -34h-354zM227 827l5 32h256l-5 -32h-256z" />
    <glyph glyph-name="emacron" unicode="&#x113;" horiz-adv-x="520" 
d="M436 116q-17 -28 -38.5 -52t-48.5 -42t-60.5 -28t-74.5 -10q-44 0 -81.5 15.5t-65.5 44t-44 70t-16 93.5t19.5 105.5t55 96.5t86 70t112.5 27q49 0 86 -15t61.5 -42t36.5 -63.5t12 -78.5q0 -38 -8 -67h-421q-3 -17 -3 -41q0 -42 14.5 -76t38.5 -58t55 -36.5t64 -12.5
q36 0 65 9t52.5 24.5t42 37t33.5 46.5zM439 272q1 8 1.5 16t0.5 16q0 28 -8 58t-26.5 55t-50 41t-77.5 16q-35 0 -70.5 -13.5t-66.5 -39t-54.5 -63.5t-34.5 -86h386zM186 643l5 32h256l-5 -32h-256z" />
    <glyph glyph-name="Ebreve" unicode="&#x114;" horiz-adv-x="531" 
d="M175 682l-55 -307h322l-5 -34h-322l-55 -307h354l-6 -34h-390l127 716h390l-6 -34h-354zM339 782q-18 0 -36 7t-32 19.5t-22.5 30t-8.5 38.5q0 9 2 19h36q-1 -6 -1 -8v-7q0 -27 17 -47t50 -20q19 0 35.5 7t29 18.5t20.5 26t11 30.5h34q-8 -54 -44 -84t-91 -30z" />
    <glyph glyph-name="ebreve" unicode="&#x115;" horiz-adv-x="520" 
d="M436 116q-17 -28 -38.5 -52t-48.5 -42t-60.5 -28t-74.5 -10q-44 0 -81.5 15.5t-65.5 44t-44 70t-16 93.5t19.5 105.5t55 96.5t86 70t112.5 27q49 0 86 -15t61.5 -42t36.5 -63.5t12 -78.5q0 -38 -8 -67h-421q-3 -17 -3 -41q0 -42 14.5 -76t38.5 -58t55 -36.5t64 -12.5
q36 0 65 9t52.5 24.5t42 37t33.5 46.5zM439 272q1 8 1.5 16t0.5 16q0 28 -8 58t-26.5 55t-50 41t-77.5 16q-35 0 -70.5 -13.5t-66.5 -39t-54.5 -63.5t-34.5 -86h386zM306 598q-18 0 -36 7t-32 19.5t-22.5 30t-8.5 38.5q0 9 2 19h36q-1 -6 -1 -8v-7q0 -27 17 -47t50 -20
q19 0 35.5 7t29 18.5t20.5 26t11 30.5h34q-8 -54 -44 -84t-91 -30z" />
    <glyph glyph-name="Edotaccent" unicode="&#x116;" horiz-adv-x="531" 
d="M175 682l-55 -307h322l-5 -34h-322l-55 -307h354l-6 -34h-390l127 716h390l-6 -34h-354zM370 824q-14 0 -23 9t-9 23t9 23t23 9t23 -9t9 -23t-9 -23t-23 -9z" />
    <glyph glyph-name="edotaccent" unicode="&#x117;" horiz-adv-x="520" 
d="M436 116q-17 -28 -38.5 -52t-48.5 -42t-60.5 -28t-74.5 -10q-44 0 -81.5 15.5t-65.5 44t-44 70t-16 93.5t19.5 105.5t55 96.5t86 70t112.5 27q49 0 86 -15t61.5 -42t36.5 -63.5t12 -78.5q0 -38 -8 -67h-421q-3 -17 -3 -41q0 -42 14.5 -76t38.5 -58t55 -36.5t64 -12.5
q36 0 65 9t52.5 24.5t42 37t33.5 46.5zM439 272q1 8 1.5 16t0.5 16q0 28 -8 58t-26.5 55t-50 41t-77.5 16q-35 0 -70.5 -13.5t-66.5 -39t-54.5 -63.5t-34.5 -86h386zM317 627q-14 0 -23 9t-9 23t9 23t23 9t23 -9t9 -23t-9 -23t-23 -9z" />
    <glyph glyph-name="Eogonek" unicode="&#x118;" horiz-adv-x="531" 
d="M366 -224q-39 0 -65.5 26.5t-26.5 65.5q0 22 7.5 41.5t20.5 36.5t29.5 31t33.5 23h-347l127 716h390l-6 -34h-354l-55 -307h322l-5 -34h-322l-55 -307h354l-6 -34q-17 -11 -34.5 -24t-32 -28.5t-23.5 -34t-9 -39.5q0 -32 18 -49t44 -17q13 0 23 2.5t20 7.5l10 -30
q-13 -5 -25.5 -8.5t-32.5 -3.5z" />
    <glyph glyph-name="eogonek" unicode="&#x119;" horiz-adv-x="520" 
d="M265 -224q-39 0 -65.5 26.5t-26.5 65.5q0 36 20.5 67t51.5 51q-8 -1 -15.5 -1.5t-15.5 -0.5q-44 0 -81.5 15.5t-65.5 44t-44 70t-16 93.5t19.5 105.5t55 96.5t86 70t112.5 27q49 0 86 -15t61.5 -42t36.5 -63.5t12 -78.5q0 -38 -8 -67h-421q-3 -17 -3 -41q0 -42 14.5 -76
t38.5 -58t55 -36.5t64 -12.5q37 0 66 9t52 24.5t41.5 37t33.5 46.5l27 -17q-46 -79 -113 -109q-20 -9 -40 -23t-37 -31.5t-27.5 -37.5t-10.5 -41q0 -32 18 -49t44 -17q13 0 23 2.5t20 7.5l10 -30q-13 -5 -25.5 -8.5t-32.5 -3.5zM439 272q1 8 1.5 16t0.5 16q0 28 -8 58
t-26.5 55t-50 41t-77.5 16q-35 0 -70.5 -13.5t-66.5 -39t-54.5 -63.5t-34.5 -86h386z" />
    <glyph glyph-name="Ecaron" unicode="&#x11a;" horiz-adv-x="531" 
d="M175 682l-55 -307h322l-5 -34h-322l-55 -307h354l-6 -34h-390l127 716h390l-6 -34h-354zM244 900h36l60 -84h8l87 84h43l-1 -5l-118 -111h-38l-78 111z" />
    <glyph glyph-name="ecaron" unicode="&#x11b;" horiz-adv-x="520" 
d="M436 116q-17 -28 -38.5 -52t-48.5 -42t-60.5 -28t-74.5 -10q-44 0 -81.5 15.5t-65.5 44t-44 70t-16 93.5t19.5 105.5t55 96.5t86 70t112.5 27q49 0 86 -15t61.5 -42t36.5 -63.5t12 -78.5q0 -38 -8 -67h-421q-3 -17 -3 -41q0 -42 14.5 -76t38.5 -58t55 -36.5t64 -12.5
q36 0 65 9t52.5 24.5t42 37t33.5 46.5zM439 272q1 8 1.5 16t0.5 16q0 28 -8 58t-26.5 55t-50 41t-77.5 16q-35 0 -70.5 -13.5t-66.5 -39t-54.5 -63.5t-34.5 -86h386zM206 716h36l60 -84h8l87 84h43l-1 -5l-118 -111h-38l-78 111z" />
    <glyph glyph-name="Gcircumflex" unicode="&#x11c;" horiz-adv-x="795" 
d="M421 367h327q0 -12 -1 -22t-3 -19q-14 -70 -40.5 -125t-66.5 -98q-53 -57 -125.5 -88t-165.5 -31q-65 0 -121.5 24t-98.5 67.5t-66 105t-24 135.5q0 83 32.5 158.5t90.5 132.5t137 91t171 34q81 0 144 -28.5t101 -83.5l-31 -24q-32 48 -89.5 75t-128.5 27
q-81 0 -152 -30.5t-124.5 -82.5t-84 -120.5t-30.5 -143.5q0 -69 21.5 -124.5t59.5 -95.5t89.5 -61.5t111.5 -21.5q78 0 144 30t114 81q39 42 63.5 94.5t32.5 111.5h-293zM583 785h-36l-60 84h-8l-87 -84h-43l1 5l118 111h38l78 -111z" />
    <glyph glyph-name="gcircumflex" unicode="&#x11d;" horiz-adv-x="558" 
d="M191 -232q-44 0 -76.5 12t-56 31.5t-38.5 45t-22 52.5l32 12q14 -54 54.5 -87.5t106.5 -33.5q48 0 86.5 16t67 45t47.5 69t27 88l13 76h-5q-32 -47 -83 -78.5t-123 -31.5q-42 0 -77.5 16.5t-61.5 45.5t-41 69t-15 88q0 59 20.5 113.5t57 96.5t88 67.5t114.5 25.5
q37 0 66.5 -10.5t51 -27.5t35.5 -38.5t20 -43.5h5l18 104h36l-84 -479q-11 -59 -34.5 -104.5t-58 -76t-78 -46.5t-92.5 -16zM224 16q54 0 98 24t75.5 63t49 87.5t17.5 97.5q0 46 -12.5 81t-34.5 58.5t-51 35t-62 11.5q-55 0 -99.5 -22.5t-76 -60t-48.5 -85.5t-17 -99
q0 -44 13 -79.5t35 -60t51 -38t62 -13.5zM426 600h-36l-60 84h-8l-87 -84h-43l1 5l118 111h38l78 -111z" />
    <glyph glyph-name="Gbreve" unicode="&#x11e;" horiz-adv-x="795" 
d="M421 367h327q0 -12 -1 -22t-3 -19q-14 -70 -40.5 -125t-66.5 -98q-53 -57 -125.5 -88t-165.5 -31q-65 0 -121.5 24t-98.5 67.5t-66 105t-24 135.5q0 83 32.5 158.5t90.5 132.5t137 91t171 34q81 0 144 -28.5t101 -83.5l-31 -24q-32 48 -89.5 75t-128.5 27
q-81 0 -152 -30.5t-124.5 -82.5t-84 -120.5t-30.5 -143.5q0 -69 21.5 -124.5t59.5 -95.5t89.5 -61.5t111.5 -21.5q78 0 144 30t114 81q39 42 63.5 94.5t32.5 111.5h-293zM464 782q-18 0 -36 7t-32 19.5t-22.5 30t-8.5 38.5q0 9 2 19h36q-1 -6 -1 -8v-7q0 -27 17 -47t50 -20
q19 0 35.5 7t29 18.5t20.5 26t11 30.5h34q-8 -54 -44 -84t-91 -30z" />
    <glyph glyph-name="gbreve" unicode="&#x11f;" horiz-adv-x="558" 
d="M191 -232q-44 0 -76.5 12t-56 31.5t-38.5 45t-22 52.5l32 12q14 -54 54.5 -87.5t106.5 -33.5q48 0 86.5 16t67 45t47.5 69t27 88l13 76h-5q-32 -47 -83 -78.5t-123 -31.5q-42 0 -77.5 16.5t-61.5 45.5t-41 69t-15 88q0 59 20.5 113.5t57 96.5t88 67.5t114.5 25.5
q37 0 66.5 -10.5t51 -27.5t35.5 -38.5t20 -43.5h5l18 104h36l-84 -479q-11 -59 -34.5 -104.5t-58 -76t-78 -46.5t-92.5 -16zM224 16q54 0 98 24t75.5 63t49 87.5t17.5 97.5q0 46 -12.5 81t-34.5 58.5t-51 35t-62 11.5q-55 0 -99.5 -22.5t-76 -60t-48.5 -85.5t-17 -99
q0 -44 13 -79.5t35 -60t51 -38t62 -13.5zM322 598q-18 0 -36 7t-32 19.5t-22.5 30t-8.5 38.5q0 9 2 19h36q-1 -6 -1 -8v-7q0 -27 17 -47t50 -20q19 0 35.5 7t29 18.5t20.5 26t11 30.5h34q-8 -54 -44 -84t-91 -30z" />
    <glyph glyph-name="Gdotaccent" unicode="&#x120;" horiz-adv-x="795" 
d="M421 367h327q0 -12 -1 -22t-3 -19q-14 -70 -40.5 -125t-66.5 -98q-53 -57 -125.5 -88t-165.5 -31q-65 0 -121.5 24t-98.5 67.5t-66 105t-24 135.5q0 83 32.5 158.5t90.5 132.5t137 91t171 34q81 0 144 -28.5t101 -83.5l-31 -24q-32 48 -89.5 75t-128.5 27
q-81 0 -152 -30.5t-124.5 -82.5t-84 -120.5t-30.5 -143.5q0 -69 21.5 -124.5t59.5 -95.5t89.5 -61.5t111.5 -21.5q78 0 144 30t114 81q39 42 63.5 94.5t32.5 111.5h-293zM483 824q-14 0 -23 9t-9 23t9 23t23 9t23 -9t9 -23t-9 -23t-23 -9z" />
    <glyph glyph-name="gdotaccent" unicode="&#x121;" horiz-adv-x="558" 
d="M191 -232q-44 0 -76.5 12t-56 31.5t-38.5 45t-22 52.5l32 12q14 -54 54.5 -87.5t106.5 -33.5q48 0 86.5 16t67 45t47.5 69t27 88l13 76h-5q-32 -47 -83 -78.5t-123 -31.5q-42 0 -77.5 16.5t-61.5 45.5t-41 69t-15 88q0 59 20.5 113.5t57 96.5t88 67.5t114.5 25.5
q37 0 66.5 -10.5t51 -27.5t35.5 -38.5t20 -43.5h5l18 104h36l-84 -479q-11 -59 -34.5 -104.5t-58 -76t-78 -46.5t-92.5 -16zM224 16q54 0 98 24t75.5 63t49 87.5t17.5 97.5q0 46 -12.5 81t-34.5 58.5t-51 35t-62 11.5q-55 0 -99.5 -22.5t-76 -60t-48.5 -85.5t-17 -99
q0 -44 13 -79.5t35 -60t51 -38t62 -13.5zM326 627q-14 0 -23 9t-9 23t9 23t23 9t23 -9t9 -23t-9 -23t-23 -9z" />
    <glyph glyph-name="uni0122" unicode="&#x122;" horiz-adv-x="795" 
d="M421 367h327q0 -12 -1 -22t-3 -19q-14 -70 -40.5 -125t-66.5 -98q-53 -57 -125.5 -88t-165.5 -31q-65 0 -121.5 24t-98.5 67.5t-66 105t-24 135.5q0 83 32.5 158.5t90.5 132.5t137 91t171 34q81 0 144 -28.5t101 -83.5l-31 -24q-32 48 -89.5 75t-128.5 27
q-81 0 -152 -30.5t-124.5 -82.5t-84 -120.5t-30.5 -143.5q0 -69 21.5 -124.5t59.5 -95.5t89.5 -61.5t111.5 -21.5q78 0 144 30t114 81q39 42 63.5 94.5t32.5 111.5h-293zM276 -190l64 77q-8 3 -13.5 11.5t-5.5 18.5q0 15 10 25t25 10q13 0 24 -8t11 -23q0 -11 -5.5 -19
t-13.5 -18l-77 -90z" />
    <glyph glyph-name="uni0123" unicode="&#x123;" horiz-adv-x="558" 
d="M191 -232q-44 0 -76.5 12t-56 31.5t-38.5 45t-22 52.5l32 12q14 -54 54.5 -87.5t106.5 -33.5q48 0 86.5 16t67 45t47.5 69t27 88l13 76h-5q-32 -47 -83 -78.5t-123 -31.5q-42 0 -77.5 16.5t-61.5 45.5t-41 69t-15 88q0 59 20.5 113.5t57 96.5t88 67.5t114.5 25.5
q37 0 66.5 -10.5t51 -27.5t35.5 -38.5t20 -43.5h5l18 104h36l-84 -479q-11 -59 -34.5 -104.5t-58 -76t-78 -46.5t-92.5 -16zM224 16q54 0 98 24t75.5 63t49 87.5t17.5 97.5q0 46 -12.5 81t-34.5 58.5t-51 35t-62 11.5q-55 0 -99.5 -22.5t-76 -60t-48.5 -85.5t-17 -99
q0 -44 13 -79.5t35 -60t51 -38t62 -13.5zM417.01 713.977l-63.9922 -76.9902q7.99902 -3 13.498 -11.499q5.5 -8.49902 5.5 -18.4971q0 -14.998 -9.99902 -24.9971t-24.9971 -9.99902q-12.998 0 -23.9971 7.99902t-10.999 22.9971q0 10.999 5.5 18.998
q5.49902 7.99902 13.498 17.998l76.9902 89.9883z" />
    <glyph glyph-name="Hcircumflex" unicode="&#x124;" horiz-adv-x="678" 
d="M145 716h36l-59 -333h442l59 333h36l-127 -716h-36l62 349h-442l-62 -349h-36zM525 784h-36l-60 84h-8l-87 -84h-43l1 5l118 111h38l78 -111z" />
    <glyph glyph-name="hcircumflex" unicode="&#x125;" 
d="M126 716h36l-46 -259l-20 -88h4q35 63 89 100t126 37q38 0 66 -12t46 -32.5t27 -48.5t9 -61q0 -11 -1 -24t-3 -22l-54 -306h-36l54 305q4 23 4 48q0 52 -29 86.5t-89 34.5q-39 0 -76.5 -18.5t-69 -51.5t-54.5 -77.5t-32 -96.5l-41 -230h-36zM425 784h-36l-60 84h-8
l-87 -84h-43l1 5l118 111h38l78 -111z" />
    <glyph glyph-name="Hbar" unicode="&#x126;" horiz-adv-x="678" 
d="M111 526h-64l6 32h64l28 158h36l-28 -158h442l28 158h36l-28 -158h64l-6 -32h-64l-93 -526h-36l62 349h-442l-62 -349h-36zM564 383l25 143h-442l-25 -143h442z" />
    <glyph glyph-name="hbar" unicode="&#x127;" 
d="M104 592h-66l6 32h66l16 92h36l-16 -92h174l-5 -32h-175l-24 -135l-20 -88h4q35 63 89 100t126 37q38 0 66 -12t46 -32.5t27 -48.5t9 -61q0 -11 -1 -24t-3 -22l-54 -306h-36l54 305q4 23 4 48q0 52 -29 86.5t-89 34.5q-39 0 -76.5 -18.5t-69 -51.5t-54.5 -77.5t-32 -96.5
l-41 -230h-36z" />
    <glyph glyph-name="Itilde" unicode="&#x128;" horiz-adv-x="200" 
d="M145 716h36l-127 -716h-36zM238 794q-22 0 -39.5 9.5t-32.5 21.5q-16 12 -31.5 21.5t-33.5 9.5q-29 0 -42 -14t-18 -38h-32q5 45 32 65.5t64 20.5q22 0 39.5 -9.5t33.5 -21.5q15 -12 30.5 -21.5t33.5 -9.5q29 0 42 14t18 38h32q-5 -45 -32 -65.5t-64 -20.5z" />
    <glyph glyph-name="itilde" unicode="&#x129;" horiz-adv-x="170" 
d="M3 0l87 490h36l-87 -490h-36zM205 610q-22 0 -39.5 9.5t-32.5 21.5q-16 12 -31.5 21.5t-33.5 9.5q-29 0 -42 -14t-18 -38h-32q5 45 32 65.5t64 20.5q22 0 39.5 -9.5t33.5 -21.5q15 -12 30.5 -21.5t33.5 -9.5q29 0 42 14t18 38h32q-5 -45 -32 -65.5t-64 -20.5z" />
    <glyph glyph-name="Imacron" unicode="&#x12a;" horiz-adv-x="200" 
d="M64 827l5 32h231l-5 -32h-231zM145 716h36l-127 -716h-36z" />
    <glyph glyph-name="imacron" unicode="&#x12b;" horiz-adv-x="170" 
d="M3 0l87 490h36l-87 -490h-36zM8 643l5 32h256l-5 -32h-256z" />
    <glyph glyph-name="Ibreve" unicode="&#x12c;" horiz-adv-x="200" 
d="M145 716h36l-127 -716h-36zM170 782q-18 0 -36 7t-32 19.5t-22.5 30t-8.5 38.5q0 9 2 19h36q-1 -6 -1 -8v-7q0 -27 17 -47t50 -20q19 0 35.5 7t29 18.5t20.5 26t11 30.5h34q-8 -54 -44 -84t-91 -30z" />
    <glyph glyph-name="ibreve" unicode="&#x12d;" horiz-adv-x="170" 
d="M3 0l87 490h36l-87 -490h-36zM129 598q-18 0 -36 7t-32 19.5t-22.5 30t-8.5 38.5q0 9 2 19h36q-1 -6 -1 -8v-7q0 -27 17 -47t50 -20q19 0 35.5 7t29 18.5t20.5 26t11 30.5h34q-8 -54 -44 -84t-91 -30z" />
    <glyph glyph-name="Iogonek" unicode="&#x12e;" horiz-adv-x="200" 
d="M12 -224q-39 0 -65.5 26.5t-26.5 65.5q0 22 8 42.5t21.5 39t31.5 33.5t38 25l126 708h36l-127 -716q-17 -11 -34.5 -24t-32 -28.5t-23.5 -34t-9 -39.5q0 -32 18 -49t44 -17q13 0 23 2.5t20 7.5l10 -30q-13 -5 -25.5 -8.5t-32.5 -3.5z" />
    <glyph glyph-name="iogonek" unicode="&#x12f;" horiz-adv-x="170" 
d="M-3 -224q-39 0 -65.5 26.5t-26.5 65.5q0 44 28.5 79t70.5 59l86 484h36l-87 -490q-17 -11 -34.5 -24t-32 -28.5t-23.5 -34t-9 -39.5q0 -32 18 -49t44 -17q13 0 23 2.5t20 7.5l10 -30q-13 -5 -25.5 -8.5t-32.5 -3.5zM138 625q-14 0 -24 10t-10 24t10 24t24 10t24 -10
t10 -24t-10 -24t-24 -10z" />
    <glyph glyph-name="Idotaccent" unicode="&#x130;" horiz-adv-x="200" 
d="M145 716h36l-127 -716h-36zM185 824q-14 0 -23 9t-9 23t9 23t23 9t23 -9t9 -23t-9 -23t-23 -9z" />
    <glyph glyph-name="dotlessi" unicode="&#x131;" horiz-adv-x="170" 
d="M3 0l87 490h36l-87 -490h-36z" />
    <glyph glyph-name="Jcircumflex" unicode="&#x134;" horiz-adv-x="503" 
d="M172 -16q-70 0 -119.5 41.5t-60.5 125.5l30 11q16 -80 55 -112t99 -32q79 0 130 48.5t68 144.5l89 505h36l-90 -511q-18 -105 -81 -163t-156 -58zM600 784h-36l-60 84h-8l-87 -84h-43l1 5l118 111h38l78 -111z" />
    <glyph glyph-name="jcircumflex" unicode="&#x135;" horiz-adv-x="170" 
d="M241 600h-36l-60 84h-8l-87 -84h-43l1 5l118 111h38l78 -111zM-127 -184q6 -4 15 -7t20 -3q31 0 50 22t27 63l106 599h36l-107 -608q-8 -45 -36.5 -76.5t-77.5 -31.5q-15 0 -27.5 3t-18.5 7z" />
    <glyph glyph-name="uni0136" unicode="&#x136;" horiz-adv-x="567" 
d="M145 716h36l-75 -427h4l446 427h44l-1 -4l-311 -299l214 -409l-1 -4h-37l-204 386l-166 -159l-40 -227h-36zM154 -190l64 77q-8 3 -13.5 11.5t-5.5 18.5q0 15 10 25t25 10q13 0 24 -8t11 -23q0 -11 -5.5 -19t-13.5 -18l-77 -90z" />
    <glyph glyph-name="uni0137" unicode="&#x137;" horiz-adv-x="455" 
d="M126 716h36l-90 -508l332 282h46l-1 -4l-208 -179l151 -303l-1 -4h-38l-142 282l-148 -126l-28 -156h-35zM96 -190l64 77q-8 3 -13.5 11.5t-5.5 18.5q0 15 10 25t25 10q13 0 24 -8t11 -23q0 -11 -5.5 -19t-13.5 -18l-77 -90z" />
    <glyph glyph-name="kgreenlandic" unicode="&#x138;" horiz-adv-x="411" 
d="M122 490l-40 -228h4l290 228h51l-1 -4l-295 -231l215 -251l-1 -4h-44l-217 252h-4l-45 -252h-35l86 490h36z" />
    <glyph glyph-name="Lacute" unicode="&#x139;" horiz-adv-x="483" 
d="M145 716h36l-121 -682h338l-6 -34h-374zM158 780l71 120h49l-82 -120h-38z" />
    <glyph glyph-name="lacute" unicode="&#x13a;" horiz-adv-x="162" 
d="M0 0l126 716h36l-127 -716h-35zM137 780l71 120h49l-82 -120h-38z" />
    <glyph glyph-name="uni013B" unicode="&#x13b;" horiz-adv-x="483" 
d="M145 716h36l-121 -682h338l-6 -34h-374zM123 -190l64 77q-8 3 -13.5 11.5t-5.5 18.5q0 15 10 25t25 10q13 0 24 -8t11 -23q0 -11 -5.5 -19t-13.5 -18l-77 -90z" />
    <glyph glyph-name="uni013C" unicode="&#x13c;" horiz-adv-x="162" 
d="M0 0l126 716h36l-127 -716h-35zM-77 -190l64 77q-8 3 -13.5 11.5t-5.5 18.5q0 15 10 25t25 10q13 0 24 -8t11 -23q0 -11 -5.5 -19t-13.5 -18l-77 -90z" />
    <glyph glyph-name="Lcaron" unicode="&#x13d;" horiz-adv-x="483" 
d="M145 716h36l-121 -682h338l-6 -34h-374zM365 520l35 196h38l-49 -196h-24z" />
    <glyph glyph-name="lcaron" unicode="&#x13e;" horiz-adv-x="248" 
d="M23 0l126 716h36l-127 -716h-35zM243 520l35 196h38l-49 -196h-24z" />
    <glyph glyph-name="Ldot" unicode="&#x13f;" horiz-adv-x="483" 
d="M145 716h36l-121 -682h338l-6 -34h-374zM308 309q-15 0 -25 10t-10 25t10 25t25 10t25 -10t10 -25t-10 -25t-25 -10z" />
    <glyph glyph-name="Lslash" unicode="&#x141;" horiz-adv-x="539" 
d="M130 311l-78 -43l-16 28l101 57l64 363h36l-60 -338l185 104l16 -29l-208 -117l-54 -302h338l-6 -34h-374z" />
    <glyph glyph-name="lslash" unicode="&#x142;" horiz-adv-x="312" 
d="M77 0l61 342l-96 -62l-18 25l120 78l59 333h36l-55 -312l106 70l17 -26l-130 -85l-65 -363h-35z" />
    <glyph glyph-name="Nacute" unicode="&#x143;" horiz-adv-x="684" 
d="M145 716h49l320 -652h4l20 138l91 514h36l-127 -716h-32l-332 678h-4l-20 -138l-96 -540h-36zM390 780l71 120h49l-82 -120h-38z" />
    <glyph glyph-name="nacute" unicode="&#x144;" 
d="M97 374h4q15 27 36 51t48 42t60.5 28.5t72.5 10.5q36 0 63.5 -12t46 -32t27.5 -48t9 -59q0 -22 -6 -55l-53 -300h-36l53 300q2 15 4 26q1 11 1 24q0 55 -29 89.5t-89 34.5q-42 0 -79.5 -18t-68 -49t-52 -72.5t-29.5 -88.5l-44 -246h-36l86 490h32zM297 596l71 120h49
l-82 -120h-38z" />
    <glyph glyph-name="uni0145" unicode="&#x145;" horiz-adv-x="684" 
d="M145 716h49l320 -652h4l20 138l91 514h36l-127 -716h-32l-332 678h-4l-20 -138l-96 -540h-36zM204 -190l64 77q-8 3 -13.5 11.5t-5.5 18.5q0 15 10 25t25 10q13 0 24 -8t11 -23q0 -11 -5.5 -19t-13.5 -18l-77 -90z" />
    <glyph glyph-name="uni0146" unicode="&#x146;" 
d="M97 374h4q15 27 36 51t48 42t60.5 28.5t72.5 10.5q36 0 63.5 -12t46 -32t27.5 -48t9 -59q0 -22 -6 -55l-53 -300h-36l53 300q2 15 4 26q1 11 1 24q0 55 -29 89.5t-89 34.5q-42 0 -79.5 -18t-68 -49t-52 -72.5t-29.5 -88.5l-44 -246h-36l86 490h32zM118 -190l64 77
q-8 3 -13.5 11.5t-5.5 18.5q0 15 10 25t25 10q13 0 24 -8t11 -23q0 -11 -5.5 -19t-13.5 -18l-77 -90z" />
    <glyph glyph-name="Ncaron" unicode="&#x147;" horiz-adv-x="684" 
d="M145 716h49l320 -652h4l20 138l91 514h36l-127 -716h-32l-332 678h-4l-20 -138l-96 -540h-36zM313 900h36l60 -84h8l87 84h43l-1 -5l-118 -111h-38l-78 111z" />
    <glyph glyph-name="ncaron" unicode="&#x148;" 
d="M97 374h4q15 27 36 51t48 42t60.5 28.5t72.5 10.5q36 0 63.5 -12t46 -32t27.5 -48t9 -59q0 -22 -6 -55l-53 -300h-36l53 300q2 15 4 26q1 11 1 24q0 55 -29 89.5t-89 34.5q-42 0 -79.5 -18t-68 -49t-52 -72.5t-29.5 -88.5l-44 -246h-36l86 490h32zM214 716h36l60 -84h8
l87 84h43l-1 -5l-118 -111h-38l-78 111z" />
    <glyph glyph-name="Eng" unicode="&#x14a;" horiz-adv-x="684" 
d="M145 716h49l320 -652h4l20 138l91 514h36l-147 -834q-8 -45 -36.5 -76.5t-77.5 -31.5q-15 0 -27.5 3t-18.5 7l13 32q6 -4 15 -7t20 -3q31 0 50 22t27 63l20 114l-329 673h-4l-20 -138l-96 -540h-36z" />
    <glyph glyph-name="eng" unicode="&#x14b;" 
d="M97 374h4q15 27 36 51t48 42t60.5 28.5t72.5 10.5q36 0 63.5 -12t46 -32t27.5 -48t9 -59q0 -22 -6 -55l-73 -418q-8 -45 -36.5 -76.5t-77.5 -31.5q-15 0 -27.5 3t-18.5 7l13 32q6 -4 15 -7t20 -3q31 0 50 22t27 63l72 409q2 15 4 26q1 11 1 24q0 55 -29 89.5t-89 34.5
q-42 0 -79.5 -18t-68 -49t-52 -72.5t-29.5 -88.5l-44 -246h-36l86 490h32z" />
    <glyph glyph-name="Omacron" unicode="&#x14c;" horiz-adv-x="808" 
d="M353 -16q-70 0 -128 25.5t-100 70t-65.5 105t-23.5 130.5q0 85 31.5 161t87.5 133t132.5 90t167.5 33q70 0 128 -25.5t100 -70t65.5 -105t23.5 -130.5q0 -86 -31.5 -161.5t-87.5 -132.5t-132.5 -90t-167.5 -33zM357 18q81 0 150.5 30.5t120 82.5t79.5 120.5t29 145.5
q0 66 -21 121.5t-59 95t-90 62t-115 22.5q-81 0 -150.5 -30.5t-120 -82.5t-79.5 -121t-29 -145q0 -66 21 -121.5t59 -95t90 -62t115 -22.5zM341 827l5 32h256l-5 -32h-256z" />
    <glyph glyph-name="omacron" unicode="&#x14d;" horiz-adv-x="548" 
d="M291 506q44 0 83 -16.5t67.5 -46.5t45 -71.5t16.5 -90.5q0 -57 -20 -110.5t-57 -95t-89.5 -66.5t-116.5 -25q-44 0 -83 16.5t-67.5 46.5t-45 71t-16.5 91q0 57 20 110.5t57 95t89 66.5t117 25zM224 16q53 0 97.5 22t77 58.5t50.5 84t18 98.5q0 42 -14 77.5t-38.5 61.5
t-57.5 41t-70 15q-53 0 -97.5 -22t-77 -58.5t-50.5 -84t-18 -98.5q0 -42 14 -77.5t38.5 -61.5t57 -41t70.5 -15zM196 643l5 32h256l-5 -32h-256z" />
    <glyph glyph-name="Obreve" unicode="&#x14e;" horiz-adv-x="808" 
d="M353 -16q-70 0 -128 25.5t-100 70t-65.5 105t-23.5 130.5q0 85 31.5 161t87.5 133t132.5 90t167.5 33q70 0 128 -25.5t100 -70t65.5 -105t23.5 -130.5q0 -86 -31.5 -161.5t-87.5 -132.5t-132.5 -90t-167.5 -33zM357 18q81 0 150.5 30.5t120 82.5t79.5 120.5t29 145.5
q0 66 -21 121.5t-59 95t-90 62t-115 22.5q-81 0 -150.5 -30.5t-120 -82.5t-79.5 -121t-29 -145q0 -66 21 -121.5t59 -95t90 -62t115 -22.5zM466 782q-18 0 -36 7t-32 19.5t-22.5 30t-8.5 38.5q0 9 2 19h36q-1 -6 -1 -8v-7q0 -27 17 -47t50 -20q19 0 35.5 7t29 18.5t20.5 26
t11 30.5h34q-8 -54 -44 -84t-91 -30z" />
    <glyph glyph-name="obreve" unicode="&#x14f;" horiz-adv-x="548" 
d="M291 506q44 0 83 -16.5t67.5 -46.5t45 -71.5t16.5 -90.5q0 -57 -20 -110.5t-57 -95t-89.5 -66.5t-116.5 -25q-44 0 -83 16.5t-67.5 46.5t-45 71t-16.5 91q0 57 20 110.5t57 95t89 66.5t117 25zM224 16q53 0 97.5 22t77 58.5t50.5 84t18 98.5q0 42 -14 77.5t-38.5 61.5
t-57.5 41t-70 15q-53 0 -97.5 -22t-77 -58.5t-50.5 -84t-18 -98.5q0 -42 14 -77.5t38.5 -61.5t57 -41t70.5 -15zM318 598q-18 0 -36 7t-32 19.5t-22.5 30t-8.5 38.5q0 9 2 19h36q-1 -6 -1 -8v-7q0 -27 17 -47t50 -20q19 0 35.5 7t29 18.5t20.5 26t11 30.5h34q-8 -54 -44 -84
t-91 -30z" />
    <glyph glyph-name="Ohungarumlaut" unicode="&#x150;" horiz-adv-x="808" 
d="M353 -16q-70 0 -128 25.5t-100 70t-65.5 105t-23.5 130.5q0 85 31.5 161t87.5 133t132.5 90t167.5 33q70 0 128 -25.5t100 -70t65.5 -105t23.5 -130.5q0 -86 -31.5 -161.5t-87.5 -132.5t-132.5 -90t-167.5 -33zM357 18q81 0 150.5 30.5t120 82.5t79.5 120.5t29 145.5
q0 66 -21 121.5t-59 95t-90 62t-115 22.5q-81 0 -150.5 -30.5t-120 -82.5t-79.5 -121t-29 -145q0 -66 21 -121.5t59 -95t90 -62t115 -22.5zM510 780l71 120h49l-82 -120h-38zM388 780l71 120h49l-82 -120h-38z" />
    <glyph glyph-name="ohungarumlaut" unicode="&#x151;" horiz-adv-x="548" 
d="M291 506q44 0 83 -16.5t67.5 -46.5t45 -71.5t16.5 -90.5q0 -57 -20 -110.5t-57 -95t-89.5 -66.5t-116.5 -25q-44 0 -83 16.5t-67.5 46.5t-45 71t-16.5 91q0 57 20 110.5t57 95t89 66.5t117 25zM224 16q53 0 97.5 22t77 58.5t50.5 84t18 98.5q0 42 -14 77.5t-38.5 61.5
t-57.5 41t-70 15q-53 0 -97.5 -22t-77 -58.5t-50.5 -84t-18 -98.5q0 -42 14 -77.5t38.5 -61.5t57 -41t70.5 -15zM232 596l71 120h49l-82 -120h-38zM354 596l71 120h49l-82 -120h-38z" />
    <glyph glyph-name="OE" unicode="&#x152;" horiz-adv-x="1179" 
d="M823 682l-55 -307h322l-5 -34h-322l-55 -307h354l-6 -34h-390l27 154q-57 -78 -144 -124t-196 -46q-70 0 -128 25.5t-100 70t-65.5 105t-23.5 130.5q0 85 31.5 161t87.5 133t132.5 90t167.5 33q55 0 103.5 -16.5t87 -45.5t67 -70t43.5 -90l37 206h390l-6 -34h-354z
M357 18q81 0 150 30.5t119 82.5t78.5 120.5t28.5 145.5q0 66 -20.5 121.5t-58 95t-89 62t-114.5 22.5q-81 0 -150.5 -30.5t-120 -82.5t-79.5 -121t-29 -145q0 -66 21 -121.5t59 -95t90 -62t115 -22.5z" />
    <glyph glyph-name="oe" unicode="&#x153;" horiz-adv-x="970" 
d="M291 506q36 0 68 -11t58.5 -31.5t46 -49t29.5 -63.5q16 33 40 61t54 49t66 33t77 12q46 0 82.5 -15t61.5 -41.5t38.5 -63t13.5 -79.5q0 -38 -8 -67h-421q-3 -17 -3 -41q0 -42 14.5 -76t38.5 -58t55 -36.5t64 -12.5q40 0 69 8.5t51.5 24t40 36.5t35.5 47l24 -16
q-17 -29 -38 -53t-48 -41.5t-60.5 -27.5t-75.5 -10q-34 0 -65.5 10t-57.5 29.5t-45.5 47.5t-29.5 64q-17 -33 -41.5 -60.5t-56 -47.5t-69 -31.5t-79.5 -11.5q-44 0 -83 16.5t-67.5 46.5t-45 71t-16.5 91q0 57 20 110.5t57 95t89 66.5t117 25zM224 16q53 0 97 22t75.5 58.5
t49 84t17.5 98.5q0 42 -13.5 78t-37 62t-56 40.5t-69.5 14.5q-53 0 -97.5 -22t-77 -58.5t-50.5 -84t-18 -98.5q0 -42 14 -77.5t38.5 -61.5t57 -41t70.5 -15zM889 272q1 8 1.5 16t0.5 16q0 28 -8 58t-26.5 55t-50 41t-77.5 16q-35 0 -69.5 -12.5t-65 -37.5t-54.5 -63t-37 -89
h386z" />
    <glyph glyph-name="Racute" unicode="&#x154;" horiz-adv-x="559" 
d="M145 716h220q43 0 77.5 -14t59 -38.5t37.5 -57t13 -69.5q0 -48 -18.5 -87t-49 -68t-69.5 -47.5t-80 -25.5l-2 -3l152 -302l-1 -4h-36l-156 306h-184l-54 -306h-36zM294 340q45 0 85.5 14.5t70.5 40.5t48 61.5t18 76.5q0 35 -12.5 63t-33.5 47t-48.5 29t-58.5 10h-188
l-61 -342h180zM312 780l71 120h49l-82 -120h-38z" />
    <glyph glyph-name="racute" unicode="&#x155;" horiz-adv-x="306" 
d="M0 0l86 490h32l-16 -92h4q23 48 66 77t90 29q23 0 36 -3t27 -11l-16 -32q-11 7 -22.5 10.5t-29.5 3.5q-27 0 -54.5 -14.5t-51 -40t-41.5 -60.5t-25 -77l-50 -280h-35zM201 596l71 120h49l-82 -120h-38z" />
    <glyph glyph-name="uni0156" unicode="&#x156;" horiz-adv-x="559" 
d="M145 716h220q43 0 77.5 -14t59 -38.5t37.5 -57t13 -69.5q0 -48 -18.5 -87t-49 -68t-69.5 -47.5t-80 -25.5l-2 -3l152 -302l-1 -4h-36l-156 306h-184l-54 -306h-36zM294 340q45 0 85.5 14.5t70.5 40.5t48 61.5t18 76.5q0 35 -12.5 63t-33.5 47t-48.5 29t-58.5 10h-188
l-61 -342h180zM156 -190l64 77q-8 3 -13.5 11.5t-5.5 18.5q0 15 10 25t25 10q13 0 24 -8t11 -23q0 -11 -5.5 -19t-13.5 -18l-77 -90z" />
    <glyph glyph-name="uni0157" unicode="&#x157;" horiz-adv-x="306" 
d="M0 0l86 490h32l-16 -92h4q23 48 66 77t90 29q23 0 36 -3t27 -11l-16 -32q-11 7 -22.5 10.5t-29.5 3.5q-27 0 -54.5 -14.5t-51 -40t-41.5 -60.5t-25 -77l-50 -280h-35zM-74 -190l64 77q-8 3 -13.5 11.5t-5.5 18.5q0 15 10 25t25 10q13 0 24 -8t11 -23q0 -11 -5.5 -19
t-13.5 -18l-77 -90z" />
    <glyph glyph-name="Rcaron" unicode="&#x158;" horiz-adv-x="559" 
d="M145 716h220q43 0 77.5 -14t59 -38.5t37.5 -57t13 -69.5q0 -48 -18.5 -87t-49 -68t-69.5 -47.5t-80 -25.5l-2 -3l152 -302l-1 -4h-36l-156 306h-184l-54 -306h-36zM294 340q45 0 85.5 14.5t70.5 40.5t48 61.5t18 76.5q0 35 -12.5 63t-33.5 47t-48.5 29t-58.5 10h-188
l-61 -342h180zM234 900h36l60 -84h8l87 84h43l-1 -5l-118 -111h-38l-78 111z" />
    <glyph glyph-name="rcaron" unicode="&#x159;" horiz-adv-x="306" 
d="M0 0l86 490h32l-16 -92h4q23 48 66 77t90 29q23 0 36 -3t27 -11l-16 -32q-11 7 -22.5 10.5t-29.5 3.5q-27 0 -54.5 -14.5t-51 -40t-41.5 -60.5t-25 -77l-50 -280h-35zM115 716h36l60 -84h8l87 84h43l-1 -5l-118 -111h-38l-78 111z" />
    <glyph glyph-name="Sacute" unicode="&#x15a;" horiz-adv-x="531" 
d="M216 -16q-47 0 -84.5 14.5t-65 40t-45 60.5t-26.5 76l32 14q20 -80 64.5 -125.5t124.5 -45.5q39 0 76 13t65.5 37.5t46 59t17.5 78.5q0 54 -39.5 89.5t-106.5 60.5l-42 16q-29 11 -55 27.5t-46 38t-31.5 49.5t-11.5 61q0 40 17.5 73.5t47.5 58t69.5 38.5t84.5 14
q49 0 83.5 -13.5t57 -35t35.5 -47.5t20 -50l-34 -14q-8 24 -19.5 46.5t-30 40t-46.5 28.5t-67 11q-36 0 -69 -11t-58 -30.5t-39.5 -47t-14.5 -60.5q0 -29 10 -51.5t27 -40.5t40 -31.5t50 -23.5l44 -17q32 -12 61.5 -28.5t52 -38t36 -50t13.5 -64.5q0 -45 -19 -85t-52 -70
t-77.5 -47.5t-95.5 -17.5zM303 780l71 120h49l-82 -120h-38z" />
    <glyph glyph-name="sacute" unicode="&#x15b;" horiz-adv-x="441" 
d="M175 -16q-39 0 -70.5 11.5t-55.5 31t-39.5 45t-21.5 53.5l33 14q15 -57 55.5 -90t103.5 -33q29 0 57.5 6.5t51 20.5t36.5 35.5t14 51.5q0 35 -26.5 59.5t-83.5 41.5l-48 14q-27 8 -50.5 19.5t-41 27t-27.5 35.5t-10 45q0 31 14.5 55.5t39.5 42t58.5 27t72.5 9.5
q64 0 109 -27.5t64 -87.5l-33 -13q-13 46 -50 71t-91 25q-30 0 -56.5 -6.5t-47 -19t-32.5 -31.5t-12 -43q0 -39 30 -62t75 -36l58 -17q58 -17 91.5 -48t33.5 -77q0 -35 -16 -63t-44 -47.5t-64.5 -29.5t-76.5 -10zM239 596l71 120h49l-82 -120h-38z" />
    <glyph glyph-name="Scircumflex" unicode="&#x15c;" horiz-adv-x="531" 
d="M216 -16q-47 0 -84.5 14.5t-65 40t-45 60.5t-26.5 76l32 14q20 -80 64.5 -125.5t124.5 -45.5q39 0 76 13t65.5 37.5t46 59t17.5 78.5q0 54 -39.5 89.5t-106.5 60.5l-42 16q-29 11 -55 27.5t-46 38t-31.5 49.5t-11.5 61q0 40 17.5 73.5t47.5 58t69.5 38.5t84.5 14
q49 0 83.5 -13.5t57 -35t35.5 -47.5t20 -50l-34 -14q-8 24 -19.5 46.5t-30 40t-46.5 28.5t-67 11q-36 0 -69 -11t-58 -30.5t-39.5 -47t-14.5 -60.5q0 -29 10 -51.5t27 -40.5t40 -31.5t50 -23.5l44 -17q32 -12 61.5 -28.5t52 -38t36 -50t13.5 -64.5q0 -45 -19 -85t-52 -70
t-77.5 -47.5t-95.5 -17.5zM433 785h-36l-60 84h-8l-87 -84h-43l1 5l118 111h38l78 -111z" />
    <glyph glyph-name="scircumflex" unicode="&#x15d;" horiz-adv-x="441" 
d="M175 -16q-39 0 -70.5 11.5t-55.5 31t-39.5 45t-21.5 53.5l33 14q15 -57 55.5 -90t103.5 -33q29 0 57.5 6.5t51 20.5t36.5 35.5t14 51.5q0 35 -26.5 59.5t-83.5 41.5l-48 14q-27 8 -50.5 19.5t-41 27t-27.5 35.5t-10 45q0 31 14.5 55.5t39.5 42t58.5 27t72.5 9.5
q64 0 109 -27.5t64 -87.5l-33 -13q-13 46 -50 71t-91 25q-30 0 -56.5 -6.5t-47 -19t-32.5 -31.5t-12 -43q0 -39 30 -62t75 -36l58 -17q58 -17 91.5 -48t33.5 -77q0 -35 -16 -63t-44 -47.5t-64.5 -29.5t-76.5 -10zM383 600h-36l-60 84h-8l-87 -84h-43l1 5l118 111h38l78 -111
z" />
    <glyph glyph-name="uni015E" unicode="&#x15e;" horiz-adv-x="531" 
d="M174 -237q-34 0 -57.5 19.5t-30.5 47.5l34 13q4 -20 18 -34t39 -14q28 0 49 19.5t21 51.5q0 26 -15 41t-38 15q-17 0 -30.5 -7.5t-22.5 -17.5l-23 12l43 81q-69 14 -110.5 64.5t-55.5 120.5l32 14q20 -80 64.5 -125.5t124.5 -45.5q39 0 76 13t65.5 37.5t46 59t17.5 78.5
q0 54 -39.5 89.5t-106.5 60.5l-42 16q-29 11 -55 27.5t-46 38t-31.5 49.5t-11.5 61q0 40 17.5 73.5t47.5 58t69.5 38.5t84.5 14q49 0 83.5 -13.5t57 -35t35.5 -47.5t20 -50l-34 -14q-8 24 -19.5 46.5t-30 40t-46.5 28.5t-67 11q-36 0 -69 -11t-58 -30.5t-39.5 -47
t-14.5 -60.5q0 -29 10 -51.5t27 -40.5t40 -31.5t50 -23.5l44 -17q32 -12 61.5 -28.5t52 -38t36 -50t13.5 -64.5q0 -45 -19 -85t-52 -70t-77.5 -47.5t-95.5 -17.5h-11q-6 1 -11 1l-27 -44q7 5 16.5 9t23.5 4q32 0 54.5 -24t22.5 -61q0 -21 -7.5 -40t-22 -33.5t-35 -23.5
t-45.5 -9z" />
    <glyph glyph-name="uni015F" unicode="&#x15f;" horiz-adv-x="441" 
d="M145 -237q-34 0 -57.5 19.5t-30.5 47.5l34 13q4 -20 18 -34t39 -14q28 0 49 19.5t21 51.5q0 26 -15 41t-38 15q-17 0 -30.5 -7.5t-22.5 -17.5l-23 12l42 80q-29 6 -53 19t-42.5 31t-30.5 40t-17 46l33 14q15 -57 55.5 -90t103.5 -33q29 0 57.5 6.5t51 20.5t36.5 35.5
t14 51.5q0 35 -26.5 59.5t-83.5 41.5l-48 14q-27 8 -50.5 19.5t-41 27t-27.5 35.5t-10 45q0 31 14.5 56t39.5 42t58.5 26.5t72.5 9.5q64 0 109 -27.5t64 -87.5l-33 -13q-13 46 -50 71t-91 25q-31 0 -58 -7t-47 -19.5t-31.5 -31t-11.5 -42.5q0 -39 30 -62t75 -36l58 -17
q58 -17 91.5 -48t33.5 -77q0 -35 -16 -63t-44 -47.5t-64.5 -29.5t-76.5 -10h-11l-26 -43q7 5 16.5 9t23.5 4q32 0 54.5 -24t22.5 -61q0 -21 -7.5 -40t-22 -33.5t-35 -23.5t-45.5 -9z" />
    <glyph glyph-name="Scaron" unicode="&#x160;" horiz-adv-x="531" 
d="M216 -16q-47 0 -84.5 14.5t-65 40t-45 60.5t-26.5 76l32 14q20 -80 64.5 -125.5t124.5 -45.5q39 0 76 13t65.5 37.5t46 59t17.5 78.5q0 54 -39.5 89.5t-106.5 60.5l-42 16q-29 11 -55 27.5t-46 38t-31.5 49.5t-11.5 61q0 40 17.5 73.5t47.5 58t69.5 38.5t84.5 14
q49 0 83.5 -13.5t57 -35t35.5 -47.5t20 -50l-34 -14q-8 24 -19.5 46.5t-30 40t-46.5 28.5t-67 11q-36 0 -69 -11t-58 -30.5t-39.5 -47t-14.5 -60.5q0 -29 10 -51.5t27 -40.5t40 -31.5t50 -23.5l44 -17q32 -12 61.5 -28.5t52 -38t36 -50t13.5 -64.5q0 -45 -19 -85t-52 -70
t-77.5 -47.5t-95.5 -17.5zM227 900h36l60 -84h8l87 84h43l-1 -5l-118 -111h-38l-78 111z" />
    <glyph glyph-name="scaron" unicode="&#x161;" horiz-adv-x="441" 
d="M175 -16q-39 0 -70.5 11.5t-55.5 31t-39.5 45t-21.5 53.5l33 14q15 -57 55.5 -90t103.5 -33q29 0 57.5 6.5t51 20.5t36.5 35.5t14 51.5q0 35 -26.5 59.5t-83.5 41.5l-48 14q-27 8 -50.5 19.5t-41 27t-27.5 35.5t-10 45q0 31 14.5 55.5t39.5 42t58.5 27t72.5 9.5
q64 0 109 -27.5t64 -87.5l-33 -13q-13 46 -50 71t-91 25q-30 0 -56.5 -6.5t-47 -19t-32.5 -31.5t-12 -43q0 -39 30 -62t75 -36l58 -17q58 -17 91.5 -48t33.5 -77q0 -35 -16 -63t-44 -47.5t-64.5 -29.5t-76.5 -10zM166 716h36l60 -84h8l87 84h43l-1 -5l-118 -111h-38l-78 111
z" />
    <glyph glyph-name="uni0162" unicode="&#x162;" horiz-adv-x="502" 
d="M176 -237q-34 0 -57.5 19.5t-30.5 47.5l34 13q4 -20 18 -34t39 -14q28 0 49 19.5t21 51.5q0 26 -15 41t-38 15q-17 0 -30.5 -7.5t-22.5 -17.5l-23 12l49 91l121 682h-206l6 34h448l-6 -34h-206l-121 -682l-36 -59q7 5 16.5 9t23.5 4q32 0 54.5 -24t22.5 -61
q0 -21 -7.5 -40t-22 -33.5t-35 -23.5t-45.5 -9z" />
    <glyph glyph-name="uni0163" unicode="&#x163;" horiz-adv-x="321" 
d="M112 -237q-34 0 -57.5 19.5t-30.5 47.5l34 13q4 -20 18 -34t39 -14q28 0 49 19.5t21 51.5q0 26 -15 41t-38 15q-17 0 -30.5 -7.5t-22.5 -17.5l-23 12l54 101q-36 27 -36 75q0 11 1.5 21.5l3.5 24.5l58 327h-92l5 32h92l27 150h36l-27 -150h124l-5 -32h-124l-60 -340
q-2 -8 -2.5 -15t-0.5 -15q0 -23 15.5 -43.5t50.5 -20.5q15 0 27 3t28 11l11 -30q-30 -16 -71 -16q-20 0 -33 4l-33 -55q7 5 16.5 9t23.5 4q32 0 54.5 -23.5t22.5 -61.5q0 -21 -7.5 -40t-22 -33.5t-35 -23.5t-45.5 -9z" />
    <glyph glyph-name="Tcaron" unicode="&#x164;" horiz-adv-x="502" 
d="M169 0l121 682h-206l6 34h448l-6 -34h-206l-121 -682h-36zM222 900h36l60 -84h8l87 84h43l-1 -5l-118 -111h-38l-78 111z" />
    <glyph glyph-name="tcaron" unicode="&#x165;" horiz-adv-x="320" 
d="M279 554l28 162h46l-56 -162h-18zM137 458h-92l5 32h92l27 150h36l-27 -150h124l-5 -32h-124l-60 -340q-2 -8 -2.5 -15t-0.5 -15q0 -23 15.5 -43.5t50.5 -20.5q15 0 27 3t28 11l11 -30q-30 -16 -71 -16t-69 24.5t-28 68.5q0 11 1.5 21.5l3.5 24.5z" />
    <glyph glyph-name="Tbar" unicode="&#x166;" horiz-adv-x="502" 
d="M169 0l64 358h-145l5 32h145l52 292h-206l6 34h448l-6 -34h-206l-52 -292h143l-5 -32h-143l-64 -358h-36z" />
    <glyph glyph-name="tbar" unicode="&#x167;" horiz-adv-x="321" 
d="M100 248h-92l5 32h92l32 178h-92l5 32h92l27 150h36l-27 -150h124l-5 -32h-124l-32 -178h124l-5 -32h-124l-23 -130q-2 -8 -2.5 -15t-0.5 -15q0 -23 15.5 -43.5t50.5 -20.5q15 0 27 3t28 11l11 -30q-30 -16 -71 -16t-69 24.5t-28 68.5q0 11 1.5 21.5l3.5 24.5z" />
    <glyph glyph-name="Utilde" unicode="&#x168;" horiz-adv-x="628" 
d="M249 -16q-48 0 -86.5 15.5t-65.5 43.5t-41.5 67.5t-14.5 88.5q0 14 1.5 31t5.5 40l79 446h36l-79 -452q-4 -21 -5.5 -35t-1.5 -29q0 -39 12 -72.5t34.5 -57.5t56 -38t75.5 -14q52 0 95 17.5t76 49t55 75t31 94.5l81 462h36l-84 -474q-10 -57 -34.5 -104t-62 -81.5
t-88 -53.5t-111.5 -19zM454 794q-22 0 -39.5 9.5t-32.5 21.5q-16 12 -31.5 21.5t-33.5 9.5q-29 0 -42 -14t-18 -38h-32q5 45 32 65.5t64 20.5q22 0 39.5 -9.5t33.5 -21.5q15 -12 30.5 -21.5t33.5 -9.5q29 0 42 14t18 38h32q-5 -45 -32 -65.5t-64 -20.5z" />
    <glyph glyph-name="utilde" unicode="&#x169;" 
d="M392 116h-4q-15 -27 -36.5 -51t-48.5 -42t-60 -28.5t-72 -10.5q-36 0 -63.5 12t-46 32t-27.5 47.5t-9 59.5q0 22 6 55l53 300h36l-53 -300q-2 -15 -3 -26q-2 -11 -2 -24q0 -55 29 -89.5t89 -34.5q42 0 79.5 18t68 49t52 72.5t29.5 88.5l44 246h36l-86 -490h-32zM387 610
q-22 0 -39.5 9.5t-32.5 21.5q-16 12 -31.5 21.5t-33.5 9.5q-29 0 -42 -14t-18 -38h-32q5 45 32 65.5t64 20.5q22 0 39.5 -9.5t33.5 -21.5q15 -12 30.5 -21.5t33.5 -9.5q29 0 42 14t18 38h32q-5 -45 -32 -65.5t-64 -20.5z" />
    <glyph glyph-name="Umacron" unicode="&#x16a;" horiz-adv-x="628" 
d="M249 -16q-48 0 -86.5 15.5t-65.5 43.5t-41.5 67.5t-14.5 88.5q0 14 1.5 31t5.5 40l79 446h36l-79 -452q-4 -21 -5.5 -35t-1.5 -29q0 -39 12 -72.5t34.5 -57.5t56 -38t75.5 -14q52 0 95 17.5t76 49t55 75t31 94.5l81 462h36l-84 -474q-10 -57 -34.5 -104t-62 -81.5
t-88 -53.5t-111.5 -19zM265 827l5 32h256l-5 -32h-256z" />
    <glyph glyph-name="umacron" unicode="&#x16b;" 
d="M392 116h-4q-15 -27 -36.5 -51t-48.5 -42t-60 -28.5t-72 -10.5q-36 0 -63.5 12t-46 32t-27.5 47.5t-9 59.5q0 22 6 55l53 300h36l-53 -300q-2 -15 -3 -26q-2 -11 -2 -24q0 -55 29 -89.5t89 -34.5q42 0 79.5 18t68 49t52 72.5t29.5 88.5l44 246h36l-86 -490h-32zM179 643
l5 32h256l-5 -32h-256z" />
    <glyph glyph-name="Ubreve" unicode="&#x16c;" horiz-adv-x="628" 
d="M249 -16q-48 0 -86.5 15.5t-65.5 43.5t-41.5 67.5t-14.5 88.5q0 14 1.5 31t5.5 40l79 446h36l-79 -452q-4 -21 -5.5 -35t-1.5 -29q0 -39 12 -72.5t34.5 -57.5t56 -38t75.5 -14q52 0 95 17.5t76 49t55 75t31 94.5l81 462h36l-84 -474q-10 -57 -34.5 -104t-62 -81.5
t-88 -53.5t-111.5 -19zM382 782q-18 0 -36 7t-32 19.5t-22.5 30t-8.5 38.5q0 9 2 19h36q-1 -6 -1 -8v-7q0 -27 17 -47t50 -20q19 0 35.5 7t29 18.5t20.5 26t11 30.5h34q-8 -54 -44 -84t-91 -30z" />
    <glyph glyph-name="ubreve" unicode="&#x16d;" 
d="M392 116h-4q-15 -27 -36.5 -51t-48.5 -42t-60 -28.5t-72 -10.5q-36 0 -63.5 12t-46 32t-27.5 47.5t-9 59.5q0 22 6 55l53 300h36l-53 -300q-2 -15 -3 -26q-2 -11 -2 -24q0 -55 29 -89.5t89 -34.5q42 0 79.5 18t68 49t52 72.5t29.5 88.5l44 246h36l-86 -490h-32zM308 583
q-18 0 -36 7t-32 19.5t-22.5 30t-8.5 38.5q0 9 2 19h36q-1 -6 -1 -8v-7q0 -27 17 -47t50 -20q19 0 35.5 7t29 18.5t20.5 26t11 30.5h34q-8 -54 -44 -84t-91 -30z" />
    <glyph glyph-name="Uring" unicode="&#x16e;" horiz-adv-x="628" 
d="M249 -16q-48 0 -86.5 15.5t-65.5 43.5t-41.5 67.5t-14.5 88.5q0 14 1.5 31t5.5 40l79 446h36l-79 -452q-4 -21 -5.5 -35t-1.5 -29q0 -39 12 -72.5t34.5 -57.5t56 -38t75.5 -14q52 0 95 17.5t76 49t55 75t31 94.5l81 462h36l-84 -474q-10 -57 -34.5 -104t-62 -81.5
t-88 -53.5t-111.5 -19zM390 756q-21 0 -39.5 7.5t-32 21t-21 32t-7.5 39.5t7.5 39t21 31.5t32 21.5t39.5 8t39 -8t31.5 -21.5t21.5 -31.5t8 -39t-8 -39.5t-21.5 -32t-31.5 -21t-39 -7.5zM390 788q27 0 46.5 19t19.5 49t-19.5 49t-46.5 19t-46.5 -19t-19.5 -49t19.5 -49
t46.5 -19z" />
    <glyph glyph-name="uring" unicode="&#x16f;" 
d="M392 116h-4q-15 -27 -36.5 -51t-48.5 -42t-60 -28.5t-72 -10.5q-36 0 -63.5 12t-46 32t-27.5 47.5t-9 59.5q0 22 6 55l53 300h36l-53 -300q-2 -15 -3 -26q-2 -11 -2 -24q0 -55 29 -89.5t89 -34.5q42 0 79.5 18t68 49t52 72.5t29.5 88.5l44 246h36l-86 -490h-32zM314 572
q-21 0 -39.5 7.5t-32 21t-21 32t-7.5 39.5t7.5 39t21 31.5t32 21.5t39.5 8t39 -8t31.5 -21.5t21.5 -31.5t8 -39t-8 -39.5t-21.5 -32t-31.5 -21t-39 -7.5zM314 604q27 0 46.5 19t19.5 49t-19.5 49t-46.5 19t-46.5 -19t-19.5 -49t19.5 -49t46.5 -19z" />
    <glyph glyph-name="Uhungarumlaut" unicode="&#x170;" horiz-adv-x="628" 
d="M249 -16q-48 0 -86.5 15.5t-65.5 43.5t-41.5 67.5t-14.5 88.5q0 14 1.5 31t5.5 40l79 446h36l-79 -452q-4 -21 -5.5 -35t-1.5 -29q0 -39 12 -72.5t34.5 -57.5t56 -38t75.5 -14q52 0 95 17.5t76 49t55 75t31 94.5l81 462h36l-84 -474q-10 -57 -34.5 -104t-62 -81.5
t-88 -53.5t-111.5 -19zM412 780l71 120h49l-82 -120h-38zM290 780l71 120h49l-82 -120h-38z" />
    <glyph glyph-name="uhungarumlaut" unicode="&#x171;" 
d="M392 116h-4q-15 -27 -36.5 -51t-48.5 -42t-60 -28.5t-72 -10.5q-36 0 -63.5 12t-46 32t-27.5 47.5t-9 59.5q0 22 6 55l53 300h36l-53 -300q-2 -15 -3 -26q-2 -11 -2 -24q0 -55 29 -89.5t89 -34.5q42 0 79.5 18t68 49t52 72.5t29.5 88.5l44 246h36l-86 -490h-32zM222 596
l71 120h49l-82 -120h-38zM344 596l71 120h49l-82 -120h-38z" />
    <glyph glyph-name="Uogonek" unicode="&#x172;" horiz-adv-x="628" 
d="M309 -224q-39 0 -65.5 26.5t-26.5 65.5q0 37 21 68t53 51q-21 -3 -42 -3q-48 0 -86.5 15.5t-65.5 43.5t-41.5 67.5t-14.5 88.5q0 14 1.5 31t5.5 40l79 446h36l-79 -452q-4 -21 -5.5 -35t-1.5 -29q0 -39 12 -72.5t34.5 -57.5t56 -38t75.5 -14q52 0 95 17.5t76 49t55 75
t31 94.5l81 462h36l-84 -474q-16 -89 -62.5 -148.5t-113.5 -86.5q-22 -9 -43 -23t-37.5 -31.5t-26.5 -37.5t-10 -41q0 -32 18 -49t44 -17q13 0 23 2.5t20 7.5l10 -30q-13 -5 -25.5 -8.5t-32.5 -3.5z" />
    <glyph glyph-name="uogonek" unicode="&#x173;" 
d="M361 -224q-39 0 -65.5 26.5t-26.5 65.5q0 22 8.5 42t22.5 38t33 32.5t39 25.5l20 110h-4q-15 -27 -36.5 -51t-48.5 -42t-60 -28.5t-72 -10.5q-36 0 -63.5 12t-46 32t-27.5 47.5t-9 59.5q0 22 6 55l53 300h36l-53 -300q-2 -15 -3 -26q-2 -11 -2 -24q0 -55 29 -89.5
t89 -34.5q42 0 79.5 18t68 49t52 72.5t29.5 88.5l44 246h36l-86 -490q-17 -11 -34.5 -24t-32 -28.5t-23.5 -34t-9 -39.5q0 -32 18 -49t44 -17q13 0 23 2.5t20 7.5l10 -30q-13 -5 -25.5 -8.5t-32.5 -3.5z" />
    <glyph glyph-name="Wcircumflex" unicode="&#x174;" horiz-adv-x="894" 
d="M611 0h-40l-81 568h-4l-279 -568h-40l-86 716h37l77 -656h4l275 560h44l80 -560h4l297 656h40zM627 784h-36l-60 84h-8l-87 -84h-43l1 5l118 111h38l78 -111z" />
    <glyph glyph-name="wcircumflex" unicode="&#x175;" horiz-adv-x="710" 
d="M446 0l-76 451l-231 -451h-33l-79 490h34l69 -437h1l223 437h42l74 -432h1l223 432h35l-251 -490h-32zM505 600h-36l-60 84h-8l-87 -84h-43l1 5l118 111h38l78 -111z" />
    <glyph glyph-name="Ycircumflex" unicode="&#x176;" horiz-adv-x="564" 
d="M202 0l56 315l-182 401h40l163 -361h4l286 361h45l-320 -401l-56 -315h-36zM454 784h-36l-60 84h-8l-87 -84h-43l1 5l118 111h38l78 -111z" />
    <glyph glyph-name="ycircumflex" unicode="&#x177;" horiz-adv-x="458" 
d="M17 -216l160 260l-129 446h39l115 -403h2l247 403h43l-436 -706h-41zM392 600h-36l-60 84h-8l-87 -84h-43l1 5l118 111h38l78 -111z" />
    <glyph glyph-name="Ydieresis" unicode="&#x178;" horiz-adv-x="564" 
d="M202 0l56 315l-182 401h40l163 -361h4l286 361h45l-320 -401l-56 -315h-36zM284 811q-14 0 -23 9t-9 23t9 23t23 9t23 -9t9 -23t-9 -23t-23 -9zM392 843q0 14 9 23t23 9t23 -9t9 -23t-9 -23t-23 -9t-23 9t-9 23z" />
    <glyph glyph-name="Zacute" unicode="&#x179;" horiz-adv-x="541" 
d="M-19 42l527 640h-399l6 34h440l-8 -42l-528 -640h419l-6 -34h-459zM308 780l71 120h49l-82 -120h-38z" />
    <glyph glyph-name="zacute" unicode="&#x17a;" horiz-adv-x="440" 
d="M-22 28l392 430h-309l6 32h356l-5 -28l-393 -430h321l-6 -32h-367zM233 596l71 120h49l-82 -120h-38z" />
    <glyph glyph-name="Zdotaccent" unicode="&#x17b;" horiz-adv-x="541" 
d="M-19 42l527 640h-399l6 34h440l-8 -42l-528 -640h419l-6 -34h-459zM362 824q-14 0 -23 9t-9 23t9 23t23 9t23 -9t9 -23t-9 -23t-23 -9z" />
    <glyph glyph-name="zdotaccent" unicode="&#x17c;" horiz-adv-x="440" 
d="M-22 28l392 430h-309l6 32h356l-5 -28l-393 -430h321l-6 -32h-367zM279 627q-14 0 -23 9t-9 23t9 23t23 9t23 -9t9 -23t-9 -23t-23 -9z" />
    <glyph glyph-name="Zcaron" unicode="&#x17d;" horiz-adv-x="541" 
d="M-19 42l527 640h-399l6 34h440l-8 -42l-528 -640h419l-6 -34h-459zM244 900h36l60 -84h8l87 84h43l-1 -5l-118 -111h-38l-78 111z" />
    <glyph glyph-name="zcaron" unicode="&#x17e;" horiz-adv-x="440" 
d="M-22 28l392 430h-309l6 32h356l-5 -28l-393 -430h321l-6 -32h-367zM166 716h36l60 -84h8l87 84h43l-1 -5l-118 -111h-38l-78 111z" />
    <glyph glyph-name="uni0192" unicode="&#x192;" horiz-adv-x="548" 
d="M113 -188q34 0 54 25.5t30 75.5l84 435h-119v32h125l41 207q12 63 48 98t94 35q21 0 36 -4t29 -12l-13 -30q-11 7 -24.5 10.5t-31.5 3.5q-39 0 -66 -25.5t-38 -82.5l-39 -200h151v-32h-157l-86 -442q-11 -59 -39.5 -92.5t-84.5 -33.5q-22 0 -35.5 5.5t-27.5 13.5l11 30
q11 -8 25 -12.5t33 -4.5z" />
    <glyph glyph-name="Aringacute" unicode="&#x1fa;" horiz-adv-x="638" 
d="M429 845q24 -13 39 -36.5t15 -52.5q0 -34 -19 -59.5t-49 -35.5l146 -661h-35l-48 220h-362l-125 -220h-41l383 669q-23 13 -36.5 35.5t-13.5 51.5q0 21 7.5 39t21 31.5t32 21.5t39.5 8h5t7 -1l47 77h46zM470 254l-89 402h-16l-229 -402h334zM383 688q27 0 46.5 19
t19.5 49t-19.5 49t-46.5 19t-46.5 -19t-19.5 -49t19.5 -49t46.5 -19z" />
    <glyph glyph-name="aringacute" unicode="&#x1fb;" horiz-adv-x="501" 
d="M293 794l60 106h50l-77 -106h-33zM366 101h-4q-36 -55 -90.5 -86t-122.5 -31q-36 0 -65 11.5t-49 32t-31 47.5t-11 57q0 42 17.5 74.5t48 54.5t72 33.5t88.5 11.5q52 0 98.5 -14t76.5 -33l8 42q3 19 3 38q0 64 -39.5 99.5t-106.5 35.5q-24 0 -48.5 -6t-46.5 -17.5
t-40.5 -27.5t-31.5 -36l-28 19q32 49 85 74.5t115 25.5q41 0 74 -12t56 -33.5t35.5 -52t12.5 -67.5q0 -11 -1 -20.5t-3 -20.5l-53 -300h-36zM388 225q-35 23 -76.5 36t-96.5 13q-38 0 -71.5 -9t-59.5 -27t-41 -45t-15 -63q0 -55 37.5 -84.5t91.5 -29.5q41 0 79.5 17t70 46
t53 66.5t28.5 79.5zM301 572q-21 0 -39.5 7.5t-32 21t-21 32t-7.5 39.5t7.5 39t21 31.5t32 21.5t39.5 8t39 -8t31.5 -21.5t21.5 -31.5t8 -39t-8 -39.5t-21.5 -32t-31.5 -21t-39 -7.5zM301 604q27 0 46.5 19t19.5 49t-19.5 49t-46.5 19t-46.5 -19t-19.5 -49t19.5 -49
t46.5 -19z" />
    <glyph glyph-name="AEacute" unicode="&#x1fc;" horiz-adv-x="912" 
d="M155 220l-172 -220h-42l558 716h417l-6 -34h-354l-55 -307h322l-5 -34h-322l-55 -307h354l-6 -34h-390l39 220h-283zM181 254h263l76 428h-4zM684 780l71 120h49l-82 -120h-38z" />
    <glyph glyph-name="aeacute" unicode="&#x1fd;" horiz-adv-x="900" 
d="M816 116q-17 -29 -38 -53t-48 -41.5t-60.5 -27.5t-75.5 -10q-40 0 -74 13.5t-60.5 36t-43 52t-22.5 62.5q-40 -80 -104 -122t-141 -42q-36 0 -65 11.5t-49 32t-31 47.5t-11 57q0 42 17.5 74.5t48 54.5t72 33.5t88.5 11.5q52 0 98.5 -14t76.5 -33l8 42q2 8 3 19t1 20
q0 64 -38.5 99t-103.5 35q-51 0 -96.5 -23.5t-69.5 -65.5l-30 16q32 52 84.5 78.5t111.5 26.5q75 0 118.5 -35.5t56.5 -92.5q37 56 93 92t128 36q46 0 82.5 -15t61.5 -41.5t38.5 -63t13.5 -79.5q0 -38 -8 -67h-421q-3 -17 -3 -41q0 -42 14.5 -76t38.5 -58t55 -36.5t64 -12.5
q40 0 69 8.5t51.5 24t40 36.5t35.5 47zM388 225q-35 23 -76.5 36t-96.5 13q-38 0 -71.5 -9t-59.5 -27t-41 -45t-15 -63q0 -55 37.5 -84.5t91.5 -29.5q41 0 79.5 17t70 46t53 66.5t28.5 79.5zM819 272q1 8 1.5 16t0.5 16q0 28 -8 58t-26.5 55t-50 41t-77.5 16
q-35 0 -69.5 -12.5t-65 -37.5t-54.5 -63t-37 -89h386zM466 596l71 120h49l-82 -120h-38z" />
    <glyph glyph-name="Oslashacute" unicode="&#x1fe;" horiz-adv-x="808" 
d="M90 -5l53 66q-51 45 -79 110.5t-28 143.5q0 85 31.5 161t87.5 133t132.5 90t167.5 33q52 0 97.5 -14.5t83.5 -40.5l53 66l28 -22l-53 -66q51 -45 79.5 -110.5t28.5 -143.5q0 -86 -31.5 -161.5t-87.5 -132.5t-132.5 -90t-167.5 -33q-53 0 -98.5 14.5t-83.5 40.5l-53 -66z
M357 18q81 0 150.5 30.5t120 82.5t79.5 120.5t29 145.5q0 72 -24.5 131t-69.5 99l-449 -560q69 -49 164 -49zM72 319q0 -72 24 -131t69 -99l449 560q-34 23 -75 36t-88 13q-81 0 -150.5 -30.5t-120 -82.5t-79.5 -121t-29 -145zM459 780l71 120h49l-82 -120h-38z" />
    <glyph glyph-name="oslashacute" unicode="&#x1ff;" horiz-adv-x="548" 
d="M291 506q36 0 69 -11.5t59 -31.5l44 54l26 -21l-45 -56q27 -30 43 -70.5t16 -88.5q0 -57 -20 -110.5t-57 -95t-89.5 -66.5t-116.5 -25q-32 0 -61 8.5t-54 24.5l-34 -42l-28 20l35 43q-32 30 -51 73.5t-19 97.5q0 57 20 110.5t57 95t89 66.5t117 25zM44 211
q0 -44 15.5 -81t41.5 -63l296 368q-48 39 -110 39q-53 0 -97.5 -22t-77 -58.5t-50.5 -84t-18 -98.5zM224 16q53 0 97.5 22t77 58.5t50.5 84t18 98.5q0 38 -12.5 72t-33.5 60l-293 -366q21 -14 45 -21.5t51 -7.5zM296 596l71 120h49l-82 -120h-38z" />
    <glyph glyph-name="uni0218" unicode="&#x218;" horiz-adv-x="531" 
d="M216 -16q-47 0 -84.5 14.5t-65 40t-45 60.5t-26.5 76l32 14q20 -80 64.5 -125.5t124.5 -45.5q39 0 76 13t65.5 37.5t46 59t17.5 78.5q0 54 -39.5 89.5t-106.5 60.5l-42 16q-29 11 -55 27.5t-46 38t-31.5 49.5t-11.5 61q0 40 17.5 73.5t47.5 58t69.5 38.5t84.5 14
q49 0 83.5 -13.5t57 -35t35.5 -47.5t20 -50l-34 -14q-8 24 -19.5 46.5t-30 40t-46.5 28.5t-67 11q-36 0 -69 -11t-58 -30.5t-39.5 -47t-14.5 -60.5q0 -29 10 -51.5t27 -40.5t40 -31.5t50 -23.5l44 -17q32 -12 61.5 -28.5t52 -38t36 -50t13.5 -64.5q0 -45 -19 -85t-52 -70
t-77.5 -47.5t-95.5 -17.5zM119 -190l64 77q-8 3 -13.5 11.5t-5.5 18.5q0 15 10 25t25 10q13 0 24 -8t11 -23q0 -11 -5.5 -19t-13.5 -18l-77 -90z" />
    <glyph glyph-name="uni0219" unicode="&#x219;" horiz-adv-x="441" 
d="M175 -16q-39 0 -70.5 11.5t-55.5 31t-39.5 45t-21.5 53.5l33 14q15 -57 55.5 -90t103.5 -33q29 0 57.5 6.5t51 20.5t36.5 35.5t14 51.5q0 35 -26.5 59.5t-83.5 41.5l-48 14q-27 8 -50.5 19.5t-41 27t-27.5 35.5t-10 45q0 31 14.5 55.5t39.5 42t58.5 27t72.5 9.5
q64 0 109 -27.5t64 -87.5l-33 -13q-13 46 -50 71t-91 25q-30 0 -56.5 -6.5t-47 -19t-32.5 -31.5t-12 -43q0 -39 30 -62t75 -36l58 -17q58 -17 91.5 -48t33.5 -77q0 -35 -16 -63t-44 -47.5t-64.5 -29.5t-76.5 -10zM79 -190l64 77q-8 3 -13.5 11.5t-5.5 18.5q0 15 10 25t25 10
q13 0 24 -8t11 -23q0 -11 -5.5 -19t-13.5 -18l-77 -90z" />
    <glyph glyph-name="uni021A" unicode="&#x21a;" horiz-adv-x="502" 
d="M169 0l121 682h-206l6 34h448l-6 -34h-206l-121 -682h-36zM93 -190l64 77q-8 3 -13.5 11.5t-5.5 18.5q0 15 10 25t25 10q13 0 24 -8t11 -23q0 -11 -5.5 -19t-13.5 -18l-77 -90z" />
    <glyph glyph-name="uni021B" unicode="&#x21b;" horiz-adv-x="321" 
d="M137 458h-92l5 32h92l27 150h36l-27 -150h124l-5 -32h-124l-60 -340q-2 -8 -2.5 -15t-0.5 -15q0 -23 15.5 -43.5t50.5 -20.5q15 0 27 3t28 11l11 -30q-30 -16 -71 -16t-69 24.5t-28 68.5q0 11 1.5 21.5l3.5 24.5zM53 -190l64 77q-8 3 -13.5 11.5t-5.5 18.5q0 15 10 25
t25 10q13 0 24 -8t11 -23q0 -11 -5.5 -19t-13.5 -18l-77 -90z" />
    <glyph glyph-name="uni0237" unicode="&#x237;" horiz-adv-x="170" 
d="M-127 -184q6 -4 15 -7t20 -3q31 0 50 22t27 63l106 599h36l-107 -608q-8 -45 -36.5 -76.5t-77.5 -31.5q-15 0 -27.5 3t-18.5 7z" />
    <glyph glyph-name="circumflex" unicode="&#x2c6;" horiz-adv-x="362" 
d="M340 600h-36l-60 84h-8l-87 -84h-43l1 5l118 111h38l78 -111z" />
    <glyph glyph-name="caron" unicode="&#x2c7;" horiz-adv-x="362" 
d="M127 716h36l60 -84h8l87 84h43l-1 -5l-118 -111h-38l-78 111z" />
    <glyph glyph-name="breve" unicode="&#x2d8;" horiz-adv-x="396" 
d="M241 598q-18 0 -36 7t-32 19.5t-22.5 30t-8.5 38.5q0 9 2 19h36q-1 -6 -1 -8v-7q0 -27 17 -47t50 -20q19 0 35.5 7t29 18.5t20.5 26t11 30.5h34q-8 -54 -44 -84t-91 -30z" />
    <glyph glyph-name="dotaccent" unicode="&#x2d9;" horiz-adv-x="198" 
d="M152 627q-14 0 -23 9t-9 23t9 23t23 9t23 -9t9 -23t-9 -23t-23 -9z" />
    <glyph glyph-name="ring" unicode="&#x2da;" horiz-adv-x="418" 
d="M259 572q-21 0 -39.5 7.5t-32 21t-21 32t-7.5 39.5t7.5 39t21 31.5t32 21.5t39.5 8t39 -8t31.5 -21.5t21.5 -31.5t8 -39t-8 -39.5t-21.5 -32t-31.5 -21t-39 -7.5zM259 604q27 0 46.5 19t19.5 49t-19.5 49t-46.5 19t-46.5 -19t-19.5 -49t19.5 -49t46.5 -19z" />
    <glyph glyph-name="tilde" unicode="&#x2dc;" horiz-adv-x="384" 
d="M311 610q-22 0 -39.5 9.5t-32.5 21.5q-16 12 -31.5 21.5t-33.5 9.5q-29 0 -42 -14t-18 -38h-32q5 45 32 65.5t64 20.5q22 0 39.5 -9.5t33.5 -21.5q15 -12 30.5 -21.5t33.5 -9.5q29 0 42 14t18 38h32q-5 -45 -32 -65.5t-64 -20.5z" />
    <glyph glyph-name="uni0374" unicode="&#x374;" horiz-adv-x="222" 
d="M194 716h45l-133 -200h-32z" />
    <glyph glyph-name="uni0375" unicode="&#x375;" horiz-adv-x="222" 
d="M92 -78h-47l98 200h34z" />
    <glyph glyph-name="uni037E" unicode="&#x37e;" horiz-adv-x="174" 
d="M-49 -78l64 77q-8 3 -13.5 11.5t-5.5 18.5q0 15 10 25t25 10q13 0 24 -8t11 -23q0 -11 -5.5 -19t-13.5 -18l-77 -90zM107 426q-15 0 -25 10t-10 25t10 25t25 10t25 -10t10 -25t-10 -25t-25 -10z" />
    <glyph glyph-name="tonos" unicode="&#x384;" horiz-adv-x="380" 
d="M188 596l68 120h51l-87 -120h-32z" />
    <glyph glyph-name="dieresistonos" unicode="&#x385;" horiz-adv-x="344" 
d="M193 588l25 144h36l-25 -144h-36zM119 627q-14 0 -23 9t-9 23t9 23t23 9t23 -9t9 -23t-9 -23t-23 -9zM295 659q0 14 9 23t23 9t23 -9t9 -23t-9 -23t-23 -9t-23 9t-9 23z" />
    <glyph glyph-name="Alphatonos" unicode="&#x386;" horiz-adv-x="638" 
d="M360 716h44l157 -716h-35l-48 220h-362l-125 -220h-41zM470 254l-92 418h-4l-238 -418h334zM100 596l71 120h49l-82 -120h-38z" />
    <glyph glyph-name="anoteleia" unicode="&#x387;" horiz-adv-x="114" 
d="M51 289q-15 0 -25 10t-10 25t10 25t25 10t25 -10t10 -25t-10 -25t-25 -10z" />
    <glyph glyph-name="Epsilontonos" unicode="&#x388;" horiz-adv-x="572" 
d="M216 682l-55 -307h322l-5 -34h-322l-55 -307h354l-6 -34h-390l127 716h390l-6 -34h-354zM-27 596l71 120h49l-82 -120h-38z" />
    <glyph glyph-name="Etatonos" unicode="&#x389;" horiz-adv-x="719" 
d="M186 716h36l-59 -333h442l59 333h36l-127 -716h-36l62 349h-442l-62 -349h-36zM-27 596l71 120h49l-82 -120h-38z" />
    <glyph glyph-name="Iotatonos" unicode="&#x38a;" horiz-adv-x="241" 
d="M186 716h36l-127 -716h-36zM-27 596l71 120h49l-82 -120h-38z" />
    <glyph glyph-name="Omicrontonos" unicode="&#x38c;" horiz-adv-x="808" 
d="M353 -16q-70 0 -128 25.5t-100 70t-65.5 105t-23.5 130.5q0 85 31.5 161t87.5 133t132.5 90t167.5 33q70 0 128 -25.5t100 -70t65.5 -105t23.5 -130.5q0 -86 -31.5 -161.5t-87.5 -132.5t-132.5 -90t-167.5 -33zM357 18q81 0 150.5 30.5t120 82.5t79.5 120.5t29 145.5
q0 66 -21 121.5t-59 95t-90 62t-115 22.5q-81 0 -150.5 -30.5t-120 -82.5t-79.5 -121t-29 -145q0 -66 21 -121.5t59 -95t90 -62t115 -22.5zM34 596l71 120h49l-82 -120h-38z" />
    <glyph glyph-name="Upsilontonos" unicode="&#x38e;" horiz-adv-x="646" 
d="M284 0l56 315l-182 401h40l163 -361h4l286 361h45l-320 -401l-56 -315h-36zM-27 596l71 120h49l-82 -120h-38z" />
    <glyph glyph-name="Omegatonos" unicode="&#x38f;" horiz-adv-x="728" 
d="M-27 596l71 120h49l-82 -120h-38zM397 732q66 0 120 -23.5t93 -64t60 -95t21 -115.5q0 -68 -24 -128.5t-66 -111t-100 -90t-126 -66.5l-1 -4h235l-6 -34h-265l11 64q60 20 115.5 54.5t97.5 82t67.5 106t25.5 126.5q0 52 -18.5 100t-52.5 85t-82.5 58.5t-107.5 21.5
q-74 0 -138.5 -29.5t-112.5 -78t-75.5 -112.5t-27.5 -133q0 -54 15.5 -100t41.5 -82t60.5 -61t73.5 -38l-11 -64h-264l5 34h235l1 4q-94 45 -143.5 125t-49.5 180q0 74 30 144t82.5 124.5t124.5 87.5t156 33z" />
    <glyph glyph-name="iotadieresistonos" unicode="&#x390;" horiz-adv-x="170" 
d="M3 0l87 490h36l-87 -490h-36zM107 588l25 144h36l-25 -144h-36zM33 627q-14 0 -23 9t-9 23t9 23t23 9t23 -9t9 -23t-9 -23t-23 -9zM209 659q0 14 9 23t23 9t23 -9t9 -23t-9 -23t-23 -9t-23 9t-9 23z" />
    <glyph glyph-name="Alpha" unicode="&#x391;" horiz-adv-x="638" 
d="M360 716h44l157 -716h-35l-48 220h-362l-125 -220h-41zM470 254l-92 418h-4l-238 -418h334z" />
    <glyph glyph-name="Beta" unicode="&#x392;" horiz-adv-x="580" 
d="M145 716h241q38 0 69 -12.5t53 -34.5t34 -52t12 -64q0 -33 -12 -62t-31 -53t-44 -42t-50 -27l-1 -4q42 -16 72 -56t30 -99q0 -42 -17.5 -80t-49.5 -67t-76.5 -46t-97.5 -17h-259zM331 383q35 0 68 13t59 35.5t42 52t16 63.5q0 63 -36 99t-98 36h-207l-53 -299h209z
M283 34q42 0 78 14.5t63 38.5t42 55t15 64q0 63 -40.5 103t-110.5 40h-214l-56 -315h223z" />
    <glyph glyph-name="Gamma" unicode="&#x393;" horiz-adv-x="483" 
d="M145 716h374l-6 -34h-338l-121 -682h-36z" />
    <glyph glyph-name="uni0394" unicode="&#x394;" horiz-adv-x="614" 
d="M347 716h45l145 -716h-587zM10 34h482l-126 638h-4z" />
    <glyph glyph-name="Epsilon" unicode="&#x395;" horiz-adv-x="531" 
d="M175 682l-55 -307h322l-5 -34h-322l-55 -307h354l-6 -34h-390l127 716h390l-6 -34h-354z" />
    <glyph glyph-name="Zeta" unicode="&#x396;" horiz-adv-x="541" 
d="M-3 42l527 640h-399l6 34h440l-8 -42l-528 -640h419l-6 -34h-459z" />
    <glyph glyph-name="Eta" unicode="&#x397;" horiz-adv-x="678" 
d="M145 716h36l-59 -333h442l59 333h36l-127 -716h-36l62 349h-442l-62 -349h-36z" />
    <glyph glyph-name="Theta" unicode="&#x398;" horiz-adv-x="824" 
d="M259 341l5 34h298l-5 -34h-298zM353 -16q-70 0 -128 25.5t-100 70t-65.5 105t-23.5 130.5q0 85 31.5 161t87.5 133t132.5 90t167.5 33q70 0 128 -25.5t100 -70t65.5 -105t23.5 -130.5q0 -86 -31.5 -161.5t-87.5 -132.5t-132.5 -90t-167.5 -33zM357 18q81 0 150.5 30.5
t120 82.5t79.5 120.5t29 145.5q0 66 -21 121.5t-59 95t-90 62t-115 22.5q-81 0 -150.5 -30.5t-120 -82.5t-79.5 -121t-29 -145q0 -66 21 -121.5t59 -95t90 -62t115 -22.5z" />
    <glyph glyph-name="Iota" unicode="&#x399;" horiz-adv-x="200" 
d="M145 716h36l-127 -716h-36z" />
    <glyph glyph-name="Kappa" unicode="&#x39a;" horiz-adv-x="551" 
d="M145 716h36l-65 -364h4l437 364h50l-1 -4l-441 -367l315 -341l-1 -4h-47l-313 342h-4l-61 -342h-36z" />
    <glyph glyph-name="Lambda" unicode="&#x39b;" horiz-adv-x="598" 
d="M358 672h-4l-360 -672h-44l389 716h46l136 -716h-38z" />
    <glyph glyph-name="Mu" unicode="&#x39c;" horiz-adv-x="820" 
d="M145 716h33l201 -510h4l382 510h36l-127 -716h-34l93 528l26 120h-4l-371 -496h-20l-197 496h-4l-18 -120l-93 -528h-34z" />
    <glyph glyph-name="Nu" unicode="&#x39d;" horiz-adv-x="684" 
d="M145 716h49l320 -652h4l20 138l91 514h36l-127 -716h-32l-332 678h-4l-20 -138l-96 -540h-36z" />
    <glyph glyph-name="Xi" unicode="&#x39e;" horiz-adv-x="468" 
d="M88 682l6 34h406l-6 -34h-406zM-32 0l6 34h405l-6 -34h-405zM60 341l5 34h342l-5 -34h-342z" />
    <glyph glyph-name="Omicron" unicode="&#x39f;" horiz-adv-x="808" 
d="M353 -16q-70 0 -128 25.5t-100 70t-65.5 105t-23.5 130.5q0 85 31.5 161t87.5 133t132.5 90t167.5 33q70 0 128 -25.5t100 -70t65.5 -105t23.5 -130.5q0 -86 -31.5 -161.5t-87.5 -132.5t-132.5 -90t-167.5 -33zM357 18q81 0 150.5 30.5t120 82.5t79.5 120.5t29 145.5
q0 66 -21 121.5t-59 95t-90 62t-115 22.5q-81 0 -150.5 -30.5t-120 -82.5t-79.5 -121t-29 -145q0 -66 21 -121.5t59 -95t90 -62t115 -22.5z" />
    <glyph glyph-name="Pi" unicode="&#x3a0;" horiz-adv-x="654" 
d="M145 716h490l-127 -716h-36l121 682h-418l-121 -682h-36z" />
    <glyph glyph-name="Rho" unicode="&#x3a1;" horiz-adv-x="549" 
d="M18 0l127 716h216q43 0 78 -12.5t60 -36t39 -57t14 -75.5q0 -50 -19.5 -92t-54.5 -72.5t-82.5 -47.5t-103.5 -17h-184l-54 -306h-36zM296 340q50 0 90.5 14.5t69 40.5t44 62t15.5 79q0 37 -13 64.5t-34.5 45.5t-49.5 27t-59 9h-184l-61 -342h182z" />
    <glyph glyph-name="Sigma" unicode="&#x3a3;" horiz-adv-x="488" 
d="M143 682l185 -317l-296 -331h367l-6 -34h-411l7 38l296 332l-184 308l7 38h412l-6 -34h-371z" />
    <glyph glyph-name="Tau" unicode="&#x3a4;" horiz-adv-x="502" 
d="M169 0l121 682h-206l6 34h448l-6 -34h-206l-121 -682h-36z" />
    <glyph glyph-name="Upsilon" unicode="&#x3a5;" horiz-adv-x="564" 
d="M202 0l56 315l-182 401h40l163 -361h4l286 361h45l-320 -401l-56 -315h-36z" />
    <glyph glyph-name="Phi" unicode="&#x3a6;" horiz-adv-x="768" 
d="M312 56q-133 10 -204.5 80.5t-71.5 189.5q0 71 30.5 131.5t82.5 105t121.5 70t148.5 27.5l10 56h36l-10 -56q133 -10 204.5 -80.5t71.5 -189.5q0 -71 -30.5 -131.5t-82.5 -105t-121.5 -70.5t-148.5 -27l-10 -56h-36zM354 90q67 1 129 23.5t109 61.5t75 93.5t28 120.5
q0 52 -16.5 94.5t-48 73.5t-77.5 49t-104 20zM413 626q-68 -2 -129.5 -24t-108.5 -61t-75 -93.5t-28 -120.5q0 -52 16.5 -94.5t48 -73.5t77.5 -49t104 -20z" />
    <glyph glyph-name="Chi" unicode="&#x3a7;" horiz-adv-x="592" 
d="M273 372l-178 344h44l160 -313h4l273 313h49l-304 -346l189 -370h-42l-173 338h-4l-289 -338h-47z" />
    <glyph glyph-name="Psi" unicode="&#x3a8;" horiz-adv-x="720" 
d="M306 156q-47 0 -90 14.5t-75 43t-51 69.5t-19 94q0 14 1 29.5t5 35.5l49 274h36l-50 -281q-2 -14 -3.5 -27t-1.5 -28q0 -45 16 -80.5t43.5 -60t65 -37t80.5 -12.5l93 526h36l-93 -526q54 0 101.5 16t85 47t63 75t35.5 100l51 288h36l-52 -292q-11 -64 -40 -113.5
t-71.5 -84t-97 -52.5t-117.5 -18l-28 -156h-36z" />
    <glyph glyph-name="uni03A9" unicode="&#x3a9;" horiz-adv-x="770" 
d="M438 732q66 0 120 -23.5t93 -64t60 -95t21 -115.5q0 -68 -24 -128.5t-66 -111t-100 -90t-126 -66.5l-1 -4h235l-6 -34h-265l11 64q60 20 115.5 54.5t97.5 82t67.5 106t25.5 126.5q0 52 -18.5 100t-52.5 85t-82.5 58.5t-107.5 21.5q-74 0 -138.5 -29.5t-112.5 -78
t-75.5 -112.5t-27.5 -133q0 -54 15.5 -100t41.5 -82t60.5 -61t73.5 -38l-11 -64h-264l5 34h235l1 4q-94 45 -143.5 125t-49.5 180q0 74 30 144t82.5 124.5t124.5 87.5t156 33z" />
    <glyph glyph-name="Iotadieresis" unicode="&#x3aa;" horiz-adv-x="200" 
d="M119 811q-14 0 -23 9t-9 23t9 23t23 9t23 -9t9 -23t-9 -23t-23 -9zM207 843q0 14 9 23t23 9t23 -9t9 -23t-9 -23t-23 -9t-23 9t-9 23zM145 716h36l-127 -716h-36z" />
    <glyph glyph-name="Upsilondieresis" unicode="&#x3ab;" horiz-adv-x="564" 
d="M202 0l56 315l-182 401h40l163 -361h4l286 361h45l-320 -401l-56 -315h-36zM281 811q-14 0 -23 9t-9 23t9 23t23 9t23 -9t9 -23t-9 -23t-23 -9zM389 843q0 14 9 23t23 9t23 -9t9 -23t-9 -23t-23 -9t-23 9t-9 23z" />
    <glyph glyph-name="alphatonos" unicode="&#x3ac;" horiz-adv-x="558" 
d="M523 490l-86 -490h-32l18 100h-4q-30 -49 -83 -82.5t-126 -33.5q-44 0 -81.5 15.5t-64.5 44.5t-42 70t-15 91q0 54 20 108t56.5 97t88.5 69.5t115 26.5q40 0 70.5 -11t52 -28.5t35.5 -39.5t23 -45h4l19 108h32zM212 16q54 0 98 23.5t75.5 62t48.5 87t17 98.5q0 43 -12 78
t-34 59t-52 37t-66 13q-56 0 -101 -24t-76.5 -62.5t-49 -86.5t-17.5 -96q0 -45 13.5 -80.5t36.5 -59.5t53.5 -36.5t65.5 -12.5zM283 596l71 120h49l-82 -120h-38z" />
    <glyph glyph-name="epsilontonos" unicode="&#x3ad;" horiz-adv-x="458" 
d="M174 -16q-81 0 -128 37t-47 97q0 25 9.5 46.5t25.5 38.5t37.5 29.5t45.5 19.5l1 7q-23 14 -40.5 38.5t-17.5 60.5q0 34 16 61.5t43 46.5t61.5 29.5t72.5 10.5q45 0 85.5 -20.5t68.5 -65.5l-29 -22q-46 76 -128 76q-27 0 -54.5 -7.5t-49.5 -22t-36 -36t-14 -50.5
q0 -43 29 -67t74 -24h65l-6 -32h-68q-30 0 -57.5 -8t-49.5 -23t-35 -36.5t-13 -48.5q0 -45 38 -73t104 -28q50 0 87.5 19t77.5 61l23 -23q-80 -91 -191 -91zM247 596l71 120h49l-82 -120h-38z" />
    <glyph glyph-name="etatonos" unicode="&#x3ae;" horiz-adv-x="544" 
d="M305 596l71 120h49l-82 -120h-38zM105 374h4q15 27 36 51t48 42t60.5 28.5t72.5 10.5q36 0 63.5 -12t46 -32t27.5 -48t9 -59q0 -22 -6 -55l-91 -516h-36l91 516q2 15 4 26q1 11 1 24q0 55 -29 89.5t-89 34.5q-42 0 -79.5 -18t-68 -49t-52 -72.5t-29.5 -88.5l-44 -246h-36
l86 490h32z" />
    <glyph glyph-name="iotatonos" unicode="&#x3af;" horiz-adv-x="170" 
d="M3 0l87 490h36l-87 -490h-36zM104 596l71 120h49l-82 -120h-38z" />
    <glyph glyph-name="upsilondieresistonos" unicode="&#x3b0;" horiz-adv-x="520" 
d="M207 -16q-84 0 -130 51t-46 135q0 13 1.5 28.5t5.5 38.5l45 253h36l-47 -265q-2 -14 -3.5 -27t-1.5 -25q0 -39 11 -68t30 -49t45 -30t55 -10q58 0 101.5 23.5t72.5 62t43.5 86.5t14.5 97q0 62 -10.5 109.5t-31.5 95.5h40q16 -42 27 -89.5t11 -112.5q0 -59 -17.5 -114
t-51.5 -97t-84 -67.5t-116 -25.5zM267 588l25 144h36l-25 -144h-36zM193 627q-14 0 -23 9t-9 23t9 23t23 9t23 -9t9 -23t-9 -23t-23 -9zM369 659q0 14 9 23t23 9t23 -9t9 -23t-9 -23t-23 -9t-23 9t-9 23z" />
    <glyph glyph-name="alpha" unicode="&#x3b1;" horiz-adv-x="558" 
d="M523 490l-86 -490h-32l18 100h-4q-30 -49 -83 -82.5t-126 -33.5q-44 0 -81.5 15.5t-64.5 44.5t-42 70t-15 91q0 54 20 108t56.5 97t88.5 69.5t115 26.5q40 0 70.5 -11t52 -28.5t35.5 -39.5t23 -45h4l19 108h32zM212 16q54 0 98 23.5t75.5 62t48.5 87t17 98.5q0 43 -12 78
t-34 59t-52 37t-66 13q-56 0 -101 -24t-76.5 -62.5t-49 -86.5t-17.5 -96q0 -45 13.5 -80.5t36.5 -59.5t53.5 -36.5t65.5 -12.5z" />
    <glyph glyph-name="beta" unicode="&#x3b2;" horiz-adv-x="536" 
d="M360 380q22 -9 42.5 -24t36.5 -37t25.5 -49.5t9.5 -61.5q0 -45 -17 -85.5t-48 -71.5t-74.5 -49t-95.5 -18q-60 0 -106 30t-63 78h-4l-11 -92l-39 -216h-35l128 732q17 99 74 157.5t155 58.5q39 0 69.5 -12.5t52 -35t33 -53t11.5 -65.5q0 -33 -11.5 -62t-31.5 -52.5
t-46 -41t-55 -26.5v-4zM92 215q-2 -11 -3 -21t-1 -20q0 -38 12.5 -67.5t34 -49.5t49.5 -30.5t58 -10.5q40 0 75.5 14.5t62.5 40t42.5 59t15.5 71.5q0 73 -45 119.5t-129 46.5h-41l5 32h43q41 0 77 12t62.5 34t42 52t15.5 65q0 34 -11 60t-29.5 43t-42.5 26t-51 9
q-33 0 -63.5 -11.5t-56 -35t-44 -58.5t-26.5 -82z" />
    <glyph glyph-name="gamma" unicode="&#x3b3;" horiz-adv-x="492" 
d="M132 -216l38 216l-135 490h37l123 -442h2l279 442h41l-311 -490l-38 -216h-36z" />
    <glyph glyph-name="delta" unicode="&#x3b4;" horiz-adv-x="548" 
d="M301 506q9 0 19.5 -0.5t18.5 -2.5l-197 193l3 20h373l-6 -32h-308l218 -214q22 -21 37 -41t25 -42t14.5 -48t4.5 -60q0 -51 -20.5 -103.5t-58 -95t-90.5 -69.5t-119 -27q-45 0 -83 17t-65.5 47t-43 71.5t-15.5 90.5q0 54 20.5 107t58.5 95t92 68t122 26zM218 16
q53 0 98.5 23.5t79 60.5t52.5 82.5t19 89.5t-13.5 81t-37 64t-54.5 42t-67 15q-53 0 -98.5 -23t-79.5 -60t-53.5 -84.5t-19.5 -95.5q0 -44 14 -80t37.5 -61.5t55 -39.5t67.5 -14z" />
    <glyph glyph-name="epsilon" unicode="&#x3b5;" horiz-adv-x="458" 
d="M174 -16q-81 0 -128 37t-47 97q0 25 9.5 46.5t25.5 38.5t37.5 29.5t45.5 19.5l1 7q-23 14 -40.5 38.5t-17.5 60.5q0 34 16 61.5t43 46.5t61.5 29.5t72.5 10.5q45 0 85.5 -20.5t68.5 -65.5l-29 -22q-46 76 -128 76q-27 0 -54.5 -7.5t-49.5 -22t-36 -36t-14 -50.5
q0 -43 29 -67t74 -24h65l-6 -32h-68q-30 0 -57.5 -8t-49.5 -23t-35 -36.5t-13 -48.5q0 -45 38 -73t104 -28q50 0 87.5 19t77.5 61l23 -23q-80 -91 -191 -91z" />
    <glyph glyph-name="zeta" unicode="&#x3b6;" horiz-adv-x="452" 
d="M233 -136q19 0 37.5 5t32 14.5t22 23.5t8.5 33q0 30 -19 45t-70 15h-108q-69 0 -102.5 34.5t-33.5 85.5q0 45 27 82.5t79 72.5q7 5 22.5 15.5t36.5 24.5q20 13 44 29q23 16 47 32q55 37 121 82h-303l6 32h360l-6 -30q-84 -57 -152 -103q-29 -20 -57 -39t-50.5 -34.5
t-37.5 -25.5q-15 -11 -18 -13q-38 -28 -60.5 -56t-22.5 -68t28 -64.5t79 -24.5h106q55 0 86.5 -20.5t31.5 -64.5q0 -24 -10 -45t-28.5 -36.5t-44 -24.5t-56.5 -9z" />
    <glyph glyph-name="eta" unicode="&#x3b7;" 
d="M97 374h4q15 27 36 51t48 42t60.5 28.5t72.5 10.5q36 0 63.5 -12t46 -32t27.5 -48t9 -59q0 -22 -6 -55l-91 -516h-36l91 516q2 15 4 26q1 11 1 24q0 55 -29 89.5t-89 34.5q-42 0 -79.5 -18t-68 -49t-52 -72.5t-29.5 -88.5l-44 -246h-36l86 490h32z" />
    <glyph glyph-name="theta" unicode="&#x3b8;" horiz-adv-x="641" 
d="M252 -16q-50 0 -89.5 21.5t-67 60t-42 90t-14.5 111.5q0 78 20.5 155.5t61.5 139t102 100t143 38.5q50 0 89.5 -21.5t67 -60t42 -90t14.5 -111.5q0 -78 -20.5 -155.5t-61.5 -139t-102 -100t-143 -38.5zM256 18q63 0 112 28.5t84 74.5t56.5 104.5t29.5 118.5h-458
q-2 -20 -3.5 -38.5t-1.5 -36.5q0 -55 13 -101t36.5 -79.5t57 -52t74.5 -18.5zM362 666q-59 0 -105 -24.5t-80.5 -65t-57 -93t-33.5 -107.5h455q1 10 1.5 19.5t0.5 19.5q0 55 -13 101t-36.5 79.5t-57 52t-74.5 18.5z" />
    <glyph glyph-name="iota" unicode="&#x3b9;" horiz-adv-x="170" 
d="M3 0l87 490h36l-87 -490h-36z" />
    <glyph glyph-name="kappa" unicode="&#x3ba;" horiz-adv-x="411" 
d="M122 490l-40 -228h4l290 228h51l-1 -4l-295 -231l215 -251l-1 -4h-44l-217 252h-4l-45 -252h-35l86 490h36z" />
    <glyph glyph-name="lambda" unicode="&#x3bb;" horiz-adv-x="458" 
d="M202 706l186 -706h-37l-105 404h-2l-257 -404h-44l291 449l-67 257h35z" />
    <glyph glyph-name="nu" unicode="&#x3bd;" horiz-adv-x="464" 
d="M28 490h37l105 -456h2l271 456h39l-291 -490h-48z" />
    <glyph glyph-name="xi" unicode="&#x3be;" horiz-adv-x="495" 
d="M180 387q-17 7 -34.5 19t-31.5 30t-23.5 42.5t-9.5 57.5q0 40 17.5 75.5t48.5 62.5t72.5 42.5t89.5 15.5q66 0 112.5 -26t72.5 -74l-32 -20q-47 88 -157 88q-34 0 -67.5 -12.5t-60 -34t-43 -51t-16.5 -63.5q0 -68 44.5 -106.5t119.5 -38.5h65l-5 -32h-97q-41 0 -79.5 -13
t-68.5 -37.5t-48 -59t-18 -76.5q0 -33 12.5 -60t35 -45.5t53 -28.5t66.5 -10h85q58 0 85 -24.5t27 -62.5q0 -51 -39 -82t-101 -31l6 32q39 1 69.5 20t30.5 55q0 28 -18.5 44.5t-63.5 16.5h-85q-50 0 -87 14t-62 38t-37.5 55.5t-12.5 66.5q0 37 13 70.5t37 61t58.5 47.5
t76.5 30v4z" />
    <glyph glyph-name="omicron" unicode="&#x3bf;" horiz-adv-x="548" 
d="M291 506q44 0 83 -16.5t67.5 -46.5t45 -71.5t16.5 -90.5q0 -57 -20 -110.5t-57 -95t-89.5 -66.5t-116.5 -25q-44 0 -83 16.5t-67.5 46.5t-45 71t-16.5 91q0 57 20 110.5t57 95t89 66.5t117 25zM224 16q53 0 97.5 22t77 58.5t50.5 84t18 98.5q0 42 -14 77.5t-38.5 61.5
t-57.5 41t-70 15q-53 0 -97.5 -22t-77 -58.5t-50.5 -84t-18 -98.5q0 -42 14 -77.5t38.5 -61.5t57 -41t70.5 -15z" />
    <glyph glyph-name="pi" unicode="&#x3c0;" horiz-adv-x="660" 
d="M491 458h-288l-81 -458h-36l81 458h-122l5 32h606l-5 -32h-124l-61 -347q-2 -9 -2.5 -14.5t-0.5 -13.5q0 -27 14 -43t42 -16q11 0 23 2t26 8l10 -29q-32 -13 -63 -13q-36 0 -62 20t-26 68q0 11 2 21q1 10 3 24z" />
    <glyph glyph-name="rho" unicode="&#x3c1;" horiz-adv-x="562" 
d="M330 506q93 0 147 -58t54 -161q0 -59 -20 -114t-57 -97t-88.5 -67t-114.5 -25q-36 0 -66 10.5t-52.5 27.5t-38 39.5t-24.5 46.5h-4l-8 -68l-46 -256h-35l83 475q9 54 33 99.5t59 78t80 51t98 18.5zM326 474q-53 0 -96.5 -23.5t-74.5 -62.5t-48.5 -88.5t-17.5 -101.5
q0 -42 13 -75.5t35 -57t52 -36.5t65 -13q57 0 102 24.5t75.5 62.5t47 85.5t16.5 94.5t-13 82.5t-35.5 59.5t-53.5 36.5t-67 12.5z" />
    <glyph glyph-name="uni03C2" unicode="&#x3c2;" horiz-adv-x="504" 
d="M234 -16q-51 0 -92.5 16t-71 44.5t-46 69t-16.5 90.5q0 59 21 113.5t58.5 96.5t90 67t115.5 25q75 0 119.5 -36.5t67.5 -101.5l-34 -15q-20 58 -56 89.5t-99 31.5q-52 0 -97 -22t-78.5 -59t-52.5 -85.5t-19 -102.5q0 -44 14.5 -79t41 -59.5t63 -37.5t80.5 -13h46
q54 0 82 -23.5t28 -61.5q0 -52 -39 -82.5t-101 -32.5l6 32q19 0 37 5.5t32 15t22.5 24.5t8.5 35q0 25 -18.5 40.5t-63.5 15.5h-49z" />
    <glyph glyph-name="sigma" unicode="&#x3c3;" horiz-adv-x="570" 
d="M581 490l-5 -32h-93l-89 4v-4q41 -28 67.5 -73t26.5 -113q0 -55 -19 -106.5t-55 -92t-87 -65t-115 -24.5q-44 0 -81.5 15.5t-65.5 43.5t-43.5 67.5t-15.5 87.5q0 55 19 107.5t55 93.5t88.5 66t119.5 25h293zM220 16q53 0 95.5 22t72.5 57.5t46.5 80t16.5 88.5
q0 45 -13 80.5t-35.5 61t-53 39t-66.5 13.5q-54 0 -98.5 -22.5t-76 -58.5t-49 -82.5t-17.5 -94.5q0 -41 13.5 -75t37.5 -58t56.5 -37.5t70.5 -13.5z" />
    <glyph glyph-name="tau" unicode="&#x3c4;" horiz-adv-x="430" 
d="M50 490h376l-6 -32h-170l-81 -458h-36l81 458h-170z" />
    <glyph glyph-name="upsilon" unicode="&#x3c5;" horiz-adv-x="520" 
d="M207 -16q-84 0 -130 51t-46 135q0 13 1.5 28.5t5.5 38.5l45 253h36l-47 -265q-2 -14 -3.5 -27t-1.5 -25q0 -39 11 -68t30 -49t45 -30t55 -10q58 0 101.5 23.5t72.5 62t43.5 86.5t14.5 97q0 62 -10.5 109.5t-31.5 95.5h40q16 -42 27 -89.5t11 -112.5q0 -59 -17.5 -114
t-51.5 -97t-84 -67.5t-116 -25.5z" />
    <glyph glyph-name="phi" unicode="&#x3c6;" horiz-adv-x="702" 
d="M248 -216l36 200q-53 3 -96.5 20t-75.5 46.5t-49.5 69.5t-17.5 88q0 52 18 97.5t50 83t76 67t95 50.5l12 -32q-42 -17 -81 -42t-68.5 -58t-47.5 -74t-18 -90q0 -45 16.5 -80t45 -60t66 -38.5t80.5 -15.5l59 335q12 68 51.5 111.5t111.5 43.5q33 0 60 -14.5t46.5 -41
t30 -63.5t10.5 -82q0 -69 -24 -126t-68 -99t-106.5 -67t-139.5 -29l-36 -200h-36zM325 16q64 3 118 24.5t94 58t62.5 87.5t22.5 113q0 81 -30.5 128t-84.5 47q-46 0 -79 -31.5t-44 -96.5z" />
    <glyph glyph-name="chi" unicode="&#x3c7;" horiz-adv-x="422" 
d="M310 0l-122 222l-196 -222h-46l224 252l-128 238h42l111 -211l187 211h46l-216 -241l137 -249h-39z" />
    <glyph glyph-name="psi" unicode="&#x3c8;" horiz-adv-x="666" 
d="M250 -16h-14q-49 0 -88.5 13.5t-67 39t-42.5 61.5t-15 80q0 14 1.5 30t5.5 36l43 246h36l-44 -248q-2 -14 -3.5 -28t-1.5 -29q0 -81 47 -125t135 -44h13l84 474h36l-84 -474h14q71 0 122.5 25.5t84.5 67t49 93.5t16 106q0 60 -7 102t-23 80h40q11 -32 18.5 -76t7.5 -104
q0 -59 -18 -117t-56 -104.5t-96.5 -75.5t-138.5 -29h-18l-36 -200h-36z" />
    <glyph glyph-name="omega" unicode="&#x3c9;" horiz-adv-x="754" 
d="M493 -16q-26 0 -50 8.5t-42.5 25.5t-30.5 43.5t-15 61.5q-27 -72 -74 -105.5t-110 -33.5q-66 0 -108 48t-42 138q0 87 33.5 164.5t86.5 155.5h44q-27 -33 -50 -70.5t-40.5 -77.5t-27.5 -83t-10 -88q0 -73 32 -114t92 -41q58 0 106 52t68 163l24 139h36l-24 -139
q-5 -25 -6 -41t-1 -32q0 -38 9.5 -65t25 -44t35.5 -25t41 -8q52 0 89 27t60.5 68t34.5 89t11 90q0 64 -9 112.5t-26 87.5h39q13 -33 22.5 -81.5t9.5 -114.5q0 -48 -13 -102t-40.5 -100.5t-72 -77t-107.5 -30.5z" />
    <glyph glyph-name="iotadieresis" unicode="&#x3ca;" horiz-adv-x="170" 
d="M73 627q-14 0 -23 9t-9 23t9 23t23 9t23 -9t9 -23t-9 -23t-23 -9zM153 659q0 14 9 23t23 9t23 -9t9 -23t-9 -23t-23 -9t-23 9t-9 23zM3 0l87 490h36l-87 -490h-36z" />
    <glyph glyph-name="upsilondieresis" unicode="&#x3cb;" horiz-adv-x="520" 
d="M207 -16q-84 0 -130 51t-46 135q0 13 1.5 28.5t5.5 38.5l45 253h36l-47 -265q-2 -14 -3.5 -27t-1.5 -25q0 -39 11 -68t30 -49t45 -30t55 -10q58 0 101.5 23.5t72.5 62t43.5 86.5t14.5 97q0 62 -10.5 109.5t-31.5 95.5h40q16 -42 27 -89.5t11 -112.5q0 -59 -17.5 -114
t-51.5 -97t-84 -67.5t-116 -25.5zM220 627q-14 0 -23 9t-9 23t9 23t23 9t23 -9t9 -23t-9 -23t-23 -9zM328 659q0 14 9 23t23 9t23 -9t9 -23t-9 -23t-23 -9t-23 9t-9 23z" />
    <glyph glyph-name="omicrontonos" unicode="&#x3cc;" horiz-adv-x="548" 
d="M291 506q44 0 83 -16.5t67.5 -46.5t45 -71.5t16.5 -90.5q0 -57 -20 -110.5t-57 -95t-89.5 -66.5t-116.5 -25q-44 0 -83 16.5t-67.5 46.5t-45 71t-16.5 91q0 57 20 110.5t57 95t89 66.5t117 25zM224 16q53 0 97.5 22t77 58.5t50.5 84t18 98.5q0 42 -14 77.5t-38.5 61.5
t-57.5 41t-70 15q-53 0 -97.5 -22t-77 -58.5t-50.5 -84t-18 -98.5q0 -42 14 -77.5t38.5 -61.5t57 -41t70.5 -15zM296 596l71 120h49l-82 -120h-38z" />
    <glyph glyph-name="upsilontonos" unicode="&#x3cd;" horiz-adv-x="520" 
d="M207 -16q-84 0 -130 51t-46 135q0 13 1.5 28.5t5.5 38.5l45 253h36l-47 -265q-2 -14 -3.5 -27t-1.5 -25q0 -39 11 -68t30 -49t45 -30t55 -10q58 0 101.5 23.5t72.5 62t43.5 86.5t14.5 97q0 62 -10.5 109.5t-31.5 95.5h40q16 -42 27 -89.5t11 -112.5q0 -59 -17.5 -114
t-51.5 -97t-84 -67.5t-116 -25.5zM267 596l71 120h49l-82 -120h-38z" />
    <glyph glyph-name="omegatonos" unicode="&#x3ce;" horiz-adv-x="754" 
d="M493 -16q-26 0 -50 8.5t-42.5 25.5t-30.5 43.5t-15 61.5q-27 -72 -74 -105.5t-110 -33.5q-66 0 -108 48t-42 138q0 87 33.5 164.5t86.5 155.5h44q-27 -33 -50 -70.5t-40.5 -77.5t-27.5 -83t-10 -88q0 -73 32 -114t92 -41q58 0 106 52t68 163l24 139h36l-24 -139
q-5 -25 -6 -41t-1 -32q0 -38 9.5 -65t25 -44t35.5 -25t41 -8q52 0 89 27t60.5 68t34.5 89t11 90q0 64 -9 112.5t-26 87.5h39q13 -33 22.5 -81.5t9.5 -114.5q0 -48 -13 -102t-40.5 -100.5t-72 -77t-107.5 -30.5zM404 596l71 120h49l-82 -120h-38z" />
    <glyph glyph-name="uni03D1" unicode="&#x3d1;" horiz-adv-x="609" 
d="M82 490h36l-49 -277q-5 -28 -5 -49q0 -35 11.5 -62.5t31.5 -46.5t47 -29t59 -10q81 0 139 52.5t75 144.5l16 89q-40 3 -77.5 19.5t-67 45.5t-47 70t-17.5 94q0 37 11.5 73t34 64.5t54 46t72.5 17.5q54 0 88 -30.5t34 -95.5q0 -11 -1.5 -24t-3.5 -27l-39 -221h93l-5 -32
h-93l-16 -90q-9 -53 -31.5 -95t-55 -71.5t-73.5 -45.5t-89 -16q-85 0 -135 48t-50 129q0 14 1 28.5t4 29.5zM403 700q-30 0 -55 -14t-42 -37.5t-26.5 -54t-9.5 -63.5q0 -46 15.5 -81.5t40.5 -60t57 -38.5t65 -16l39 224q2 12 3 23t1 22q0 46 -21.5 71t-66.5 25z" />
    <glyph glyph-name="uni03D2" unicode="&#x3d2;" horiz-adv-x="578" 
d="M260 302l-105 348q-6 21 -13.5 31.5t-26.5 10.5q-22 0 -45 -14l-9 27q8 5 24.5 12t34.5 7q29 0 44 -15.5t23 -44.5l95 -319h4l207 319q20 32 41 46t50 14q14 0 28.5 -5.5t21.5 -10.5l-14 -31q-11 8 -20.5 11.5t-20.5 3.5q-17 0 -29.5 -10.5t-26.5 -31.5l-227 -348
l-53 -302h-36z" />
    <glyph glyph-name="uni03D3" unicode="&#x3d3;" horiz-adv-x="639" 
d="M321 302l-105 348q-6 21 -13.5 31.5t-26.5 10.5q-22 0 -45 -14l-9 27q8 5 24.5 12t34.5 7q29 0 44 -15.5t23 -44.5l95 -319h4l207 319q20 32 41 46t50 14q14 0 28.5 -5.5t21.5 -10.5l-14 -31q-11 8 -20.5 11.5t-20.5 3.5q-17 0 -29.5 -10.5t-26.5 -31.5l-227 -348
l-53 -302h-36zM-27 596l71 120h49l-82 -120h-38z" />
    <glyph glyph-name="uni03D4" unicode="&#x3d4;" horiz-adv-x="578" 
d="M260 302l-105 348q-6 21 -13.5 31.5t-26.5 10.5q-22 0 -45 -14l-9 27q8 5 24.5 12t34.5 7q29 0 44 -15.5t23 -44.5l95 -319h4l207 319q20 32 41 46t50 14q14 0 28.5 -5.5t21.5 -10.5l-14 -31q-11 8 -20.5 11.5t-20.5 3.5q-17 0 -29.5 -10.5t-26.5 -31.5l-227 -348
l-53 -302h-36zM273 811q-14 0 -23 9t-9 23t9 23t23 9t23 -9t9 -23t-9 -23t-23 -9zM381 843q0 14 9 23t23 9t23 -9t9 -23t-9 -23t-23 -9t-23 9t-9 23z" />
    <glyph glyph-name="uni03D6" unicode="&#x3d6;" horiz-adv-x="870" 
d="M69 490h780l-5 -32h-102q10 -32 17.5 -72.5t7.5 -91.5q0 -48 -13 -102t-40.5 -100.5t-72 -77t-107.5 -30.5q-26 0 -50 8.5t-42.5 25.5t-30.5 43.5t-15 61.5q-27 -72 -74 -105.5t-110 -33.5q-66 0 -108 48t-42 138q0 78 29 148t74 140h-101zM445 306l-13 -75
q-5 -25 -6 -41t-1 -32q0 -38 9.5 -65t25 -44t35.5 -25t41 -8q52 0 89 27t60.5 68t34.5 89t11 90q0 51 -7 92t-19 76h-499q-45 -63 -76.5 -135t-31.5 -152q0 -73 32 -114t92 -41q58 0 106 52t68 163l13 75h36z" />
    <glyph glyph-name="uni0400" unicode="&#x400;" horiz-adv-x="531" 
d="M175 682l-55 -307h322l-5 -34h-322l-55 -307h354l-6 -34h-390l127 716h390l-6 -34h-354zM324 780l-42 120h45l29 -120h-32z" />
    <glyph glyph-name="uni0401" unicode="&#x401;" horiz-adv-x="531" 
d="M175 682l-55 -307h322l-5 -34h-322l-55 -307h354l-6 -34h-390l127 716h390l-6 -34h-354zM274 811q-14 0 -23 9t-9 23t9 23t23 9t23 -9t9 -23t-9 -23t-23 -9zM382 843q0 14 9 23t23 9t23 -9t9 -23t-9 -23t-23 -9t-23 9t-9 23z" />
    <glyph glyph-name="uni0402" unicode="&#x402;" horiz-adv-x="719" 
d="M169 0l121 682h-206l6 34h448l-6 -34h-206l-47 -263l-19 -88h4q38 46 96 76.5t121 30.5q40 0 73.5 -13t57.5 -38t37 -61.5t13 -82.5q0 -45 -15.5 -88.5t-45.5 -78t-74 -55.5t-101 -21h-10l6 32h8q48 0 84.5 18t61.5 48t37.5 67.5t12.5 76.5q0 77 -40 120.5t-110 43.5
q-57 0 -112.5 -31t-109.5 -97l-49 -278h-36z" />
    <glyph glyph-name="uni0403" unicode="&#x403;" horiz-adv-x="483" 
d="M145 716h374l-6 -34h-338l-121 -682h-36zM307 780l71 120h49l-82 -120h-38z" />
    <glyph glyph-name="uni0404" unicode="&#x404;" horiz-adv-x="720" 
d="M636 115q-54 -63 -127 -97t-167 -34q-68 0 -124.5 25.5t-97 70t-62.5 103t-22 124.5q0 86 33 163.5t90.5 135.5t135.5 92t169 34q84 0 145 -32t95 -86l-30 -24q-35 55 -85.5 81.5t-130.5 26.5q-73 0 -137.5 -25.5t-114.5 -69.5t-84 -103t-45 -125h371l-5 -34h-370
q-1 -11 -1 -16v-12q0 -63 20.5 -116.5t56.5 -93.5t86.5 -62.5t110.5 -22.5q84 0 147.5 30t121.5 91z" />
    <glyph glyph-name="uni0405" unicode="&#x405;" horiz-adv-x="531" 
d="M216 -16q-47 0 -84.5 14.5t-65 40t-45 60.5t-26.5 76l32 14q20 -80 64.5 -125.5t124.5 -45.5q39 0 76 13t65.5 37.5t46 59t17.5 78.5q0 54 -39.5 89.5t-106.5 60.5l-42 16q-29 11 -55 27.5t-46 38t-31.5 49.5t-11.5 61q0 40 17.5 73.5t47.5 58t69.5 38.5t84.5 14
q49 0 83.5 -13.5t57 -35t35.5 -47.5t20 -50l-34 -14q-8 24 -19.5 46.5t-30 40t-46.5 28.5t-67 11q-36 0 -69 -11t-58 -30.5t-39.5 -47t-14.5 -60.5q0 -29 10 -51.5t27 -40.5t40 -31.5t50 -23.5l44 -17q32 -12 61.5 -28.5t52 -38t36 -50t13.5 -64.5q0 -45 -19 -85t-52 -70
t-77.5 -47.5t-95.5 -17.5z" />
    <glyph glyph-name="uni0406" unicode="&#x406;" horiz-adv-x="200" 
d="M145 716h36l-127 -716h-36z" />
    <glyph glyph-name="uni0407" unicode="&#x407;" horiz-adv-x="200" 
d="M108 824q-14 0 -23 9t-9 23t9 23t23 9t23 -9t9 -23t-9 -23t-23 -9zM216 856q0 14 9 23t23 9t23 -9t9 -23t-9 -23t-23 -9t-23 9t-9 23zM145 716h36l-127 -716h-36z" />
    <glyph glyph-name="uni0408" unicode="&#x408;" horiz-adv-x="503" 
d="M172 -16q-70 0 -119.5 41.5t-60.5 125.5l30 11q16 -80 55 -112t99 -32q79 0 130 48.5t68 144.5l89 505h36l-90 -511q-18 -105 -81 -163t-156 -58z" />
    <glyph glyph-name="uni0409" unicode="&#x409;" horiz-adv-x="1048" 
d="M222 716h450l-58 -329h187q41 0 75.5 -12t59 -34t38.5 -53t14 -70q0 -48 -18 -88t-50.5 -69t-78.5 -45t-102 -16h-229l120 682h-378l-91 -516q-8 -49 -25.5 -84.5t-41.5 -55.5q-40 -34 -97 -34q-7 0 -16 0.5t-17 2.5l7 36q5 -2 14 -3.5t17 -1.5q44 0 71 27q12 12 20.5 25
t15.5 30.5t12.5 40t10.5 52.5zM746 34q45 0 82.5 13.5t64.5 37t42 56t15 70.5q0 37 -11.5 63.5t-32 44t-48 26t-59.5 8.5h-191l-56 -319h194z" />
    <glyph glyph-name="uni040A" unicode="&#x40a;" horiz-adv-x="995" 
d="M519 353h-402l-63 -353h-36l127 716h36l-58 -329h402l58 329h36l-58 -329h187q41 0 75.5 -12t59 -34t38.5 -53t14 -70q0 -48 -18 -88t-50.5 -69t-78.5 -45t-102 -16h-229zM693 34q45 0 82.5 13.5t64.5 37t42 56t15 70.5q0 37 -11.5 63.5t-32 44t-48 26t-59.5 8.5h-191
l-56 -319h194z" />
    <glyph glyph-name="uni040B" unicode="&#x40b;" horiz-adv-x="724" 
d="M565 0l40 225q4 20 4 43q0 29 -8 54.5t-24.5 44t-42 29t-61.5 10.5q-58 0 -115 -35.5t-104 -92.5l-49 -278h-36l121 682h-206l6 34h448l-6 -34h-206l-47 -263l-19 -88h4q42 49 98 78t118 29q80 0 123 -44t43 -119q0 -11 -1.5 -24t-3.5 -27l-40 -224h-36z" />
    <glyph glyph-name="uni040C" unicode="&#x40c;" horiz-adv-x="551" 
d="M145 716h36l-65 -364h4l437 364h50l-1 -4l-441 -367l315 -341l-1 -4h-47l-313 342h-4l-61 -342h-36zM326 780l71 120h49l-82 -120h-38z" />
    <glyph glyph-name="uni040D" unicode="&#x40d;" horiz-adv-x="678" 
d="M532 0h-36l96 540l28 138h-4l-560 -678h-38l127 716h36l-91 -514l-28 -138h4l538 652h55zM383 780l-42 120h45l29 -120h-32z" />
    <glyph glyph-name="uni040E" unicode="&#x40e;" horiz-adv-x="555" 
d="M227 98q-31 -50 -67 -82t-87 -32q-24 0 -40.5 5t-29.5 11l16 33q9 -6 23 -10.5t34 -4.5q29 0 54.5 18t51.5 60l42 67l-147 553h38l134 -507h4l311 507h42zM339 782q-18 0 -36 7t-32 19.5t-22.5 30t-8.5 38.5q0 9 2 19h36q-1 -6 -1 -8v-7q0 -27 17 -47t50 -20q19 0 35.5 7
t29 18.5t20.5 26t11 30.5h34q-8 -54 -44 -84t-91 -30z" />
    <glyph glyph-name="uni040F" unicode="&#x40f;" horiz-adv-x="654" 
d="M231 -152l27 152h-226l126 716h36l-120 -682h418l120 682h36l-126 -716h-226l-27 -152h-38z" />
    <glyph glyph-name="uni0410" unicode="&#x410;" horiz-adv-x="638" 
d="M360 716h44l157 -716h-35l-48 220h-362l-125 -220h-41zM470 254l-92 418h-4l-238 -418h334z" />
    <glyph glyph-name="uni0411" unicode="&#x411;" horiz-adv-x="580" 
d="M341 388q39 0 72 -12.5t56 -35t36 -52.5t13 -66q0 -47 -18 -87.5t-49.5 -70.5t-74.5 -47t-94 -17h-264l127 716h379l-6 -34h-343l-52 -294h218zM289 34q39 0 74 14.5t61 39t41.5 58t15.5 72.5q0 61 -39.5 98.5t-104.5 37.5h-220l-57 -320h229z" />
    <glyph glyph-name="uni0412" unicode="&#x412;" horiz-adv-x="580" 
d="M145 716h241q38 0 69 -12.5t53 -34.5t34 -52t12 -64q0 -33 -12 -62t-31 -53t-44 -42t-50 -27l-1 -4q42 -16 72 -56t30 -99q0 -42 -17.5 -80t-49.5 -67t-76.5 -46t-97.5 -17h-259zM331 383q35 0 68 13t59 35.5t42 52t16 63.5q0 63 -36 99t-98 36h-207l-53 -299h209z
M283 34q42 0 78 14.5t63 38.5t42 55t15 64q0 63 -40.5 103t-110.5 40h-214l-56 -315h223z" />
    <glyph glyph-name="uni0413" unicode="&#x413;" horiz-adv-x="483" 
d="M145 716h374l-6 -34h-338l-121 -682h-36z" />
    <glyph glyph-name="uni0414" unicode="&#x414;" horiz-adv-x="730" 
d="M-31 -152l32 186h38q39 23 70.5 63.5t55.5 91t41 107t27 112.5l54 308h426l-120 -682h48l-33 -186h-34l27 152h-572l-27 -152h-33zM269 407q-23 -136 -67.5 -228.5t-107.5 -144.5h463l114 648h-354z" />
    <glyph glyph-name="uni0415" unicode="&#x415;" horiz-adv-x="531" 
d="M175 682l-55 -307h322l-5 -34h-322l-55 -307h354l-6 -34h-390l127 716h390l-6 -34h-354z" />
    <glyph glyph-name="uni0416" unicode="&#x416;" horiz-adv-x="798" 
d="M444 716h36l-65 -364h4l394 364h44l-1 -4l-394 -366l267 -342l-1 -4h-39l-271 342h-4l-61 -342h-36l61 342h-4l-391 -342h-44l1 4l393 349l-263 359l1 4h40l264 -364h4z" />
    <glyph glyph-name="uni0417" unicode="&#x417;" horiz-adv-x="530" 
d="M211 -16q-35 0 -69 12.5t-62 35t-48 54t-27 69.5l32 14q17 -73 67 -112t112 -39q43 0 80.5 13.5t65.5 38t44 58t16 73.5q0 34 -12.5 62.5t-34.5 49.5t-52 33t-66 12h-54l5 34h59q40 0 75.5 12.5t61.5 35t41.5 54t15.5 68.5q0 27 -10 52t-29 43.5t-46.5 29.5t-62.5 11
t-64.5 -10.5t-52.5 -28.5t-40 -40.5t-27 -46.5l-30 14q12 29 31.5 55.5t47.5 46.5t63.5 32t77.5 12t75 -14t56 -37.5t35 -53.5t12 -62q0 -37 -12 -68t-32 -55.5t-47.5 -41t-57.5 -25.5l-1 -4q22 -9 42 -24t35.5 -35.5t24.5 -46.5t9 -56q0 -48 -19 -89.5t-52 -71.5t-78.5 -47
t-97.5 -17z" />
    <glyph glyph-name="uni0418" unicode="&#x418;" horiz-adv-x="678" 
d="M532 0h-36l96 540l28 138h-4l-560 -678h-38l127 716h36l-91 -514l-28 -138h4l538 652h55z" />
    <glyph glyph-name="uni0419" unicode="&#x419;" horiz-adv-x="678" 
d="M400 782q-18 0 -36 7t-32 19.5t-22.5 30t-8.5 38.5q0 9 2 19h36q-1 -6 -1 -8v-7q0 -27 17 -47t50 -20q19 0 35.5 7t29 18.5t20.5 26t11 30.5h34q-8 -54 -44 -84t-91 -30zM532 0h-36l96 540l28 138h-4l-560 -678h-38l127 716h36l-91 -514l-28 -138h4l538 652h55z" />
    <glyph glyph-name="uni041A" unicode="&#x41a;" horiz-adv-x="551" 
d="M145 716h36l-65 -364h4l437 364h50l-1 -4l-441 -367l315 -341l-1 -4h-47l-313 342h-4l-61 -342h-36z" />
    <glyph glyph-name="uni041B" unicode="&#x41b;" horiz-adv-x="691" 
d="M2 26q44 0 71 27q12 12 20.5 25t15.5 30.5t12.5 40t10.5 52.5l90 515h450l-126 -716h-36l120 682h-378l-91 -516q-8 -49 -25.5 -84.5t-41.5 -55.5q-40 -34 -97 -34q-7 0 -16 0.5t-17 2.5l7 36q5 -2 14 -3.5t17 -1.5z" />
    <glyph glyph-name="uni041C" unicode="&#x41c;" horiz-adv-x="820" 
d="M145 716h33l201 -510h4l382 510h36l-127 -716h-34l93 528l26 120h-4l-371 -496h-20l-197 496h-4l-18 -120l-93 -528h-34z" />
    <glyph glyph-name="uni041D" unicode="&#x41d;" horiz-adv-x="678" 
d="M145 716h36l-59 -333h442l59 333h36l-127 -716h-36l62 349h-442l-62 -349h-36z" />
    <glyph glyph-name="uni041E" unicode="&#x41e;" horiz-adv-x="808" 
d="M353 -16q-70 0 -128 25.5t-100 70t-65.5 105t-23.5 130.5q0 85 31.5 161t87.5 133t132.5 90t167.5 33q70 0 128 -25.5t100 -70t65.5 -105t23.5 -130.5q0 -86 -31.5 -161.5t-87.5 -132.5t-132.5 -90t-167.5 -33zM357 18q81 0 150.5 30.5t120 82.5t79.5 120.5t29 145.5
q0 66 -21 121.5t-59 95t-90 62t-115 22.5q-81 0 -150.5 -30.5t-120 -82.5t-79.5 -121t-29 -145q0 -66 21 -121.5t59 -95t90 -62t115 -22.5z" />
    <glyph glyph-name="uni041F" unicode="&#x41f;" horiz-adv-x="654" 
d="M145 716h490l-127 -716h-36l121 682h-418l-121 -682h-36z" />
    <glyph glyph-name="uni0420" unicode="&#x420;" horiz-adv-x="549" 
d="M18 0l127 716h216q43 0 78 -12.5t60 -36t39 -57t14 -75.5q0 -50 -19.5 -92t-54.5 -72.5t-82.5 -47.5t-103.5 -17h-184l-54 -306h-36zM296 340q50 0 90.5 14.5t69 40.5t44 62t15.5 79q0 37 -13 64.5t-34.5 45.5t-49.5 27t-59 9h-184l-61 -342h182z" />
    <glyph glyph-name="uni0421" unicode="&#x421;" horiz-adv-x="720" 
d="M638 116q-54 -60 -125 -96t-175 -36q-62 0 -117 23t-96 65t-65 102t-24 135q0 85 33 161.5t90 134.5t134 92.5t165 34.5q90 0 149 -32.5t98 -88.5l-31 -21q-35 55 -92 81.5t-129 26.5q-80 0 -149 -32.5t-121 -86.5t-81.5 -124.5t-29.5 -146.5q0 -66 21.5 -119.5t58 -91.5
t85.5 -58.5t104 -20.5q47 0 85 8.5t70 24.5t60.5 38.5t56.5 51.5z" />
    <glyph glyph-name="uni0422" unicode="&#x422;" horiz-adv-x="502" 
d="M169 0l121 682h-206l6 34h448l-6 -34h-206l-121 -682h-36z" />
    <glyph glyph-name="uni0423" unicode="&#x423;" horiz-adv-x="555" 
d="M227 98q-31 -50 -67 -82t-87 -32q-24 0 -40.5 5t-29.5 11l16 33q9 -6 23 -10.5t34 -4.5q29 0 54.5 18t51.5 60l42 67l-147 553h38l134 -507h4l311 507h42z" />
    <glyph glyph-name="uni0424" unicode="&#x424;" horiz-adv-x="784" 
d="M320 56q-64 2 -116 22.5t-89.5 56t-58 83.5t-20.5 105q0 77 32.5 139t86.5 106t124.5 67.5t147.5 24.5l18 104h36l-18 -104q64 -2 116 -22.5t89.5 -56t58 -83.5t20.5 -105q0 -77 -32.5 -139t-86.5 -106t-124.5 -67.5t-147.5 -24.5l-18 -104h-36zM362 90q65 0 127.5 20.5
t111.5 59t79 94t30 125.5q0 53 -18 95.5t-51 73t-79.5 48t-104.5 20.5zM421 626q-65 0 -127.5 -20.5t-111.5 -59t-79 -94t-30 -125.5q0 -53 18 -95.5t51 -73t79.5 -48t104.5 -20.5z" />
    <glyph glyph-name="uni0425" unicode="&#x425;" horiz-adv-x="592" 
d="M273 372l-178 344h44l160 -313h4l273 313h49l-304 -346l189 -370h-42l-173 338h-4l-289 -338h-47z" />
    <glyph glyph-name="uni0426" unicode="&#x426;" horiz-adv-x="643" 
d="M484 -168l29 168h-480l126 716h36l-120 -682h394l120 682h36l-120 -682h50l-35 -202h-36z" />
    <glyph glyph-name="uni0427" unicode="&#x427;" horiz-adv-x="570" 
d="M538 716h36l-127 -716h-36l65 366q-45 -47 -98.5 -76.5t-129.5 -29.5q-39 0 -73 11.5t-59 33.5t-39.5 54.5t-14.5 74.5q0 15 2 29t4 27l40 226h36l-42 -236q-2 -11 -3 -22t-1 -21q0 -72 42.5 -107.5t111.5 -35.5q40 0 74 10.5t62.5 28t52.5 40.5t45 48z" />
    <glyph glyph-name="uni0428" unicode="&#x428;" horiz-adv-x="888" 
d="M145 716h36l-121 -682h308l121 682h36l-121 -682h308l121 682h36l-127 -716h-724z" />
    <glyph glyph-name="uni0429" unicode="&#x429;" horiz-adv-x="901" 
d="M144 716h36l-120 -682h308l120 682h36l-120 -682h308l120 682h36l-120 -682h50l-35 -202h-36l29 168h-738z" />
    <glyph glyph-name="uni042A" unicode="&#x42a;" horiz-adv-x="707" 
d="M257 428h198q44 0 80 -14.5t61.5 -39.5t39.5 -58.5t14 -72.5q0 -53 -18.5 -97.5t-52.5 -76.5t-83 -50.5t-109 -18.5h-242l121 682h-182l6 34h218zM397 34q47 0 86.5 15.5t68 42.5t44.5 64.5t16 82.5q0 33 -12 61.5t-33 49.5t-50.5 32.5t-64.5 11.5h-201l-64 -360h210z
" />
    <glyph glyph-name="uni042B" unicode="&#x42b;" horiz-adv-x="770" 
d="M715 716h36l-127 -716h-36zM130 428h198q44 0 80 -14.5t61.5 -39.5t39.5 -58.5t14 -72.5q0 -53 -18.5 -97.5t-52.5 -76.5t-83 -50.5t-109 -18.5h-242l127 716h36zM270 34q47 0 86.5 15.5t68 42.5t44.5 64.5t16 82.5q0 33 -12 61.5t-33 49.5t-50.5 32.5t-64.5 11.5h-201
l-64 -360h210z" />
    <glyph glyph-name="uni042C" unicode="&#x42c;" horiz-adv-x="580" 
d="M130 428h198q44 0 80 -14.5t61.5 -39.5t39.5 -58.5t14 -72.5q0 -53 -18.5 -97.5t-52.5 -76.5t-83 -50.5t-109 -18.5h-242l127 716h36zM270 34q47 0 86.5 15.5t68 42.5t44.5 64.5t16 82.5q0 33 -12 61.5t-33 49.5t-50.5 32.5t-64.5 11.5h-201l-64 -360h210z" />
    <glyph glyph-name="uni042D" unicode="&#x42d;" horiz-adv-x="720" 
d="M28 140q42 -54 101.5 -88t140.5 -34q72 0 136.5 26.5t114 71.5t82 103.5t41.5 121.5h-373l5 34h371q1 5 1 8v4q0 70 -20 127t-56 98t-86 63.5t-111 22.5q-72 0 -132 -28t-111 -81l-26 25q53 56 121.5 87t153.5 31q69 0 125 -25.5t95.5 -70.5t61 -107t21.5 -136
q0 -80 -32 -154t-88.5 -130.5t-133 -90.5t-165.5 -34q-45 0 -85 11t-74 29t-61 42.5t-45 51.5z" />
    <glyph glyph-name="uni042E" unicode="&#x42e;" horiz-adv-x="1067" 
d="M613 -16q-70 0 -128 25.5t-100 70t-65.5 105t-23.5 130.5v15t1 19h-181l-62 -349h-36l127 716h36l-59 -333h179q12 73 47.5 137t89.5 111t124.5 74t152.5 27q70 0 128 -25.5t100 -70t65.5 -105t23.5 -130.5q0 -86 -31.5 -161.5t-87.5 -132.5t-132.5 -90t-167.5 -33z
M617 18q81 0 150.5 30.5t120 82.5t79.5 120.5t29 145.5q0 66 -21 121.5t-59 95t-90 62t-115 22.5q-81 0 -150.5 -30.5t-120 -82.5t-79.5 -121t-29 -145q0 -66 21 -121.5t59 -95t90 -62t115 -22.5z" />
    <glyph glyph-name="uni042F" unicode="&#x42f;" horiz-adv-x="585" 
d="M439 0h-36l54 306h-179l-264 -306h-40l1 4l261 305l-2 3q-31 7 -58 23t-47 39t-31.5 52t-11.5 64q0 44 18.5 85t51.5 72.5t79.5 50t102.5 18.5h228zM463 340l61 342h-191q-41 0 -79.5 -14t-67.5 -39t-46.5 -59.5t-17.5 -75.5q0 -34 13 -62.5t36 -48.5t53 -31.5t65 -11.5
h174z" />
    <glyph glyph-name="uni0430" unicode="&#x430;" horiz-adv-x="501" 
d="M366 101h-4q-36 -55 -90.5 -86t-122.5 -31q-36 0 -65 11.5t-49 32t-31 47.5t-11 57q0 42 17.5 74.5t48 54.5t72 33.5t88.5 11.5q52 0 98.5 -14t76.5 -33l8 42q3 19 3 38q0 64 -39.5 99.5t-106.5 35.5q-24 0 -48.5 -6t-46.5 -17.5t-40.5 -27.5t-31.5 -36l-28 19
q32 49 85 74.5t115 25.5q41 0 74 -12t56 -33.5t35.5 -52t12.5 -67.5q0 -11 -1 -20.5t-3 -20.5l-53 -300h-36zM388 225q-35 23 -76.5 36t-96.5 13q-38 0 -71.5 -9t-59.5 -27t-41 -45t-15 -63q0 -55 37.5 -84.5t91.5 -29.5q41 0 79.5 17t70 46t53 66.5t28.5 79.5z" />
    <glyph glyph-name="uni0431" unicode="&#x431;" horiz-adv-x="578" 
d="M420 651q-64 0 -113 -18t-89 -51q-45 -38 -75.5 -91.5t-46.5 -116.5h4q39 62 97 97t133 35q45 0 82.5 -16t63.5 -45.5t40.5 -70t14.5 -89.5q0 -57 -19.5 -111.5t-55.5 -96.5t-87 -67.5t-114 -25.5q-44 0 -82.5 16.5t-67 49t-45 79.5t-16.5 108q0 52 9 104.5t28 101.5
t49 92t71 75q44 34 99 53.5t129 19.5q30 0 50.5 3t33.5 9t20 15.5t12 22.5h36q-7 -23 -18.5 -38.5t-30 -25t-46 -14t-66.5 -4.5zM321 474q-50 0 -94 -21.5t-76 -57.5t-50.5 -82t-18.5 -94q0 -44 13 -81.5t37 -64.5t57.5 -42t73.5 -15q53 0 96 23t73 60.5t46.5 85t16.5 97.5
q0 90 -47.5 141t-126.5 51z" />
    <glyph glyph-name="uni0432" unicode="&#x432;" horiz-adv-x="474" 
d="M344 249q29 -14 47 -40.5t18 -59.5t-13 -60.5t-36 -47t-54.5 -30.5t-67.5 -11h-238l86 490h217q30 0 54 -9.5t40.5 -25.5t25.5 -36.5t9 -42.5q0 -46 -26 -78t-61 -44zM77 234l-36 -202h202q28 0 51.5 8t41 23t27.5 35.5t10 46.5q0 42 -27.5 65.5t-66.5 23.5h-202z
M116 458l-34 -192h194q24 0 46 8t38 21.5t25.5 32.5t9.5 40q0 41 -28.5 65.5t-70.5 24.5h-180z" />
    <glyph glyph-name="uni0433" unicode="&#x433;" horiz-adv-x="388" 
d="M86 490h298l-6 -32h-262l-81 -458h-35z" />
    <glyph glyph-name="uni0434" unicode="&#x434;" horiz-adv-x="580" 
d="M-13 32h44q17 10 32.5 29.5t28.5 45.5t23.5 58t16.5 67l45 258h360l-81 -458h48l-32 -184h-36l27 152h-446l-26 -152h-36zM420 32l76 426h-288l-41 -230q-14 -80 -35.5 -123.5t-49.5 -72.5h338z" />
    <glyph glyph-name="uni0435" unicode="&#x435;" horiz-adv-x="520" 
d="M436 116q-17 -28 -38.5 -52t-48.5 -42t-60.5 -28t-74.5 -10q-44 0 -81.5 15.5t-65.5 44t-44 70t-16 93.5t19.5 105.5t55 96.5t86 70t112.5 27q49 0 86 -15t61.5 -42t36.5 -63.5t12 -78.5q0 -38 -8 -67h-421q-3 -17 -3 -41q0 -42 14.5 -76t38.5 -58t55 -36.5t64 -12.5
q36 0 65 9t52.5 24.5t42 37t33.5 46.5zM439 272q1 8 1.5 16t0.5 16q0 28 -8 58t-26.5 55t-50 41t-77.5 16q-35 0 -70.5 -13.5t-66.5 -39t-54.5 -63.5t-34.5 -86h386z" />
    <glyph glyph-name="uni0436" unicode="&#x436;" horiz-adv-x="608" 
d="M223 0l45 253h-4l-287 -253h-44l1 4l293 257l-192 225l1 4h40l190 -227h4l40 227h34l-40 -227h4l269 227h46l-1 -4l-275 -231l197 -251l-1 -4h-38l-199 253h-4l-45 -253h-34z" />
    <glyph glyph-name="uni0437" unicode="&#x437;" horiz-adv-x="458" 
d="M169 -16q-24 0 -49 6t-48.5 18t-43 28.5t-31.5 37.5l29 22q27 -42 65 -60t84 -18q26 0 55.5 6t54.5 20t41.5 37t16.5 58q0 18 -7 35t-21.5 30.5t-36.5 22t-52 8.5h-68l6 32h65q24 0 48.5 6.5t45 20t33.5 34.5t13 50q0 18 -8.5 35t-24.5 30.5t-38.5 22t-50.5 8.5
q-40 0 -76.5 -18t-70.5 -58l-25 22q37 46 82.5 66t91.5 20q34 0 62.5 -9.5t49.5 -27t33 -41t12 -50.5q0 -47 -31.5 -79t-74.5 -46l-1 -4q35 -12 57.5 -41.5t22.5 -67.5q0 -41 -18 -70t-48 -48.5t-67.5 -28.5t-76.5 -9z" />
    <glyph glyph-name="uni0438" unicode="&#x438;" horiz-adv-x="532" 
d="M405 0h-36l60 340l21 96h-4l-408 -436h-38l86 490h36l-60 -340l-21 -96h4l408 436h39z" />
    <glyph glyph-name="uni0439" unicode="&#x439;" horiz-adv-x="532" 
d="M405 0h-36l60 340l21 96h-4l-408 -436h-38l86 490h36l-60 -340l-21 -96h4l408 436h39zM312 583q-18 0 -36 7t-32 19.5t-22.5 30t-8.5 38.5q0 9 2 19h36q-1 -6 -1 -8v-7q0 -27 17 -47t50 -20q19 0 35.5 7t29 18.5t20.5 26t11 30.5h34q-8 -54 -44 -84t-91 -30z" />
    <glyph glyph-name="uni043A" unicode="&#x43a;" horiz-adv-x="411" 
d="M122 490l-40 -228h4l290 228h51l-1 -4l-295 -231l215 -251l-1 -4h-44l-217 252h-4l-45 -252h-35l86 490h36z" />
    <glyph glyph-name="uni043B" unicode="&#x43b;" horiz-adv-x="580" 
d="M-8 34q8 -4 15 -6t16 -2q35 0 52.5 36.5t30.5 107.5l56 320h378l-86 -490h-36l81 458h-306l-53 -298q-9 -48 -21 -80.5t-27 -52t-32.5 -27.5t-38.5 -8q-14 0 -23 2.5t-14 5.5z" />
    <glyph glyph-name="uni043C" unicode="&#x43c;" horiz-adv-x="643" 
d="M484 0l61 345l21 96h-4l-272 -377h-41l-140 377h-4l-13 -96l-61 -345h-35l86 490h45l144 -392h3l283 392h50l-87 -490h-36z" />
    <glyph glyph-name="uni043D" unicode="&#x43d;" horiz-adv-x="532" 
d="M369 0l43 241h-334l-43 -241h-35l86 490h36l-38 -217h334l38 217h36l-87 -490h-36z" />
    <glyph glyph-name="uni043E" unicode="&#x43e;" horiz-adv-x="548" 
d="M291 506q44 0 83 -16.5t67.5 -46.5t45 -71.5t16.5 -90.5q0 -57 -20 -110.5t-57 -95t-89.5 -66.5t-116.5 -25q-44 0 -83 16.5t-67.5 46.5t-45 71t-16.5 91q0 57 20 110.5t57 95t89 66.5t117 25zM224 16q53 0 97.5 22t77 58.5t50.5 84t18 98.5q0 42 -14 77.5t-38.5 61.5
t-57.5 41t-70 15q-53 0 -97.5 -22t-77 -58.5t-50.5 -84t-18 -98.5q0 -42 14 -77.5t38.5 -61.5t57 -41t70.5 -15z" />
    <glyph glyph-name="uni043F" unicode="&#x43f;" horiz-adv-x="512" 
d="M385 0h-36l81 458h-313l-81 -458h-36l86 490h386z" />
    <glyph glyph-name="uni0440" unicode="&#x440;" horiz-adv-x="558" 
d="M101 490h32l-17 -99h4q15 23 36.5 44t48 36.5t58 25t67.5 9.5q93 0 147 -58t54 -161q0 -59 -20 -114t-57 -97t-88.5 -67t-114.5 -25q-36 0 -66 10.5t-52.5 27.5t-38 39.5t-24.5 46.5h-4l-8 -68l-46 -256h-35zM254 16q57 0 102 24.5t75.5 62.5t47 85.5t16.5 94.5t-13 82.5
t-35.5 59.5t-53.5 36.5t-67 12.5q-53 0 -96.5 -23.5t-74.5 -62t-48.5 -88.5t-17.5 -103q0 -41 13 -74.5t35 -57t52 -36.5t65 -13z" />
    <glyph glyph-name="uni0441" unicode="&#x441;" horiz-adv-x="504" 
d="M436 120q-38 -69 -90.5 -102.5t-130.5 -33.5q-45 0 -82.5 17.5t-65.5 47.5t-43.5 70.5t-15.5 87.5q0 58 21 112t58.5 95.5t90 66.5t115.5 25q75 0 119.5 -36.5t67.5 -101.5l-34 -15q-20 58 -56 89.5t-99 31.5q-52 0 -97 -22t-78.5 -58.5t-52.5 -85t-19 -101.5
q0 -43 14 -78.5t38 -60.5t56 -38.5t67 -13.5q66 0 110 30t77 90z" />
    <glyph glyph-name="uni0442" unicode="&#x442;" horiz-adv-x="407" 
d="M50 490h376l-6 -32h-170l-81 -458h-36l81 458h-170z" />
    <glyph glyph-name="uni0443" unicode="&#x443;" horiz-adv-x="458" 
d="M17 -216l160 260l-129 446h39l115 -403h2l247 403h43l-436 -706h-41z" />
    <glyph glyph-name="uni0444" unicode="&#x444;" horiz-adv-x="724" 
d="M261 -216l36 200q-57 2 -105 18.5t-82.5 45.5t-54 70.5t-19.5 93.5q0 70 28.5 124.5t77 92t112.5 57t135 20.5l37 210h36l-37 -210q57 -2 105 -18.5t82.5 -45.5t54 -70.5t19.5 -93.5q0 -71 -28.5 -125t-77 -91.5t-112.5 -57t-135 -20.5l-36 -200h-36zM383 472
q-61 -2 -117 -18.5t-99 -48.5t-68.5 -79t-25.5 -109q0 -48 17 -84.5t47.5 -61t72.5 -38t93 -15.5zM339 18q61 2 117 18.5t99 48.5t68.5 79t25.5 109q0 48 -17 84.5t-47.5 61t-72.5 38t-93 15.5z" />
    <glyph glyph-name="uni0445" unicode="&#x445;" horiz-adv-x="422" 
d="M310 0l-122 222l-196 -222h-46l224 252l-128 238h42l111 -211l187 211h46l-216 -241l137 -249h-39z" />
    <glyph glyph-name="uni0446" unicode="&#x446;" 
d="M371 -152l27 152h-398l86 490h36l-81 -458h314l81 458h36l-81 -458h48l-32 -184h-36z" />
    <glyph glyph-name="uni0447" unicode="&#x447;" horiz-adv-x="483" 
d="M192 190q60 0 103 23t74 65l38 212h36l-87 -490h-36l40 225q-36 -37 -81.5 -52t-94.5 -15q-69 0 -111 40.5t-42 110.5q0 11 1 22t3 23l24 136h36l-25 -139q-2 -8 -3 -19.5t-1 -21.5q0 -31 10 -53.5t27 -37.5t40 -22t49 -7z" />
    <glyph glyph-name="uni0448" unicode="&#x448;" horiz-adv-x="745" 
d="M321 32h244l81 458h36l-87 -490h-595l86 490h36l-81 -458h244l81 458h36z" />
    <glyph glyph-name="uni0449" unicode="&#x449;" horiz-adv-x="761" 
d="M86 490h36l-81 -458h244l81 458h36l-81 -458h244l81 458h36l-81 -458h48l-32 -184h-36l27 152h-608z" />
    <glyph glyph-name="uni044A" unicode="&#x44a;" horiz-adv-x="550" 
d="M164 300h179q32 0 58.5 -10.5t46 -29t30 -43t10.5 -52.5q0 -35 -11.5 -65t-34 -52.5t-55 -35t-74.5 -12.5h-238l81 458h-112l6 32h148zM159 268l-42 -236h200q61 0 98 35t37 96q0 22 -8 41.5t-22.5 33.5t-34.5 22t-44 8h-184z" />
    <glyph glyph-name="uni044B" unicode="&#x44b;" horiz-adv-x="659" 
d="M496 0l87 490h36l-87 -490h-36zM89 300h179q32 0 58.5 -10.5t46 -29t30 -43t10.5 -52.5q0 -35 -11.5 -65t-34 -52.5t-55 -35t-74.5 -12.5h-238l86 490h37zM84 268l-42 -236h200q61 0 98 35t37 96q0 22 -8 41.5t-22.5 33.5t-34.5 22t-44 8h-184z" />
    <glyph glyph-name="uni044C" unicode="&#x44c;" horiz-adv-x="474" 
d="M89 300h179q32 0 58.5 -10.5t46 -29t30 -43t10.5 -52.5q0 -35 -11.5 -65t-34 -52.5t-55 -35t-74.5 -12.5h-238l86 490h37zM84 268l-42 -236h200q61 0 98 35t37 96q0 22 -8 41.5t-22.5 33.5t-34.5 22t-44 8h-184z" />
    <glyph glyph-name="uni044D" unicode="&#x44d;" horiz-adv-x="502" 
d="M184 16q48 0 87.5 17t69 46t49 67.5t26.5 82.5h-245l6 32h242q1 8 1 11v7q0 45 -13.5 81t-37 61.5t-55.5 39t-68 13.5q-60 0 -107 -32.5t-79 -89.5l-30 16q34 66 90 102t128 36q47 0 85.5 -16.5t66 -46.5t42.5 -71t15 -90q0 -57 -19 -111t-54.5 -95.5t-87 -66.5
t-116.5 -25q-72 0 -123.5 37.5t-69.5 100.5l33 12q40 -118 164 -118z" />
    <glyph glyph-name="uni044E" unicode="&#x44e;" horiz-adv-x="742" 
d="M485 506q44 0 83 -16.5t67.5 -46.5t45 -71.5t16.5 -90.5q0 -57 -20 -110.5t-57 -95t-89.5 -66.5t-116.5 -25q-44 0 -83 16.5t-67.5 46.5t-45 71t-16.5 91v15h-117l-39 -224h-36l86 490h36l-41 -234h115q7 50 30 95t59 79.5t84 55t106 20.5zM418 16q53 0 97.5 22t77 58.5
t50.5 84t18 98.5q0 42 -14 77.5t-38.5 61.5t-57.5 41t-70 15q-53 0 -97.5 -22t-77 -58.5t-50.5 -84t-18 -98.5q0 -42 14 -77.5t38.5 -61.5t57 -41t70.5 -15z" />
    <glyph glyph-name="uni044F" unicode="&#x44f;" horiz-adv-x="465" 
d="M-59 0l1 5l187 191l-3 4q-19 4 -38.5 14.5t-35 27t-25.5 38.5t-10 49q0 34 14 63.5t38 51.5t57 34t72 12h227l-87 -490h-36l35 196h-162l-191 -196h-43zM196 458q-28 0 -53.5 -9.5t-45 -27t-31 -41t-11.5 -50.5q0 -26 9.5 -45t25.5 -32t37 -19t44 -6h172l40 230h-187z
" />
    <glyph glyph-name="uni0450" unicode="&#x450;" horiz-adv-x="520" 
d="M436 116q-17 -28 -38.5 -52t-48.5 -42t-60.5 -28t-74.5 -10q-44 0 -81.5 15.5t-65.5 44t-44 70t-16 93.5t19.5 105.5t55 96.5t86 70t112.5 27q49 0 86 -15t61.5 -42t36.5 -63.5t12 -78.5q0 -38 -8 -67h-421q-3 -17 -3 -41q0 -42 14.5 -76t38.5 -58t55 -36.5t64 -12.5
q36 0 65 9t52.5 24.5t42 37t33.5 46.5zM439 272q1 8 1.5 16t0.5 16q0 28 -8 58t-26.5 55t-50 41t-77.5 16q-35 0 -70.5 -13.5t-66.5 -39t-54.5 -63.5t-34.5 -86h386zM286 596l-42 120h45l29 -120h-32z" />
    <glyph glyph-name="uni0451" unicode="&#x451;" horiz-adv-x="520" 
d="M436 116q-17 -28 -38.5 -52t-48.5 -42t-60.5 -28t-74.5 -10q-44 0 -81.5 15.5t-65.5 44t-44 70t-16 93.5t19.5 105.5t55 96.5t86 70t112.5 27q49 0 86 -15t61.5 -42t36.5 -63.5t12 -78.5q0 -38 -8 -67h-421q-3 -17 -3 -41q0 -42 14.5 -76t38.5 -58t55 -36.5t64 -12.5
q36 0 65 9t52.5 24.5t42 37t33.5 46.5zM439 272q1 8 1.5 16t0.5 16q0 28 -8 58t-26.5 55t-50 41t-77.5 16q-35 0 -70.5 -13.5t-66.5 -39t-54.5 -63.5t-34.5 -86h386zM241 627q-14 0 -23 9t-9 23t9 23t23 9t23 -9t9 -23t-9 -23t-23 -9zM349 659q0 14 9 23t23 9t23 -9t9 -23
t-9 -23t-23 -9t-23 9t-9 23z" />
    <glyph glyph-name="uni0452" unicode="&#x452;" 
d="M104 592h-66l6 32h66l16 92h36l-16 -92h174l-5 -32h-175l-24 -135l-20 -88h4q35 63 89 100t126 37q38 0 66 -12t46 -32.5t27 -48.5t9 -61q0 -11 -1 -24t-3 -22l-74 -424q-8 -45 -36.5 -76.5t-77.5 -31.5q-15 0 -27.5 3t-18.5 7l13 32q6 -4 15 -7t20 -3q31 0 50 22t27 63
l73 414q4 23 4 48q0 52 -29 86.5t-89 34.5q-39 0 -76.5 -18.5t-69 -51.5t-54.5 -77.5t-32 -96.5l-41 -230h-36z" />
    <glyph glyph-name="uni0453" unicode="&#x453;" horiz-adv-x="388" 
d="M86 490h298l-6 -32h-262l-81 -458h-35zM225 596l71 120h49l-82 -120h-38z" />
    <glyph glyph-name="uni0454" unicode="&#x454;" horiz-adv-x="527" 
d="M303 474q-45 0 -85.5 -17t-72 -46t-53 -67.5t-29.5 -82.5h246l-6 -32h-243q-1 -7 -1 -9v-8q0 -48 14 -84.5t37.5 -61.5t54 -37.5t63.5 -12.5q66 0 114.5 31.5t79.5 88.5l28 -14q-35 -69 -92.5 -103.5t-131.5 -34.5q-42 0 -78.5 15.5t-64.5 44.5t-44 70.5t-16 92.5
q0 60 21 114t58.5 95t89.5 65.5t114 24.5q81 0 125.5 -38t62.5 -100l-34 -14q-15 58 -54.5 89t-102.5 31z" />
    <glyph glyph-name="uni0455" unicode="&#x455;" horiz-adv-x="441" 
d="M175 -16q-39 0 -70.5 11.5t-55.5 31t-39.5 45t-21.5 53.5l33 14q15 -57 55.5 -90t103.5 -33q29 0 57.5 6.5t51 20.5t36.5 35.5t14 51.5q0 35 -26.5 59.5t-83.5 41.5l-48 14q-27 8 -50.5 19.5t-41 27t-27.5 35.5t-10 45q0 31 14.5 55.5t39.5 42t58.5 27t72.5 9.5
q64 0 109 -27.5t64 -87.5l-33 -13q-13 46 -50 71t-91 25q-30 0 -56.5 -6.5t-47 -19t-32.5 -31.5t-12 -43q0 -39 30 -62t75 -36l58 -17q58 -17 91.5 -48t33.5 -77q0 -35 -16 -63t-44 -47.5t-64.5 -29.5t-76.5 -10z" />
    <glyph glyph-name="uni0456" unicode="&#x456;" horiz-adv-x="170" 
d="M3 0l87 490h36l-87 -490h-36zM138 625q-14 0 -24 10t-10 24t10 24t24 10t24 -10t10 -24t-10 -24t-24 -10z" />
    <glyph glyph-name="uni0457" unicode="&#x457;" horiz-adv-x="170" 
d="M79 627q-14 0 -23 9t-9 23t9 23t23 9t23 -9t9 -23t-9 -23t-23 -9zM159 659q0 14 9 23t23 9t23 -9t9 -23t-9 -23t-23 -9t-23 9t-9 23zM3 0l87 490h36l-87 -490h-36z" />
    <glyph glyph-name="uni0458" unicode="&#x458;" horiz-adv-x="170" 
d="M-127 -184q6 -4 15 -7t20 -3q31 0 50 22t27 63l106 599h36l-107 -608q-8 -45 -36.5 -76.5t-77.5 -31.5q-15 0 -27.5 3t-18.5 7zM138 625q-14 0 -24 10t-10 24t10 24t24 10t24 -10t10 -24t-10 -24t-24 -10z" />
    <glyph glyph-name="uni0459" unicode="&#x459;" horiz-adv-x="873" 
d="M-8 34q8 -4 15 -6t16 -2q35 0 52.5 36.5t30.5 107.5l56 320h378l-35 -200h167q61 0 100 -36t39 -96q0 -33 -13.5 -62t-37 -50t-55.5 -33.5t-70 -12.5h-217l81 458h-306l-53 -298q-9 -48 -21 -80.5t-27 -52t-32.5 -27.5t-38.5 -8q-14 0 -23 2.5t-14 5.5zM500 258l-40 -226
h175q31 0 56.5 9t44 25.5t29 39.5t10.5 50q0 48 -31.5 75t-78.5 27h-165z" />
    <glyph glyph-name="uni045A" unicode="&#x45a;" horiz-adv-x="800" 
d="M350 0l45 258h-314l-45 -258h-36l86 490h36l-35 -200h314l35 200h36l-35 -200h161q61 0 100 -36t39 -96q0 -33 -13.5 -62t-37 -50t-55.5 -33.5t-70 -12.5h-211zM432 258l-40 -226h169q31 0 56.5 9t44 25.5t29 39.5t10.5 50q0 48 -31.5 75t-78.5 27h-159z" />
    <glyph glyph-name="uni045B" unicode="&#x45b;" 
d="M104 592h-66l6 32h66l16 92h36l-16 -92h174l-5 -32h-175l-24 -135l-20 -88h4q35 63 89 100t126 37q38 0 66 -12t46 -32.5t27 -48.5t9 -61q0 -11 -1 -24t-3 -22l-54 -306h-36l54 305q4 23 4 48q0 52 -29 86.5t-89 34.5q-39 0 -77 -18.5t-69.5 -51.5t-54 -77.5t-31.5 -96.5
l-41 -230h-36z" />
    <glyph glyph-name="uni045C" unicode="&#x45c;" horiz-adv-x="411" 
d="M122 490l-40 -228h4l290 228h51l-1 -4l-295 -231l215 -251l-1 -4h-44l-217 252h-4l-45 -252h-35l86 490h36zM239 596l71 120h49l-82 -120h-38z" />
    <glyph glyph-name="uni045D" unicode="&#x45d;" horiz-adv-x="532" 
d="M405 0h-36l60 340l21 96h-4l-408 -436h-38l86 490h36l-60 -340l-21 -96h4l408 436h39zM300 596l-42 120h45l29 -120h-32z" />
    <glyph glyph-name="uni045E" unicode="&#x45e;" horiz-adv-x="458" 
d="M17 -216l160 260l-129 446h39l115 -403h2l247 403h43l-436 -706h-41zM275 598q-18 0 -36 7t-32 19.5t-22.5 30t-8.5 38.5q0 9 2 19h36q-1 -6 -1 -8v-7q0 -27 17 -47t50 -20q19 0 35.5 7t29 18.5t20.5 26t11 30.5h34q-8 -54 -44 -84t-91 -30z" />
    <glyph glyph-name="uni045F" unicode="&#x45f;" horiz-adv-x="532" 
d="M171 -152l27 152h-185l86 490h36l-81 -458h334l81 458h36l-86 -490h-185l-27 -152h-36z" />
    <glyph glyph-name="uni0490" unicode="&#x490;" horiz-adv-x="499" 
d="M54 0h-36l126 716h354l17 100h36l-23 -134h-354z" />
    <glyph glyph-name="uni0491" unicode="&#x491;" horiz-adv-x="388" 
d="M86 490h262l15 88h36l-21 -120h-262l-81 -458h-35z" />
    <glyph glyph-name="uni04B0" unicode="&#x4b0;" horiz-adv-x="564" 
d="M200 0l52 295h-194l6 34h185l-173 387h40l161 -362h4l289 362h44l-311 -387h185l-6 -34h-194l-52 -295h-36z" />
    <glyph glyph-name="uni04B1" unicode="&#x4b1;" horiz-adv-x="462" 
d="M184 0l-38 -216h-36l38 216h-160l6 32h147l-114 458h38l109 -444l266 444h41l-278 -458h145l-6 -32h-158z" />
    <glyph glyph-name="Wgrave" unicode="&#x1e80;" horiz-adv-x="894" 
d="M611 0h-40l-81 568h-4l-279 -568h-40l-86 716h37l77 -656h4l275 560h44l80 -560h4l297 656h40zM484 780l-42 120h45l29 -120h-32z" />
    <glyph glyph-name="wgrave" unicode="&#x1e81;" horiz-adv-x="710" 
d="M446 0l-76 451l-231 -451h-33l-79 490h34l69 -437h1l223 437h42l74 -432h1l223 432h35l-251 -490h-32zM370 596l-42 120h45l29 -120h-32z" />
    <glyph glyph-name="Wacute" unicode="&#x1e82;" horiz-adv-x="894" 
d="M611 0h-40l-81 568h-4l-279 -568h-40l-86 716h37l77 -656h4l275 560h44l80 -560h4l297 656h40zM499 780l71 120h49l-82 -120h-38z" />
    <glyph glyph-name="wacute" unicode="&#x1e83;" horiz-adv-x="710" 
d="M446 0l-76 451l-231 -451h-33l-79 490h34l69 -437h1l223 437h42l74 -432h1l223 432h35l-251 -490h-32zM386 596l71 120h49l-82 -120h-38z" />
    <glyph glyph-name="Wdieresis" unicode="&#x1e84;" horiz-adv-x="894" 
d="M611 0h-40l-81 568h-4l-279 -568h-40l-86 716h37l77 -656h4l275 560h44l80 -560h4l297 656h40zM452 811q-14 0 -23 9t-9 23t9 23t23 9t23 -9t9 -23t-9 -23t-23 -9zM560 843q0 14 9 23t23 9t23 -9t9 -23t-9 -23t-23 -9t-23 9t-9 23z" />
    <glyph glyph-name="wdieresis" unicode="&#x1e85;" horiz-adv-x="710" 
d="M446 0l-76 451l-231 -451h-33l-79 490h34l69 -437h1l223 437h42l74 -432h1l223 432h35l-251 -490h-32zM331 627q-14 0 -23 9t-9 23t9 23t23 9t23 -9t9 -23t-9 -23t-23 -9zM439 659q0 14 9 23t23 9t23 -9t9 -23t-9 -23t-23 -9t-23 9t-9 23z" />
    <glyph glyph-name="Ygrave" unicode="&#x1ef2;" horiz-adv-x="564" 
d="M202 0l56 315l-182 401h40l163 -361h4l286 361h45l-320 -401l-56 -315h-36zM329 780l-42 120h45l29 -120h-32z" />
    <glyph glyph-name="ygrave" unicode="&#x1ef3;" horiz-adv-x="458" 
d="M17 -216l160 260l-129 446h39l115 -403h2l247 403h43l-436 -706h-41zM258 596l-42 120h45l29 -120h-32z" />
    <glyph glyph-name="endash" unicode="&#x2013;" horiz-adv-x="578" 
d="M57 326h452l-6 -32h-452z" />
    <glyph glyph-name="emdash" unicode="&#x2014;" horiz-adv-x="876" 
d="M57 326h750l-6 -32h-750z" />
    <glyph glyph-name="quoteleft" unicode="&#x2018;" horiz-adv-x="199" 
d="M207 714l-59 -60q9 -4 15 -12.5t6 -18.5q0 -15 -10 -25t-25 -10t-25 10t-10 25t15 32l72 77z" />
    <glyph glyph-name="quoteright" unicode="&#x2019;" horiz-adv-x="199" 
d="M95 606l59 60q-9 4 -15 12.5t-6 18.5q0 15 10 25t25 10t25 -10t10 -25t-15 -32l-72 -77z" />
    <glyph glyph-name="quotesinglbase" unicode="&#x201a;" horiz-adv-x="199" 
d="M-13 -59l59 60q-9 4 -15 12.5t-6 18.5q0 15 10 25t25 10t25 -10t10 -25t-15 -32l-72 -77z" />
    <glyph glyph-name="quotedblleft" unicode="&#x201c;" horiz-adv-x="319" 
d="M207 714l-59 -60q9 -4 15 -12.5t6 -18.5q0 -15 -10 -25t-25 -10t-25 10t-10 25t15 32l72 77zM327 714l-59 -60q9 -4 15 -12.5t6 -18.5q0 -15 -10 -25t-25 -10t-25 10t-10 25t15 32l72 77z" />
    <glyph glyph-name="quotedblright" unicode="&#x201d;" horiz-adv-x="319" 
d="M95 606l59 60q-9 4 -15 12.5t-6 18.5q0 15 10 25t25 10t25 -10t10 -25t-15 -32l-72 -77zM215 606l59 60q-9 4 -15 12.5t-6 18.5q0 15 10 25t25 10t25 -10t10 -25t-15 -32l-72 -77z" />
    <glyph glyph-name="quotedblbase" unicode="&#x201e;" horiz-adv-x="319" 
d="M-13 -59l59 60q-9 4 -15 12.5t-6 18.5q0 15 10 25t25 10t25 -10t10 -25t-15 -32l-72 -77zM106 -59l59 60q-9 4 -15 12.5t-6 18.5q0 15 10 25t25 10t25 -10t10 -25t-15 -32l-72 -77z" />
    <glyph glyph-name="bullet" unicode="&#x2022;" horiz-adv-x="310" 
d="M149 260q-27 0 -45.5 18.5t-18.5 45.5q0 26 18.5 45t45.5 19q26 0 45 -19t19 -45q0 -27 -19 -45.5t-45 -18.5z" />
    <glyph glyph-name="ellipsis" unicode="&#x2026;" horiz-adv-x="562" 
d="M32 -6q-15 0 -25 10t-10 25t10 25t25 10t25 -10t10 -25t-10 -25t-25 -10zM224 -6q-15 0 -25 10t-10 25t10 25t25 10t25 -10t10 -25t-10 -25t-25 -10zM416 -6q-15 0 -25 10t-10 25t10 25t25 10t25 -10t10 -25t-10 -25t-25 -10z" />
    <glyph glyph-name="guilsinglleft" unicode="&#x2039;" horiz-adv-x="324" 
d="M207 89l-27 -21l-151 203l223 203l22 -24l-199 -182z" />
    <glyph glyph-name="guilsinglright" unicode="&#x203a;" horiz-adv-x="324" 
d="M85 453l27 21l151 -203l-223 -203l-22 24l199 182z" />
    <glyph glyph-name="fraction" unicode="&#x2044;" horiz-adv-x="192" 
d="M-210 23l587 692l25 -22l-587 -692z" />
    <glyph glyph-name="uni2074" unicode="&#x2074;" horiz-adv-x="323" 
d="M48 455l232 261h20l-44 -249h55l-6 -30h-55l-15 -87h-32l15 87h-174zM224 467l30 172h-4l-152 -172h126z" />
    <glyph glyph-name="uni20A3" unicode="&#x20a3;" horiz-adv-x="522" 
d="M-6 168h76l91 516h377l-6 -34h-341l-53 -299h309l-6 -34h-309l-26 -149h148l-6 -32h-148l-24 -136h-36l24 136h-76z" />
    <glyph glyph-name="uni20A4" unicode="&#x20a4;" horiz-adv-x="496" 
d="M-22 24q124 78 151 164h-119l5 32h121q1 7 1 11v8q0 34 -5 60t-13 49h-81l5 32h65q-8 26 -15 53.5t-7 64.5q0 40 14.5 76.5t41.5 64.5t66 44.5t87 16.5q40 0 69 -12t49 -31t32 -43.5t19 -49.5l-36 -14q-6 25 -17 46t-27 36.5t-38.5 24.5t-51.5 9q-39 0 -71 -13.5t-54 -37
t-34 -55t-12 -67.5q0 -31 7 -58.5t15 -54.5h173l-5 -32h-158q8 -24 13 -50t5 -55q0 -6 -0.5 -12t-1.5 -11h119l-5 -32h-121q-8 -26 -21 -49.5t-28.5 -43t-32 -34.5t-30.5 -24l2 -3h226q28 0 47 5t33 14.5t24 23.5t19 32l28 -13q-23 -51 -58.5 -73.5t-98.5 -22.5h-301z" />
    <glyph glyph-name="uni20A9" unicode="&#x20a9;" horiz-adv-x="953" 
d="M39 380h112l-27 304h38l26 -304h181l144 304h43l36 -304h181l131 304h38l-132 -304h110l-5 -32h-119l-151 -348h-41l-41 348h-172l-165 -348h-40l-32 348h-120zM219 60l135 288h-164l25 -288h4zM759 348h-163l35 -288h4zM406 380h153l-30 252h-4z" />
    <glyph glyph-name="uni20AB" unicode="&#x20ab;" horiz-adv-x="548" 
d="M206 -16q-40 0 -75 15.5t-61 44.5t-41 69t-15 90q0 52 20 103.5t56 92t87 66t113 25.5q39 0 68.5 -10t50.5 -26t34.5 -36t20.5 -39h4l8 68l20 113h-167l6 32h167l16 92h36l-16 -92h68l-6 -32h-68l-98 -560h-32l16 95h-4q-15 -22 -34.5 -42t-45 -35.5t-57.5 -24.5t-71 -9z
M214 16q54 0 97 23t73.5 61.5t47 87.5t16.5 100q0 40 -12 71.5t-33 53.5t-50 33.5t-63 11.5q-53 0 -97 -22t-76 -58t-49.5 -82.5t-17.5 -94.5q0 -43 12.5 -77t34.5 -58t52 -37t65 -13zM5 -84h414l-6 -32h-413z" />
    <glyph glyph-name="Euro" unicode="&#x20ac;" horiz-adv-x="609" 
d="M42 440h82q20 54 54 101.5t79.5 82.5t102 55.5t122.5 20.5q19 0 39.5 -3.5t39 -9.5t35 -14.5t28.5 -17.5l-20 -28q-23 17 -53.5 28t-71.5 11q-56 0 -105.5 -17.5t-90 -48.5t-71.5 -72t-50 -88h259l-5 -32h-266q-10 -29 -14.5 -59.5t-4.5 -60.5v-12h261l-5 -32h-254
q7 -54 28.5 -96t53.5 -71t72.5 -44t85.5 -15q42 0 74.5 9t66.5 29l16 -29q-33 -20 -72.5 -31.5t-87.5 -11.5q-53 0 -100 18.5t-83.5 52.5t-60 82t-29.5 107h-89l5 32h82v8q0 62 18 124h-76z" />
    <glyph glyph-name="uni20AE" unicode="&#x20ae;" horiz-adv-x="502" 
d="M169 0l31 169l-160 -89l6 39l160 90l27 152l-159 -89l6 39l160 90l44 249h-206l6 34h448l-6 -34h-206l-40 -225l156 88l-7 -40l-156 -89l-27 -151l156 88l-7 -40l-155 -89l-35 -192h-36z" />
    <glyph glyph-name="uni20B1" unicode="&#x20b1;" horiz-adv-x="602" 
d="M51 495h79l34 189h208q41 0 74.5 -13t57 -36.5t36.5 -56t13 -71.5v-12h55l-6 -32h-53q-8 -39 -28.5 -71t-51 -54.5t-70 -35t-85.5 -12.5h-183l-52 -290h-36l82 463h-80zM167 495h350v10q0 34 -11.5 60.5t-31 45.5t-47 29t-58.5 10h-175zM317 324q36 0 68.5 9t58 27
t43.5 44t25 59h-351l-24 -139h180z" />
    <glyph glyph-name="uni20B8" unicode="&#x20b8;" horiz-adv-x="502" 
d="M169 0l83 469h-206l6 34h448l-6 -34h-206l-83 -469h-36zM78 650l6 34h448l-6 -34h-448z" />
    <glyph glyph-name="uni20B9" unicode="&#x20b9;" horiz-adv-x="534" 
d="M84 684h480l-6 -32h-156q35 -23 54.5 -57.5t19.5 -78.5v-6q0 -3 -1 -9h57l-6 -32h-55q-9 -39 -31 -71t-54.5 -54.5t-74 -34.5t-88.5 -12h-87l-3 -3l242 -290l-1 -4h-40l-251 297l5 32h140q38 0 72 10t61.5 28t46.5 44t27 58h-389l6 32h388v10q0 33 -12.5 59t-33.5 44.5
t-49 28t-60 9.5h-207z" />
    <glyph glyph-name="uni20BA" unicode="&#x20ba;" horiz-adv-x="507" 
d="M261 684l-36 -202l159 90l-6 -40l-159 -90l-27 -152l158 90l-6 -40l-159 -90l-39 -218q55 0 103.5 18.5t86.5 49.5t63 72.5t33 88.5h30q-9 -58 -37.5 -106t-71 -82.5t-97 -53.5t-116.5 -19h-36l41 226l-156 -87l7 39l155 88l27 152l-156 -87l7 39l156 88l40 226h36z" />
    <glyph glyph-name="uni20BD" unicode="&#x20bd;" horiz-adv-x="553" 
d="M21 324h79l63 360h212q83 0 130 -47.5t47 -125.5q0 -47 -19 -87.5t-52 -70t-77 -46.5t-95 -17h-179l-22 -121h153l-6 -34h-153l-24 -135h-36l24 135h-78l6 34h78l22 121h-79zM316 324q42 0 78.5 15t63.5 40t42.5 58.5t15.5 70.5q0 69 -40.5 105.5t-102.5 36.5h-180
l-57 -326h180z" />
    <glyph glyph-name="uni2116" unicode="&#x2116;" horiz-adv-x="1072" 
d="M879 390q-32 0 -58.5 11.5t-46 31t-30.5 45.5t-11 55q0 42 14.5 78.5t41 63t62 42t77.5 15.5q32 0 58.5 -11.5t46 -31.5t30 -47.5t10.5 -58.5q0 -41 -15.5 -76t-42 -61t-62 -41t-74.5 -15zM882 422q32 0 60.5 12t49.5 33t33 50t12 63q0 54 -30.5 87t-83.5 33
q-32 0 -60 -12.5t-49 -34.5t-33 -52t-12 -65q0 -49 31 -81.5t82 -32.5zM706 238l6 34h280l-6 -34h-280zM145 716h49l320 -652h4l20 138l91 514h36l-127 -716h-32l-332 678h-4l-20 -138l-96 -540h-36z" />
    <glyph glyph-name="minus" unicode="&#x2212;" horiz-adv-x="538" 
d="M50 287h412l-6 -32h-412z" />
    <glyph glyph-name="uni2215" unicode="&#x2215;" horiz-adv-x="393" 
d="M-34 0l423 716h38l-424 -716h-37z" />
    <glyph glyph-name="uniF8FF" horiz-adv-x="1000" 
d="M891 451q4 -21 5.5 -42t1.5 -44q0 -89 -28.5 -163.5t-81 -128.5t-126 -84t-163.5 -30q-86 0 -162 32.5t-132.5 89t-89 132.5t-32.5 162t32.5 162t89 132.5t132.5 89t162 32.5q85 0 154.5 -28.5t123.5 -79.5l-119 -120q-65 62 -159 62q-51 0 -96 -20t-78 -54t-52.5 -79.5
t-19.5 -96.5t19.5 -96.5t52.5 -80t78 -54.5t96 -20q46 0 84 12.5t67 34.5t47.5 52.5t25.5 66.5h-224v161h392z" />
    <glyph glyph-name="one.numerator" horiz-adv-x="217" 
d="M115 350l57 320l-78 -35l-14 28l122 53h10l-65 -366h-32z" />
    <glyph glyph-name="two.denominator" horiz-adv-x="287" 
d="M-35 0l6 30q42 35 76 64q15 12 29.5 24.5t27.5 23.5q12 11 21.5 19t13.5 11q25 20 47.5 45.5t22.5 61.5q0 29 -20 47t-53 18q-32 0 -57.5 -19t-40.5 -58l-26 10q13 47 49 72t76 25q45 0 74.5 -25t29.5 -68q0 -36 -19 -64t-58 -60q-8 -6 -31.5 -26.5t-49.5 -43.5
q-31 -26 -67 -57h183l-6 -30h-228z" />
    <glyph glyph-name="two.numerator" horiz-adv-x="287" 
d="M25 350l6 30q42 35 76 64q15 12 29.5 24.5t27.5 23.5q12 11 21.5 19t13.5 11q25 20 47.5 45.5t22.5 61.5q0 29 -20 47t-53 18q-32 0 -57.5 -19t-40.5 -58l-26 10q13 47 49 72t76 25q45 0 74.5 -25t29.5 -68q0 -36 -19 -64t-58 -60q-8 -6 -31.5 -26.5t-49.5 -43.5
q-31 -26 -67 -57h183l-6 -30h-228z" />
    <glyph glyph-name="three.numerator" horiz-adv-x="314" 
d="M159 342q-18 0 -37 6t-35 18t-27.5 30t-15.5 42l29 11q10 -37 31 -57t59 -20q42 0 70.5 22t28.5 61q0 35 -23.5 52.5t-55.5 17.5h-34l6 30h28q39 0 67.5 20t28.5 59q0 26 -19 43t-52 17q-35 0 -54.5 -16.5t-33.5 -41.5l-26 12q15 36 45.5 56t72.5 20q45 0 72.5 -24
t27.5 -61t-21 -63t-52 -36q22 -9 39 -29t17 -51q0 -26 -10 -47.5t-28 -37.5t-43 -24.5t-55 -8.5z" />
    <glyph glyph-name="four.denominator" horiz-adv-x="323" 
d="M-14 105l232 261h20l-44 -249h55l-6 -30h-55l-15 -87h-32l15 87h-174zM162 117l30 172h-4l-152 -172h126z" />
    <glyph glyph-name="four.numerator" horiz-adv-x="323" 
d="M48 455l232 261h20l-44 -249h55l-6 -30h-55l-15 -87h-32l15 87h-174zM224 467l30 172h-4l-152 -172h126z" />
    <glyph glyph-name="r.alt" horiz-adv-x="295" 
d="M287 468q-12 2 -20 3t-20 1q-26 0 -52 -15.5t-48.5 -42t-38.5 -61t-23 -73.5l-50 -280h-35l86 490h32l-16 -87h4q25 45 63 73t85 28q9 0 19 -1t20 -3z" />
    <glyph glyph-name="uni03BC" 
d="M40 60l-10 -87l-34 -189h-36l124 706h36l-53 -300q-2 -15 -3 -26q-2 -11 -2 -24q0 -55 29 -89.5t89 -34.5q42 0 79.5 18t68 49t52 72.5t29.5 88.5l44 246h36l-86 -490h-32l21 116h-4q-15 -27 -36.5 -51t-48.5 -42t-60 -28.5t-72 -10.5q-48 0 -80.5 22.5t-46.5 53.5h-4z
" />
    <glyph glyph-name="uni2103" horiz-adv-x="969" 
d="M907 559q-37 49 -88 78t-114 29q-78 0 -142 -31.5t-110.5 -83t-72 -117.5t-25.5 -135q0 -65 20 -117t55.5 -88.5t83 -56t101.5 -19.5q71 0 127 26t112 82l20 -24q-54 -58 -118.5 -88t-146.5 -30q-64 0 -117 23t-91.5 64t-60 99t-21.5 128q0 75 28 147.5t78.5 129t121 91
t156.5 34.5q85 0 139.5 -33t92.5 -84zM182 442q-50 0 -80.5 33t-30.5 79q0 29 10.5 55.5t29.5 46.5t46 32t61 12q50 0 80.5 -33t30.5 -79q0 -29 -10.5 -55.5t-29.5 -46.5t-46 -32t-61 -12zM186 472q22 0 42.5 9t35.5 25t24 36.5t9 44.5q0 37 -23.5 60t-59.5 23q-23 0 -43 -9
t-35 -25t-24 -36.5t-9 -44.5q0 -37 23.5 -60t59.5 -23z" />
    <glyph glyph-name="uni2109" horiz-adv-x="808" 
d="M452 684h377l-6 -34h-341l-53 -299h309l-6 -34h-309l-56 -317h-36zM182 442q-50 0 -80.5 33t-30.5 79q0 29 10.5 55.5t29.5 46.5t46 32t61 12q50 0 80.5 -33t30.5 -79q0 -29 -10.5 -55.5t-29.5 -46.5t-46 -32t-61 -12zM186 472q22 0 42.5 9t35.5 25t24 36.5t9 44.5
q0 37 -23.5 60t-59.5 23q-23 0 -43 -9t-35 -25t-24 -36.5t-9 -44.5q0 -37 23.5 -60t59.5 -23z" />
    <glyph glyph-name="uni2190" horiz-adv-x="1049" 
d="M164 294v-94l-110 110l110 110v-94h822v-32h-822z" />
    <glyph glyph-name="uni2191" horiz-adv-x="310" 
d="M139 687h-94l110 110l110 -110h-94v-784h-32v784z" />
    <glyph glyph-name="uni2192" horiz-adv-x="1049" 
d="M63 294v32h822v94l110 -110l-110 -110v94h-822z" />
    <glyph glyph-name="uni2193" horiz-adv-x="310" 
d="M139 769h32v-784h94l-110 -110l-110 110h94v784z" />
    <glyph glyph-name="uni2196" horiz-adv-x="723" 
d="M111 604l-66 -66v155h155l-66 -66l584 -585l-22 -22z" />
    <glyph glyph-name="uni2197" horiz-adv-x="723" 
d="M27 20l-22 22l584 585l-66 66h155v-155l-66 66z" />
    <glyph glyph-name="uni2198" horiz-adv-x="723" 
d="M696 693l22 -22l-584 -585l66 -66h-155v155l66 -66z" />
    <glyph glyph-name="uni2199" horiz-adv-x="723" 
d="M612 109l66 66v-155h-155l66 66l-584 585l22 22z" />
    <glyph glyph-name="uni2639" horiz-adv-x="848" 
d="M293 412q-17 0 -28 11t-11 28t11 28t28 11t28 -11t11 -28t-11 -28t-28 -11zM246 180q23 52 69.5 81.5t108.5 29.5t108.5 -29.5t69.5 -81.5l-32 -14q-20 43 -56.5 67t-89.5 24t-89.5 -24t-56.5 -67zM424 -16q-77 0 -145 29.5t-119 80.5t-80.5 119t-29.5 145t29.5 145
t80.5 119t119 80.5t145 29.5t145 -29.5t119 -80.5t80.5 -119t29.5 -145t-29.5 -145t-80.5 -119t-119 -80.5t-145 -29.5zM424 18q71 0 133 27t108 73.5t72.5 108t26.5 131.5t-26.5 131.5t-72.5 108t-108 73.5t-133 27t-133 -27t-108 -73.5t-72.5 -108t-26.5 -131.5
t26.5 -131.5t72.5 -108t108 -73.5t133 -27zM555 412q-17 0 -28 11t-11 28t11 28t28 11t28 -11t11 -28t-11 -28t-28 -11z" />
    <glyph glyph-name="uni263A" horiz-adv-x="848" 
d="M293 412q-17 0 -28 11t-11 28t11 28t28 11t28 -11t11 -28t-11 -28t-28 -11zM278 287q20 -43 56.5 -67t89.5 -24t89.5 24t56.5 67l32 -14q-23 -52 -69.5 -81.5t-108.5 -29.5t-108.5 29.5t-69.5 81.5zM424 -16q-77 0 -145 29.5t-119 80.5t-80.5 119t-29.5 145t29.5 145
t80.5 119t119 80.5t145 29.5t145 -29.5t119 -80.5t80.5 -119t29.5 -145t-29.5 -145t-80.5 -119t-119 -80.5t-145 -29.5zM424 18q71 0 133 27t108 73.5t72.5 108t26.5 131.5t-26.5 131.5t-72.5 108t-108 73.5t-133 27t-133 -27t-108 -73.5t-72.5 -108t-26.5 -131.5
t26.5 -131.5t72.5 -108t108 -73.5t133 -27zM555 412q-17 0 -28 11t-11 28t11 28t28 11t28 -11t11 -28t-11 -28t-28 -11z" />
    <glyph glyph-name="uni2780" horiz-adv-x="848" 
d="M424 -16q-77 0 -145 29.5t-119 80.5t-80.5 119t-29.5 145t29.5 145t80.5 119t119 80.5t145 29.5t145 -29.5t119 -80.5t80.5 -119t29.5 -145t-29.5 -145t-80.5 -119t-119 -80.5t-145 -29.5zM424 18q71 0 133 27t108 73.5t72.5 108t26.5 131.5t-26.5 131.5t-72.5 108
t-108 73.5t-133 27t-133 -27t-108 -73.5t-72.5 -108t-26.5 -131.5t26.5 -131.5t72.5 -108t108 -73.5t133 -27zM425 177v321l-77 -37l-13 29l112 53h10v-366h-32z" />
    <glyph glyph-name="uni2781" horiz-adv-x="848" 
d="M424 -16q-77 0 -145 29.5t-119 80.5t-80.5 119t-29.5 145t29.5 145t80.5 119t119 80.5t145 29.5t145 -29.5t119 -80.5t80.5 -119t29.5 -145t-29.5 -145t-80.5 -119t-119 -80.5t-145 -29.5zM424 18q71 0 133 27t108 73.5t72.5 108t26.5 131.5t-26.5 131.5t-72.5 108
t-108 73.5t-133 27t-133 -27t-108 -73.5t-72.5 -108t-26.5 -131.5t26.5 -131.5t72.5 -108t108 -73.5t133 -27zM310 177v30q35 34 64 63q25 24 47 46q21 22 26 27q15 16 26 28.5t18 23.5t10.5 23.5t3.5 28.5q0 29 -20.5 51.5t-57.5 22.5q-32 0 -56 -17.5t-35 -59.5l-27 12
q11 45 42.5 70t71.5 25q48 0 80.5 -28.5t32.5 -75.5q0 -39 -17.5 -64.5t-34.5 -42.5l-133 -133h187v-30h-228z" />
    <glyph glyph-name="uni2782" horiz-adv-x="848" 
d="M424 -16q-77 0 -145 29.5t-119 80.5t-80.5 119t-29.5 145t29.5 145t80.5 119t119 80.5t145 29.5t145 -29.5t119 -80.5t80.5 -119t29.5 -145t-29.5 -145t-80.5 -119t-119 -80.5t-145 -29.5zM424 18q71 0 133 27t108 73.5t72.5 108t26.5 131.5t-26.5 131.5t-72.5 108
t-108 73.5t-133 27t-133 -27t-108 -73.5t-72.5 -108t-26.5 -131.5t26.5 -131.5t72.5 -108t108 -73.5t133 -27zM423 169q-19 0 -39 5.5t-37.5 17t-31.5 29.5t-20 44l27 11q24 -77 102 -77q42 0 66 22.5t24 57.5q0 38 -27.5 55.5t-63.5 17.5h-34v30h28q31 0 57 18t26 52
q0 32 -22.5 50.5t-54.5 18.5q-35 0 -54.5 -16.5t-28.5 -41.5l-28 12q13 36 42.5 56t66.5 20q52 0 81.5 -28.5t29.5 -68.5q0 -30 -18 -51.5t-37 -30.5q27 -11 48 -32.5t21 -56.5q0 -26 -9.5 -47t-26 -36t-39 -23t-48.5 -8z" />
    <glyph glyph-name="uni2783" horiz-adv-x="848" 
d="M424 -16q-77 0 -145 29.5t-119 80.5t-80.5 119t-29.5 145t29.5 145t80.5 119t119 80.5t145 29.5t145 -29.5t119 -80.5t80.5 -119t29.5 -145t-29.5 -145t-80.5 -119t-119 -80.5t-145 -29.5zM424 18q71 0 133 27t108 73.5t72.5 108t26.5 131.5t-26.5 131.5t-72.5 108
t-108 73.5t-133 27t-133 -27t-108 -73.5t-72.5 -108t-26.5 -131.5t26.5 -131.5t72.5 -108t108 -73.5t133 -27zM274 282l186 261h20v-249h55v-30h-55v-87h-32v87h-174v18zM448 294v177h-4l-125 -177h129z" />
    <glyph glyph-name="uni2784" horiz-adv-x="848" 
d="M424 -16q-77 0 -145 29.5t-119 80.5t-80.5 119t-29.5 145t29.5 145t80.5 119t119 80.5t145 29.5t145 -29.5t119 -80.5t80.5 -119t29.5 -145t-29.5 -145t-80.5 -119t-119 -80.5t-145 -29.5zM424 18q71 0 133 27t108 73.5t72.5 108t26.5 131.5t-26.5 131.5t-72.5 108
t-108 73.5t-133 27t-133 -27t-108 -73.5t-72.5 -108t-26.5 -131.5t26.5 -131.5t72.5 -108t108 -73.5t133 -27zM330 273q18 -74 97 -74q40 0 66 26.5t26 71.5t-27 71t-67 26q-49 0 -88 -52l-25 11l25 189h193v-30h-166l-17 -121q14 12 35 21t48 9q54 0 87.5 -34.5t33.5 -90.5
q0 -29 -9.5 -52t-26.5 -40t-39.5 -26t-49.5 -9q-41 0 -77 20.5t-50 70.5z" />
    <glyph glyph-name="uni2785" horiz-adv-x="848" 
d="M424 -16q-77 0 -145 29.5t-119 80.5t-80.5 119t-29.5 145t29.5 145t80.5 119t119 80.5t145 29.5t145 -29.5t119 -80.5t80.5 -119t29.5 -145t-29.5 -145t-80.5 -119t-119 -80.5t-145 -29.5zM424 18q71 0 133 27t108 73.5t72.5 108t26.5 131.5t-26.5 131.5t-72.5 108
t-108 73.5t-133 27t-133 -27t-108 -73.5t-72.5 -108t-26.5 -131.5t26.5 -131.5t72.5 -108t108 -73.5t133 -27zM420 169q-28 0 -51 10t-40 27t-26.5 39.5t-9.5 48.5q0 31 12.5 59t32.5 56q9 13 27 38l36 50q21 29 45 62l26 -19l-107 -139q11 8 27.5 13t34.5 5q26 0 48 -10.5
t38 -27.5t25 -40t9 -47q0 -26 -10 -48.5t-27.5 -39.5t-40.5 -27t-49 -10zM419 199q43 0 69.5 27t26.5 68q0 40 -26.5 67.5t-69.5 27.5q-42 0 -68 -27.5t-26 -67.5q0 -19 6.5 -36.5t19 -30.5t30 -20.5t38.5 -7.5z" />
    <glyph glyph-name="uni2786" horiz-adv-x="848" 
d="M424 -16q-77 0 -145 29.5t-119 80.5t-80.5 119t-29.5 145t29.5 145t80.5 119t119 80.5t145 29.5t145 -29.5t119 -80.5t80.5 -119t29.5 -145t-29.5 -145t-80.5 -119t-119 -80.5t-145 -29.5zM424 18q71 0 133 27t108 73.5t72.5 108t26.5 131.5t-26.5 131.5t-72.5 108
t-108 73.5t-133 27t-133 -27t-108 -73.5t-72.5 -108t-26.5 -131.5t26.5 -131.5t72.5 -108t108 -73.5t133 -27zM344 177l170 336h-197v30h232v-26l-178 -355z" />
    </font>
</defs>
</svg>
