<?xml version="1.0" standalone="no"?>
<!DOCTYPE svg PUBLIC "-//W3C//DTD SVG 1.1//EN" "http://www.w3.org/Graphics/SVG/1.1/DTD/svg11.dtd" >
<svg xmlns="http://www.w3.org/2000/svg" xmlns:xlink="http://www.w3.org/1999/xlink" version="1.1">
<metadata>
Created by FontForge 20170731 at Mon Sep  3 20:50:10 2018
 By Aleksey,,,
</metadata>
<defs>
<font id="ProductSans-Medium" horiz-adv-x="558" >
  <font-face 
    font-family="Product Sans Medium"
    font-weight="500"
    font-stretch="normal"
    units-per-em="1000"
    panose-1="2 11 5 3 3 5 2 4 2 3"
    ascent="800"
    descent="-200"
    x-height="490"
    cap-height="716"
    bbox="-176 -265 3284 962"
    underline-thickness="50"
    underline-position="-325"
    unicode-range="U+000D-2215"
  />
<missing-glyph horiz-adv-x="570" 
d="M72 716h426v-716h-426v716zM136 60h298v596h-298v-596z" />
    <glyph glyph-name="f_i" unicode="fi" horiz-adv-x="603" 
d="M225 0h-111v392h-90v98h90v59q0 41 13 73.5t36.5 55t56 34.5t70.5 12q23 0 39.5 -3.5t29.5 -8.5l-17 -102q-9 4 -19.5 6.5t-27.5 2.5q-29 0 -49.5 -20t-20.5 -58v-51h314v-490h-111v392h-203v-392zM484 577q-32 0 -53.5 22t-21.5 53t21.5 53t53.5 22q31 0 52.5 -22
t21.5 -53t-21.5 -53t-52.5 -22z" />
    <glyph glyph-name="f_l" unicode="fl" horiz-adv-x="595" 
d="M428 0v618h-127q-33 0 -54.5 -20.5t-21.5 -60.5v-47h122v-98h-122v-392h-111v392h-90v98h90v48q0 86 49.5 134t137.5 48h238v-720h-111z" />
    <glyph glyph-name="f_b" unicode="fb" horiz-adv-x="960" 
d="M428 618h-127q-33 0 -54.5 -20.5t-21.5 -60.5v-47h122v-98h-122v-392h-111v392h-90v98h90v48q0 86 49.5 134t137.5 48h238v-225l-6 -68h6q20 32 61 55.5t98 23.5q47 0 89.5 -19.5t74.5 -54.5t51 -82.5t19 -104.5t-19 -104.5t-51 -82.5t-74.5 -54.5t-89.5 -19.5
q-57 0 -98 23.5t-61 55.5h-6v-63h-105v618zM677 87q28 0 54.5 11t46 31.5t31.5 49.5t12 66t-12 66t-31.5 49.5t-46 31.5t-54.5 11q-29 0 -55 -11t-45.5 -31t-31.5 -49.5t-12 -66.5t12 -66.5t31.5 -49.5t45.5 -31t55 -11z" />
    <glyph glyph-name="f_f" unicode="ff" horiz-adv-x="697" 
d="M604 724q28 0 50 -5t39 -13l-31 -98q-11 5 -23 8t-30 3q-29 0 -49.5 -20t-20.5 -58v-51h125v-98h-125v-392h-111v392h-203v-392h-111v392h-90v98h90v59q0 41 13 73.5t36.5 55t56 34.5t70.5 12q23 0 39.5 -3.5t29.5 -8.5l-17 -102q-9 4 -19.5 6.5t-27.5 2.5
q-29 0 -49.5 -20t-20.5 -58v-51h203v59q0 41 13 73.5t36.5 55t56 34.5t70.5 12z" />
    <glyph glyph-name="f_f_b" unicode="ffb" horiz-adv-x="1274" 
d="M742 618h-127q-33 0 -54.5 -20.5t-21.5 -60.5v-47h122v-98h-122v-392h-111v392h-203v-392h-111v392h-90v98h90v59q0 41 13 73.5t36.5 55t56 34.5t70.5 12q23 0 39.5 -3.5t29.5 -8.5l-17 -102q-9 4 -19.5 6.5t-27.5 2.5q-29 0 -49.5 -20t-20.5 -58v-51h203v48
q0 86 49.5 134t136.5 48h239v-225l-6 -68h6q20 32 61 55.5t98 23.5q47 0 89.5 -19.5t74.5 -54.5t51 -82.5t19 -104.5t-19 -104.5t-51 -82.5t-74.5 -54.5t-89.5 -19.5q-57 0 -98 23.5t-61 55.5h-6v-63h-105v618zM991 87q28 0 54 11t46 31.5t32 49.5t12 66t-12 66t-32 49.5
t-46 31.5t-54 11q-29 0 -55 -11t-45.5 -31t-31.5 -49.5t-12 -66.5t12 -66.5t31.5 -49.5t45.5 -31t55 -11z" />
    <glyph glyph-name="f_f_h" unicode="ffh" horiz-adv-x="1244" 
d="M114 392h-90v98h90v59q0 41 13 73.5t36.5 55t56 34.5t70.5 12q23 0 39.5 -3.5t29.5 -8.5l-17 -102q-9 4 -19.5 6.5t-27.5 2.5q-29 0 -49.5 -20t-20.5 -58v-51h203v48q0 86 49.5 134t137.5 48h238v-235l-6 -69h6q20 39 61.5 64.5t92.5 25.5q48 0 83 -15t57.5 -42t33.5 -64
t11 -82v-303h-111v288q0 61 -29.5 88t-74.5 27q-29 0 -51.5 -12.5t-39 -33.5t-25 -48t-8.5 -56v-253h-111v618h-127q-33 0 -54.5 -20.5t-21.5 -60.5v-47h122v-98h-122v-392h-111v392h-203v-392h-111v392z" />
    <glyph glyph-name="f_f_i" unicode="ffi" horiz-adv-x="917" 
d="M539 0h-111v392h-203v-392h-111v392h-90v98h90v59q0 41 13 73.5t36.5 55t56 34.5t70.5 12q23 0 39.5 -3.5t29.5 -8.5l-17 -102q-9 4 -19.5 6.5t-27.5 2.5q-29 0 -49.5 -20t-20.5 -58v-51h203v59q0 41 13 73.5t36.5 55t56 34.5t70.5 12q23 0 39.5 -3.5t29.5 -8.5l-17 -102
q-9 4 -19.5 6.5t-27.5 2.5q-29 0 -49.5 -20t-20.5 -58v-51h314v-490h-111v392h-203v-392zM798 577q-32 0 -53.5 22t-21.5 53t21.5 53t53.5 22q31 0 52.5 -22t21.5 -53t-21.5 -53t-52.5 -22z" />
    <glyph glyph-name="f_f_j" unicode="ffj" horiz-adv-x="917" 
d="M225 0h-111v392h-90v98h90v59q0 41 13 73.5t36.5 55t56 34.5t70.5 12q23 0 39.5 -3.5t29.5 -8.5l-17 -102q-9 4 -19.5 6.5t-27.5 2.5q-29 0 -49.5 -20t-20.5 -58v-51h203v52q0 43 13 76.5t37 57t57 36t72 12.5q21 0 37 -3.5t29 -8.5l-17 -102q-9 5 -18.5 7t-25.5 2
q-30 0 -51.5 -21t-21.5 -61v-47h314v-548q0 -45 -11.5 -77t-32.5 -52t-49 -29.5t-61 -9.5q-20 0 -36.5 3.5t-31.5 8.5l29 97q14 -7 30 -7q29 0 40.5 17.5t11.5 49.5v449h-203v-392h-111v392h-203v-392zM798 577q-32 0 -53.5 22t-21.5 53t21.5 53t53.5 22q31 0 52.5 -22
t21.5 -53t-21.5 -53t-52.5 -22z" />
    <glyph glyph-name="f_f_k" unicode="ffk" horiz-adv-x="1192" 
d="M742 618h-127q-33 0 -54.5 -20.5t-21.5 -60.5v-47h122v-98h-122v-392h-111v392h-203v-392h-111v392h-90v98h90v59q0 41 13 73.5t36.5 55t56 34.5t70.5 12q23 0 39.5 -3.5t29.5 -8.5l-17 -102q-9 4 -19.5 6.5t-27.5 2.5q-29 0 -49.5 -20t-20.5 -58v-51h203v48
q0 86 49.5 134t137.5 48h238v-419h4l188 189h139v-6l-186 -184l198 -294v-6h-132l-145 223l-66 -65v-158h-111v618z" />
    <glyph glyph-name="f_f_l" unicode="ffl" horiz-adv-x="909" 
d="M661 490v-98h-122v-392h-111v392h-203v-392h-111v392h-90v98h90v59q0 41 13 73.5t36.5 55t56 34.5t70.5 12q23 0 39.5 -3.5t29.5 -8.5l-17 -102q-9 4 -19.5 6.5t-27.5 2.5q-29 0 -49.5 -20t-20.5 -58v-51h203v48q0 86 49.5 134t137.5 48h238v-720h-111v618h-127
q-33 0 -54.5 -20.5t-21.5 -60.5v-47h122z" />
    <glyph glyph-name="f_f_t" unicode="fft" horiz-adv-x="1010" 
d="M742 392h-203v-392h-111v392h-203v-392h-111v392h-90v98h90v59q0 41 13 73.5t36.5 55t56 34.5t70.5 12q23 0 39.5 -3.5t29.5 -8.5l-17 -102q-9 4 -19.5 6.5t-27.5 2.5q-29 0 -49.5 -20t-20.5 -58v-51h203v59q0 41 13 73.5t36.5 55t56 34.5t70.5 12q23 0 39.5 -3.5
t29.5 -8.5l-17 -102q-9 4 -19.5 6.5t-27.5 2.5q-29 0 -49.5 -20t-20.5 -58v-51h203v150h111v-150h121v-98h-121v-218q0 -18 4 -33t12 -25q17 -19 43 -19q16 0 25 2.5t19 7.5l34 -98q-21 -8 -44 -12.5t-52 -4.5q-35 0 -62 11t-47 30q-43 43 -43 117v242z" />
    <glyph glyph-name="f_h" unicode="fh" horiz-adv-x="930" 
d="M428 618h-127q-33 0 -54.5 -20.5t-21.5 -60.5v-47h122v-98h-122v-392h-111v392h-90v98h90v48q0 86 49.5 134t137.5 48h238v-235l-6 -69h6q20 39 61.5 64.5t92.5 25.5q48 0 83 -15t57.5 -42t33.5 -64t11 -82v-303h-111v288q0 61 -29.5 88t-74.5 27q-29 0 -51.5 -12.5
t-39 -33.5t-25 -48t-8.5 -56v-253h-111v618z" />
    <glyph glyph-name="f_j" unicode="fj" horiz-adv-x="603" 
d="M114 392h-90v98h90v59q0 41 13 73.5t36.5 55t56 34.5t70.5 12q23 0 39.5 -3.5t29.5 -8.5l-17 -102q-9 4 -19.5 6.5t-27.5 2.5q-29 0 -49.5 -20t-20.5 -58v-51h314v-548q0 -45 -11.5 -77t-32.5 -52t-49 -29.5t-61 -9.5q-20 0 -36.5 3.5t-31.5 8.5l29 97q14 -7 30 -7
q29 0 40.5 17.5t11.5 49.5v449h-203v-392h-111v392zM484 577q-32 0 -53.5 22t-21.5 53t21.5 53t53.5 22q31 0 52.5 -22t21.5 -53t-21.5 -53t-52.5 -22z" />
    <glyph glyph-name="f_k" unicode="fk" horiz-adv-x="878" 
d="M428 618h-127q-33 0 -54.5 -20.5t-21.5 -60.5v-47h122v-98h-122v-392h-111v392h-90v98h90v48q0 86 49.5 134t137.5 48h238v-419h4l188 189h139v-6l-186 -184l198 -294v-6h-132l-145 223l-66 -65v-158h-111v618z" />
    <glyph glyph-name="f_t" unicode="ft" horiz-adv-x="696" 
d="M428 392h-203v-392h-111v392h-90v98h90v59q0 41 13 73.5t36.5 55t56 34.5t70.5 12q23 0 39.5 -3.5t29.5 -8.5l-17 -102q-9 4 -19.5 6.5t-27.5 2.5q-29 0 -49.5 -20t-20.5 -58v-51h203v150h111v-150h121v-98h-121v-218q0 -18 4 -33t12 -25q17 -19 43 -19q16 0 25 2.5
t19 7.5l34 -98q-21 -8 -44 -12.5t-52 -4.5q-35 0 -62 11t-47 30q-43 43 -43 117v242z" />
    <glyph glyph-name="r_f" unicode="rf" horiz-adv-x="779" 
d="M161 416h6q20 42 60.5 65t89.5 23q16 0 23.5 -1t15.5 -3v-112q-11 4 -21.5 5.5t-27.5 1.5q-63 0 -101.5 -38.5t-38.5 -101.5v-255h-111v490h105v-74zM686 724q28 0 50 -5t39 -13l-31 -98q-11 5 -23 8t-30 3q-29 0 -49.5 -20t-20.5 -58v-51h125v-98h-125v-392h-111v392
h-90v98h90v59q0 41 13 73.5t36.5 55t56 34.5t70.5 12z" />
    <glyph glyph-name="r_f_f" unicode="rff" horiz-adv-x="1093" 
d="M1000 724q28 0 50 -5t39 -13l-31 -98q-11 5 -23 8t-30 3q-29 0 -49.5 -20t-20.5 -58v-51h125v-98h-125v-392h-111v392h-203v-392h-111v392h-90v98h90v59q0 41 13 73.5t36.5 55t56 34.5t70.5 12q23 0 41.5 -3.5t32.5 -9.5l-17 -103q-10 5 -22 8t-30 3q-29 0 -49.5 -20
t-20.5 -58v-51h203v59q0 41 13 73.5t36.5 55t56 34.5t70.5 12zM161 416h6q20 42 60.5 65t89.5 23q16 0 23.5 -1t15.5 -3v-112q-11 4 -21.5 6t-27.5 2q-63 0 -101.5 -39t-38.5 -102v-255h-111v490h105v-74z" />
    <glyph glyph-name="r_t" unicode="rt" horiz-adv-x="774" 
d="M161 416h6q20 42 60.5 65t89.5 23q16 0 23.5 -1t15.5 -3v-112q-11 4 -21.5 5.5t-27.5 1.5q-63 0 -101.5 -38.5t-38.5 -101.5v-255h-111v490h105v-74zM506 392h-86v98h86v150h111v-150h121v-98h-121v-218q0 -18 4 -33t12 -25q17 -19 43 -19q16 0 25 2.5t19 7.5l34 -98
q-21 -8 -44 -12.5t-52 -4.5q-35 0 -62 11t-47 30q-43 43 -43 117v242z" />
    <glyph glyph-name="t_f" unicode="tf" horiz-adv-x="693" 
d="M600 724q28 0 50 -5t39 -13l-31 -98q-11 5 -23 8t-30 3q-29 0 -49.5 -20t-20.5 -58v-51h125v-98h-125v-392h-111v392h-203v-218q0 -18 4 -33t12 -25q17 -19 43 -19q15 0 24 2.5t20 7.5l20 -102q-20 -7 -38 -10t-44 -3q-35 0 -62 11t-47 30q-43 43 -43 117v242h-86v98h86
v150h111v-150h203v59q0 41 13 73.5t36.5 55t56 34.5t70.5 12z" />
    <glyph glyph-name="t_t" unicode="tt" horiz-adv-x="697" 
d="M221 174q0 -18 4 -33t12 -25q17 -19 43 -19q15 0 24 2.5t20 7.5l20 -102q-20 -7 -38 -10t-44 -3q-35 0 -62 11t-47 30q-43 43 -43 117v242h-86v98h86v150h111v-150h208v150h111v-150h121v-98h-121v-218q0 -18 4 -33t12 -25q8 -9 20 -14t23 -5q17 0 26 2.5t19 7.5l33 -98
q-21 -8 -44 -12.5t-52 -4.5q-35 0 -62 11t-46 30q-44 42 -44 117v242h-208v-218z" />
    <glyph glyph-name=".notdef" horiz-adv-x="570" 
d="M72 716h426v-716h-426v716zM136 60h298v596h-298v-596z" />
    <glyph glyph-name=".null" horiz-adv-x="0" 
 />
    <glyph glyph-name="uni000D" horiz-adv-x="0" 
d="M0 0z" />
    <glyph glyph-name="NULL" horiz-adv-x="0" 
d="M0 0z" />
    <glyph glyph-name="NULL" horiz-adv-x="0" 
d="M0 0z" />
    <glyph glyph-name="nonmarkingreturn" unicode="&#xd;" horiz-adv-x="333" 
 />
    <glyph glyph-name="space" unicode=" " horiz-adv-x="220" 
d="M0 0z" />
    <glyph glyph-name="exclam" unicode="!" horiz-adv-x="251" 
d="M125 -6q-32 0 -54.5 22.5t-22.5 54.5t22.5 55t54.5 23t55 -23t23 -55t-23 -54.5t-55 -22.5zM69 500v216h113v-216l-11 -266h-91z" />
    <glyph glyph-name="quotedbl" unicode="&#x22;" horiz-adv-x="349" 
d="M204 490v226h101v-226h-101zM44 490v226h101v-226h-101z" />
    <glyph glyph-name="numbersign" unicode="#" horiz-adv-x="645" 
d="M113 0l29 198h-119l15 88h118l18 121h-121l14 88h120l28 189h95l-28 -189h124l28 189h96l-29 -189h120l-14 -88h-119l-17 -121h121l-14 -88h-121l-29 -198h-96l30 198h-124l-30 -198h-95zM250 286h126l18 121h-126z" />
    <glyph glyph-name="dollar" unicode="$" horiz-adv-x="546" 
d="M237 -13q-35 4 -68 18t-61.5 37t-50 56t-33.5 76l99 41q11 -44 41 -77.5t73 -44.5v216l-7 3q-39 15 -72 34.5t-57 44.5t-37 55t-13 68q0 34 12.5 65t36.5 56t58.5 41.5t78.5 21.5v86h83v-88q39 -6 68 -21t50 -34.5t34 -41t20 -40.5l-98 -43q-7 21 -24.5 42t-49.5 32v-202
q39 -17 73 -35.5t59 -42t39.5 -54t14.5 -70.5q0 -45 -15.5 -79t-41 -59t-59 -39.5t-70.5 -20.5v-88h-83v87zM395 184q0 32 -18.5 52t-56.5 38v-179q33 9 54 31.5t21 57.5zM158 513q0 -29 19.5 -49.5t59.5 -40.5v172q-36 -8 -57.5 -29.5t-21.5 -52.5z" />
    <glyph glyph-name="percent" unicode="%" horiz-adv-x="827" 
d="M32 529q0 35 13.5 66t37 54.5t55 37t68.5 13.5q36 0 68 -13.5t55 -37t36.5 -54.5t13.5 -66t-13.5 -66t-36.5 -54.5t-55 -37t-68 -13.5q-37 0 -68.5 13.5t-55 37t-37 54.5t-13.5 66zM123 529q0 -38 24 -63t59 -25t59 25t24 63q0 39 -24 63.5t-59 24.5t-59 -24.5t-24 -63.5
zM157 33l445 663l67 -46l-444 -662zM448 155q0 35 13.5 66t37 54.5t55 37t68.5 13.5q36 0 68 -13.5t55 -37t36.5 -54.5t13.5 -66t-13.5 -66t-36.5 -54.5t-55 -37t-68 -13.5q-37 0 -68.5 13.5t-55 37t-37 54.5t-13.5 66zM539 155q0 -38 24 -63t59 -25t59 25t24 63
q0 39 -24 63.5t-59 24.5t-59 -24.5t-24 -63.5z" />
    <glyph glyph-name="ampersand" unicode="&#x26;" horiz-adv-x="632" 
d="M530 136l71 -90l-82 -62l-51 64q-35 -31 -76.5 -47.5t-92.5 -16.5q-55 0 -103 19t-83.5 52.5t-56 80t-20.5 100.5q0 61 31.5 116.5t86.5 92.5q-21 28 -34 56.5t-13 58.5q0 36 14 67.5t38 54.5t56.5 36.5t70.5 13.5q34 0 61.5 -9.5t48.5 -26t35.5 -38t23.5 -46.5l-92 -49
q-9 24 -26.5 45.5t-49.5 21.5q-31 0 -51 -18t-20 -50q0 -31 24 -61l226 -285l61 100l84 -51zM303 86q63 0 103 40l-191 242q-35 -23 -54.5 -57.5t-19.5 -72.5q0 -34 13 -62t35 -48t51.5 -31t62.5 -11z" />
    <glyph glyph-name="quotesingle" unicode="'" horiz-adv-x="189" 
d="M44 490v226h101v-226h-101z" />
    <glyph glyph-name="parenleft" unicode="(" horiz-adv-x="344" 
d="M324 722q-32 -39 -59 -84.5t-47 -96.5t-31.5 -106t-11.5 -113t11.5 -113t31.5 -106t47 -96.5t59 -84.5l-83 -58q-30 34 -61.5 82t-57 107t-42 127t-16.5 142t16.5 142t42 127t57 107t61.5 82z" />
    <glyph glyph-name="parenright" unicode=")" horiz-adv-x="344" 
d="M103 780q30 -34 61.5 -82t57 -107t42 -127t16.5 -142t-16.5 -142t-42 -127t-57 -107t-61.5 -82l-83 58q32 39 59 84.5t47 96.5t31.5 106t11.5 113t-11.5 113t-31.5 106t-47 96.5t-59 84.5z" />
    <glyph glyph-name="asterisk" unicode="*" horiz-adv-x="450" 
d="M68 636l108 -39l6 3v116h86v-116l6 -3l108 39l28 -82l-109 -37l-3 -8l74 -101l-69 -51l-74 103h-8l-74 -103l-69 51l74 101l-3 8l-109 37z" />
    <glyph glyph-name="plus" unicode="+" horiz-adv-x="559" 
d="M328 319h175v-96h-175v-176h-96v176h-176v96h176v176h96v-176z" />
    <glyph glyph-name="comma" unicode="," horiz-adv-x="252" 
d="M44 -87l57 88q-20 6 -36 24t-16 46q0 32 22.5 55t54.5 23t55 -23t23 -55q0 -20 -8 -36t-20 -34l-81 -121z" />
    <glyph glyph-name="hyphen" unicode="-" horiz-adv-x="441" 
d="M56 358h329v-96h-329v96z" />
    <glyph glyph-name="period" unicode="." horiz-adv-x="251" 
d="M125 -6q-32 0 -54.5 22.5t-22.5 54.5t22.5 55t54.5 23t55 -23t23 -55t-23 -54.5t-55 -22.5z" />
    <glyph glyph-name="slash" unicode="/" horiz-adv-x="458" 
d="M27 0l297 716h107l-297 -716h-107z" />
    <glyph glyph-name="zero" unicode="0" horiz-adv-x="650" 
d="M325 -16q-65 0 -116.5 27.5t-88.5 76t-56.5 114t-19.5 140.5t19.5 140.5t56.5 114t88.5 76t116.5 27.5q64 0 116 -27.5t88.5 -76t56.5 -114t20 -140.5t-20 -140.5t-56.5 -114t-88.5 -76t-116 -27.5zM325 89q39 0 70.5 19.5t53 53.5t33 80.5t11.5 99.5q0 54 -11.5 100
t-33 80t-53 53.5t-70.5 19.5t-70.5 -19.5t-53 -53.5t-33 -80t-11.5 -100q0 -53 11.5 -99.5t33 -80.5t53 -53.5t70.5 -19.5z" />
    <glyph glyph-name="one" unicode="1" horiz-adv-x="404" 
d="M209 0v550l-127 -55l-42 95l201 94h79v-684h-111z" />
    <glyph glyph-name="two" unicode="2" horiz-adv-x="532" 
d="M43 0v105q58 57 107 107q21 21 42.5 43t40.5 41.5t35 36t25 26.5q19 22 33 39t23 33t13.5 32t4.5 36q0 18 -7.5 35t-21.5 30.5t-34.5 22t-47.5 8.5q-26 0 -45.5 -8.5t-33.5 -22t-23 -29t-13 -30.5l-101 41q7 24 24 51t44 50t64.5 38t85.5 15q51 0 92 -16t70 -43t44.5 -63
t15.5 -77q0 -32 -9.5 -62t-25 -57.5t-35 -51.5t-39.5 -44l-15 -15l-23.5 -23.5t-29.5 -28.5l-32 -32l-81 -81l1 -4h297v-102h-445z" />
    <glyph glyph-name="three" unicode="3" horiz-adv-x="546" 
d="M270 -16q-36 0 -72 10t-67.5 31.5t-56.5 54.5t-38 79l104 43q14 -54 48 -83t82 -29q24 0 46.5 8t39.5 22.5t27 34t10 43.5t-10.5 44t-28.5 34t-42.5 22t-52.5 8h-59v103h53q24 0 44.5 6.5t36.5 18.5t25 30.5t9 42.5q0 41 -29.5 64.5t-74.5 23.5q-25 0 -43.5 -7t-31.5 -19
t-21.5 -26.5t-13.5 -29.5l-102 43q8 24 25 49.5t43 46.5t61.5 34.5t82.5 13.5q48 0 88 -14t69 -39t45 -59t16 -74q0 -29 -7.5 -53t-20.5 -42.5t-29 -31.5t-33 -22v-6q23 -10 44 -25.5t36.5 -36.5t24.5 -47.5t9 -57.5q0 -45 -18 -83.5t-49.5 -66t-74.5 -43t-94 -15.5z" />
    <glyph glyph-name="four" unicode="4" horiz-adv-x="602" 
d="M360 0v135h-320v88l311 461h121v-445h86v-104h-86v-135h-112zM360 519h-6l-189 -280h195v280z" />
    <glyph glyph-name="five" unicode="5" horiz-adv-x="564" 
d="M277 -16q-36 0 -73 11t-69.5 33.5t-57.5 57.5t-37 83l100 40q13 -53 47.5 -86.5t88.5 -33.5q27 0 51 9.5t41 26t27 39.5t10 51t-9.5 51.5t-26.5 40.5t-41 26.5t-52 9.5q-33 0 -60 -14.5t-45 -37.5l-110 49l41 344h373v-101h-280l-25 -178l6 -2q22 17 51 29t71 12
q43 0 82.5 -16.5t69.5 -46.5t48 -72t18 -93q0 -50 -18 -92.5t-50 -73.5t-75.5 -48.5t-95.5 -17.5z" />
    <glyph glyph-name="six" unicode="6" 
d="M308 437q39 0 76.5 -16.5t67 -45.5t48 -70t18.5 -89t-19.5 -90.5t-52 -74t-75.5 -49.5t-90 -18q-55 0 -99.5 19.5t-76 52t-48.5 75t-17 87.5q0 65 26.5 119.5t65.5 111.5l172 253l88 -60l-155 -217l4 -3q13 7 29.5 11t37.5 4zM279 88q26 0 49.5 9.5t41 26.5t28 40
t10.5 51q0 27 -10.5 50.5t-28.5 40t-41.5 26t-48.5 9.5q-26 0 -49 -9.5t-40.5 -26t-28 -40t-10.5 -50.5q0 -28 10.5 -51t28 -40t40.5 -26.5t49 -9.5z" />
    <glyph glyph-name="seven" unicode="7" horiz-adv-x="534" 
d="M71 35l301 540l-2 4h-330l2 105h452v-111l-327 -589z" />
    <glyph glyph-name="eight" unicode="8" horiz-adv-x="560" 
d="M280 -16q-52 0 -96 16t-76 43.5t-50 65t-18 81.5q0 30 8.5 55.5t23.5 46.5t34.5 37.5t41.5 27.5v6q-35 23 -60 60t-25 84q0 41 16 76.5t45 61.5t69 40.5t87 14.5t87 -14.5t69 -40.5t45 -61.5t16 -76.5q0 -47 -25 -84t-60 -60v-6q22 -11 41.5 -27.5t34.5 -37.5t23.5 -46.5
t8.5 -55.5q0 -44 -18 -81.5t-50 -65t-76 -43.5t-96 -16zM280 407q45 0 75.5 25.5t30.5 69.5q0 45 -30.5 70t-75.5 25t-75.5 -25t-30.5 -70q0 -44 30.5 -69.5t75.5 -25.5zM280 89q27 0 50 8t40.5 22t27 34.5t9.5 44.5t-10 44.5t-27 34.5t-40 22t-50 8t-50 -8t-40 -22
t-27 -34.5t-10 -44.5t9.5 -44.5t27 -34.5t40.5 -22t50 -8z" />
    <glyph glyph-name="nine" unicode="9" 
d="M250 247q-39 0 -76.5 16.5t-67 46t-48 70t-18.5 89.5q0 48 19.5 90.5t52 73.5t75.5 49t91 18q54 0 98.5 -19.5t76 -52t48.5 -75t17 -87.5q0 -65 -26.5 -119.5t-65.5 -111.5l-172 -253l-88 61l155 216l-4 4q-27 -16 -67 -16zM279 596q-26 0 -49 -9.5t-40.5 -26t-28 -40
t-10.5 -50.5t10.5 -50.5t28 -40.5t40.5 -26.5t49 -9.5q25 0 48.5 9.5t41.5 26.5t28.5 40.5t10.5 50.5t-10.5 50.5t-28 40t-41 26t-49.5 9.5z" />
    <glyph glyph-name="colon" unicode=":" horiz-adv-x="251" 
d="M125 -6q-32 0 -54.5 22.5t-22.5 54.5t22.5 55t54.5 23t55 -23t23 -55t-23 -54.5t-55 -22.5zM125 345q-32 0 -54.5 22.5t-22.5 54.5t22.5 54.5t54.5 22.5t55 -22.5t23 -54.5t-23 -54.5t-55 -22.5z" />
    <glyph glyph-name="semicolon" unicode=";" horiz-adv-x="252" 
d="M126 345q-32 0 -54.5 22.5t-22.5 54.5t22.5 54.5t54.5 22.5t55 -22.5t23 -54.5t-23 -54.5t-55 -22.5zM44 -74l57 88q-20 6 -36 24t-16 46q0 32 22.5 55t54.5 23t55 -23t23 -55q0 -20 -8 -36t-20 -34l-81 -121z" />
    <glyph glyph-name="less" unicode="&#x3c;" horiz-adv-x="519" 
d="M56 228v86l403 188v-107l-276 -121v-6l276 -121v-107z" />
    <glyph glyph-name="equal" unicode="=" horiz-adv-x="571" 
d="M56 465h459v-96h-459v96zM56 269h459v-96h-459v96z" />
    <glyph glyph-name="greater" unicode="&#x3e;" horiz-adv-x="519" 
d="M60 40v107l276 121v6l-276 121v107l403 -188v-86z" />
    <glyph glyph-name="question" unicode="?" horiz-adv-x="503" 
d="M190 234v40q0 24 5 43.5t15.5 38t27.5 37t41 40.5q29 26 47 48.5t18 56.5q0 38 -25.5 63.5t-72.5 25.5q-24 0 -42 -8t-31.5 -21t-22.5 -28.5t-14 -31.5l-100 42q8 25 25 52t43 49t61 36.5t80 14.5q47 0 85.5 -14.5t66.5 -40t43 -60t15 -75.5q0 -30 -9 -55t-22.5 -45.5
t-29.5 -37.5t-31 -30q-32 -29 -46 -54t-14 -58v-28h-113zM246 -6q-32 0 -55 22.5t-23 54.5t23 55t55 23t54.5 -23t22.5 -55t-22.5 -54.5t-54.5 -22.5z" />
    <glyph glyph-name="at" unicode="@" horiz-adv-x="873" 
d="M438 690q85 0 157 -30.5t124 -83t81 -122t29 -148.5q0 -44 -10 -82t-29.5 -66.5t-49 -45t-67.5 -16.5t-68 19t-47 54q-23 -35 -58 -54t-81 -19q-41 0 -76 15t-61.5 42t-41.5 64.5t-15 82.5t15.5 82.5t41.5 64.5t60.5 42t72.5 15t68 -15t50 -40h6v41h85v-253
q0 -24 13.5 -44.5t41.5 -20.5q19 0 32 12t20.5 31.5t10.5 43.5t3 48q0 61 -23.5 116t-64.5 96.5t-97 65.5t-122 24q-64 0 -120 -23t-97 -63.5t-65 -96.5t-24 -122t24.5 -122t66.5 -96.5t97.5 -63.5t117.5 -23q73 0 130 31l31 -78q-73 -34 -161 -34q-85 0 -157.5 30.5
t-125 83t-82 122.5t-29.5 150q0 79 29.5 149.5t82 123t124.5 83t158 30.5zM426 183q22 0 42 8t35.5 23t24.5 36.5t9 49.5t-9 49.5t-24.5 36.5t-35.5 23t-42 8t-42 -8t-35.5 -23t-24.5 -37t-9 -49t9 -49t24.5 -37t35.5 -23t42 -8z" />
    <glyph glyph-name="A" unicode="A" horiz-adv-x="692" 
d="M281 716h130l269 -716h-125l-65 184h-288l-65 -184h-125zM452 287l-75 211l-28 84h-6l-28 -84l-75 -211h212z" />
    <glyph glyph-name="B" unicode="B" horiz-adv-x="611" 
d="M72 716h270q43 0 81.5 -14.5t68 -40t46.5 -60.5t17 -76q0 -55 -27.5 -93.5t-69.5 -57.5v-6q54 -19 87.5 -62t33.5 -104q0 -46 -18 -83t-49 -63.5t-71.5 -41t-86.5 -14.5h-282v716zM338 417q25 0 45 8.5t33.5 22t20.5 31t7 35.5t-7 35.5t-20 31t-32 22t-43 8.5h-157v-194
h153zM354 105q27 0 48 9t35 24t21.5 34t7.5 39t-7.5 38.5t-22.5 33t-36.5 23.5t-49.5 9h-165v-210h169z" />
    <glyph glyph-name="C" unicode="C" horiz-adv-x="732" 
d="M696 113q-51 -60 -123 -94.5t-162 -34.5q-80 0 -148 28.5t-118.5 79t-79 118.5t-28.5 148q0 79 28.5 147.5t79 119t118.5 79t148 28.5q83 0 149 -30.5t116 -86.5l-80 -78q-36 43 -80.5 65t-104.5 22q-53 0 -100.5 -18.5t-82.5 -53t-55.5 -84t-20.5 -110.5t20.5 -110.5
t55.5 -84t82.5 -53t100.5 -18.5q64 0 114 26.5t89 73.5z" />
    <glyph glyph-name="D" unicode="D" horiz-adv-x="705" 
d="M72 716h230q85 0 152.5 -26.5t115 -73.5t73 -113t25.5 -145t-25.5 -145t-73 -113t-115 -73.5t-152.5 -26.5h-230v716zM300 108q121 0 187 66t66 184q0 117 -66 183.5t-187 66.5h-115v-500h115z" />
    <glyph glyph-name="E" unicode="E" horiz-adv-x="560" 
d="M185 608v-197h291v-106h-291v-197h323v-108h-436v716h436v-108h-323z" />
    <glyph glyph-name="F" unicode="F" horiz-adv-x="540" 
d="M72 716h436v-108h-323v-205h291v-106h-291v-297h-113v716z" />
    <glyph glyph-name="G" unicode="G" horiz-adv-x="806" 
d="M411 388h349q2 -13 4 -27.5t2 -30.5q0 -64 -20 -127t-68 -112q-49 -51 -115 -79t-151 -28q-77 0 -145.5 28t-119.5 78t-80.5 118.5t-29.5 149.5t29.5 149.5t80.5 118.5t119.5 78t145.5 28q82 0 151.5 -29t116.5 -81l-79 -79q-35 39 -82.5 60t-107.5 21q-51 0 -98 -19
t-83 -53.5t-57 -83.5t-21 -110t21 -110t57 -83.5t83 -53.5t99 -19q69 0 111.5 21t71.5 49q21 20 37 52.5t21 71.5h-242v102z" />
    <glyph glyph-name="H" unicode="H" horiz-adv-x="701" 
d="M72 716h113v-297h331v297h113v-716h-113v313h-331v-313h-113v716z" />
    <glyph glyph-name="I" unicode="I" horiz-adv-x="257" 
d="M72 716h113v-716h-113v716z" />
    <glyph glyph-name="J" unicode="J" horiz-adv-x="540" 
d="M254 -16q-82 0 -143.5 44.5t-86.5 125.5l105 43q17 -56 49 -80.5t76 -24.5q52 0 82.5 35t30.5 93v496h113v-491q0 -59 -17.5 -104t-47.5 -75.5t-71.5 -46t-89.5 -15.5z" />
    <glyph glyph-name="K" unicode="K" horiz-adv-x="645" 
d="M72 716h113v-338h6l289 338h141v-6l-262 -302l284 -402v-6h-138l-224 320l-96 -111v-209h-113v716z" />
    <glyph glyph-name="L" unicode="L" horiz-adv-x="516" 
d="M72 716h113v-608h307v-108h-420v716z" />
    <glyph glyph-name="M" unicode="M" horiz-adv-x="843" 
d="M72 716h113l234 -407h6l234 407h112v-716h-112v389l6 120h-6l-204 -357h-67l-203 357h-6l6 -120v-389h-113v716z" />
    <glyph glyph-name="N" unicode="N" horiz-adv-x="709" 
d="M72 716h135l318 -519h6l-6 138v381h112v-716h-118l-334 545h-6l6 -138v-407h-113v716z" />
    <glyph glyph-name="O" unicode="O" horiz-adv-x="816" 
d="M408 -16q-80 0 -147.5 29t-117.5 79.5t-78 119t-28 146.5t28 146t78 119t117.5 80t147.5 29q79 0 147 -29t118 -80t78 -119t28 -146t-28 -146.5t-78 -119t-118 -79.5t-147 -29zM408 92q53 0 100 19t81.5 54t54.5 84t20 109t-20 109t-54.5 84t-81.5 54t-100 19t-100 -19
t-81.5 -54t-54.5 -84t-20 -109t20 -109t54.5 -84t81.5 -54t100 -19z" />
    <glyph glyph-name="P" unicode="P" horiz-adv-x="578" 
d="M72 0v716h248q48 0 90.5 -16t74.5 -45t50.5 -69.5t18.5 -89.5q0 -48 -18.5 -88.5t-50.5 -69.5t-74.5 -45t-90.5 -16h-135v-277h-113zM323 385q28 0 50 9.5t37 25.5t23 36t8 40q0 21 -8 41t-23 35.5t-37 25.5t-50 10h-138v-223h138z" />
    <glyph glyph-name="Q" unicode="Q" horiz-adv-x="816" 
d="M572 21q-76 -37 -164 -37q-80 0 -147.5 29t-117.5 79.5t-78 119t-28 146.5t28 146t78 119t117.5 80t147.5 29q79 0 147 -29t118 -80t78 -119t28 -146q0 -85 -32 -156.5t-89 -123.5l52 -78l-86 -57zM428 235l86 58l81 -121q32 35 50.5 82t18.5 104q0 60 -20 109t-54.5 84
t-81.5 54t-100 19t-100 -19t-81.5 -54t-54.5 -84t-20 -109t20 -109t54.5 -84t81.5 -54t100 -19q27 0 52.5 5.5t48.5 15.5z" />
    <glyph glyph-name="R" unicode="R" horiz-adv-x="599" 
d="M72 716h253q49 0 91.5 -16t73.5 -45.5t48.5 -69.5t17.5 -88q0 -37 -12.5 -70t-34.5 -59.5t-51.5 -45.5t-63.5 -28l-1 -5l196 -283v-6h-132l-189 279h-83v-279h-113v716zM322 385q25 0 46.5 8.5t37.5 23.5t25.5 35.5t9.5 45.5q0 20 -7.5 40t-22 36t-36 26t-49.5 10h-141
v-225h137z" />
    <glyph glyph-name="S" unicode="S" horiz-adv-x="564" 
d="M283 -16q-43 0 -83.5 12.5t-75 37.5t-60.5 62t-40 86l108 44q7 -28 20.5 -52.5t33 -42.5t44 -28.5t54.5 -10.5q25 0 48 6.5t40 19.5t27.5 32t10.5 44q0 22 -8 40t-25 33t-45 28.5t-67 27.5l-45 16q-29 10 -59.5 26.5t-55 40t-40 55.5t-15.5 75q0 40 16.5 75.5t46.5 62.5
t71.5 42.5t91.5 15.5q52 0 91.5 -14.5t66.5 -36.5t43.5 -48.5t24.5 -49.5l-102 -43q-5 15 -14.5 30.5t-24.5 27.5t-35.5 20t-47.5 8q-24 0 -45 -6.5t-36.5 -18.5t-24.5 -28t-9 -35q0 -38 31.5 -61.5t92.5 -44.5l45 -16q42 -14 77 -33t61 -45.5t40.5 -61.5t14.5 -81
q0 -56 -22.5 -95.5t-57.5 -65.5t-78 -38t-84 -12z" />
    <glyph glyph-name="T" unicode="T" horiz-adv-x="561" 
d="M224 0v608h-200v108h513v-108h-200v-608h-113z" />
    <glyph glyph-name="U" unicode="U" horiz-adv-x="655" 
d="M328 -16q-61 0 -111 20.5t-86 58.5t-55.5 92t-19.5 120v441h113v-447q0 -38 10 -70.5t30 -56t49.5 -37t69.5 -13.5q39 0 69 13.5t49.5 37t29.5 56t10 70.5v447h113v-441q0 -65 -18.5 -118.5t-54 -91.5t-85.5 -59.5t-113 -21.5z" />
    <glyph glyph-name="V" unicode="V" horiz-adv-x="656" 
d="M12 716h124l159 -470l26 -82h6l26 82l167 470h124l-261 -716h-118z" />
    <glyph glyph-name="W" unicode="W" horiz-adv-x="938" 
d="M16 716h119l123 -460l17 -69h6l20 69l119 364h106l119 -364l20 -68h6l15 68l117 460h119l-190 -716h-112l-123 377l-21 71h-6l-20 -71l-124 -377h-112z" />
    <glyph glyph-name="X" unicode="X" horiz-adv-x="660" 
d="M253 372l-221 344h139l156 -254h6l156 254h139l-221 -344l237 -372h-138l-173 275h-6l-173 -275h-138z" />
    <glyph glyph-name="Y" unicode="Y" horiz-adv-x="615" 
d="M253 333l-241 383h135l160 -264h6l155 264h135l-237 -383v-333h-113v333z" />
    <glyph glyph-name="Z" unicode="Z" horiz-adv-x="580" 
d="M32 116l372 492h-356v108h488v-116l-370 -492h374v-108h-508v116z" />
    <glyph glyph-name="bracketleft" unicode="[" horiz-adv-x="330" 
d="M72 792h226v-92h-120v-732h120v-92h-226v916z" />
    <glyph glyph-name="backslash" unicode="\" horiz-adv-x="458" 
d="M324 0l-297 716h107l297 -716h-107z" />
    <glyph glyph-name="bracketright" unicode="]" horiz-adv-x="330" 
d="M258 -124h-226v92h120v732h-120v92h226v-916z" />
    <glyph glyph-name="asciicircum" unicode="^" horiz-adv-x="493" 
d="M365 410l-116 200h-6l-115 -200h-116l189 306h91l189 -306h-116z" />
    <glyph glyph-name="underscore" unicode="_" horiz-adv-x="489" 
d="M0 -120h489v-96h-489v96z" />
    <glyph glyph-name="grave" unicode="`" horiz-adv-x="421" 
d="M177 588l-81 132h126l47 -132h-92z" />
    <glyph glyph-name="a" unicode="a" horiz-adv-x="523" 
d="M366 60h-6q-22 -29 -57 -52.5t-89 -23.5q-39 0 -73 12.5t-59 35t-39.5 53t-14.5 67.5q0 39 15.5 70t43 52t65.5 32.5t82 11.5q49 0 82 -9.5t50 -17.5v19q0 22 -9.5 41t-26 32.5t-37.5 21t-44 7.5q-37 0 -66.5 -14.5t-52.5 -46.5l-88 58q35 48 87 72.5t118 24.5
q109 0 168.5 -54t59.5 -154v-298h-109v60zM366 204q-22 13 -49 21t-62 8q-52 0 -83 -24t-31 -58q0 -18 8 -31.5t20.5 -23.5t29 -15t33.5 -5q27 0 51.5 10.5t42.5 28t29 40.5t11 49z" />
    <glyph glyph-name="b" unicode="b" horiz-adv-x="588" 
d="M56 716h111v-221l-6 -68h6q20 32 61 55.5t98 23.5q47 0 89.5 -19.5t74.5 -54.5t51 -82.5t19 -104.5t-19 -104.5t-51 -82.5t-74.5 -54.5t-89.5 -19.5q-57 0 -98 23.5t-61 55.5h-6v-63h-105v716zM305 87q28 0 54.5 11t46 31.5t31.5 49.5t12 66t-12 66t-31.5 49.5t-46 31.5
t-54.5 11q-29 0 -55 -11t-45.5 -31t-31.5 -49.5t-12 -66.5t12 -66.5t31.5 -49.5t45.5 -31t55 -11z" />
    <glyph glyph-name="c" unicode="c" horiz-adv-x="533" 
d="M509 125q-14 -29 -34.5 -54.5t-48 -45t-63.5 -30.5t-79 -11q-56 0 -103 19.5t-81 54.5t-53 83t-19 104t19 104t53 83t81 54.5t103 19.5q43 0 78.5 -11t63 -30.5t47.5 -45t32 -53.5l-102 -43q-17 38 -47 59t-76 21q-28 0 -53.5 -11.5t-45 -32t-31 -49.5t-11.5 -65
t11.5 -65t31 -49.5t45 -32t53.5 -11.5q46 0 78.5 21.5t50.5 59.5z" />
    <glyph glyph-name="d" unicode="d" horiz-adv-x="588" 
d="M427 63h-6q-20 -32 -61 -55.5t-98 -23.5q-47 0 -89.5 19.5t-74.5 54.5t-51 82.5t-19 104.5t19 104.5t51 82.5t74.5 54.5t89.5 19.5q57 0 98 -23.5t61 -55.5h6l-6 68v221h111v-716h-105v63zM283 87q28 0 54.5 11t46 31t31.5 49.5t12 66.5t-12 66.5t-31.5 49.5t-46 31
t-54.5 11q-29 0 -55 -11t-45.5 -31.5t-31.5 -49.5t-12 -66t12 -66t31.5 -49.5t45.5 -31.5t55 -11z" />
    <glyph glyph-name="e" unicode="e" horiz-adv-x="546" 
d="M510 117q-31 -57 -88 -95t-140 -38q-55 0 -101.5 19.5t-80.5 54.5t-53 82.5t-19 104.5q0 53 18 100.5t50.5 83t78.5 56.5t102 21q57 0 101.5 -19t75.5 -53t47.5 -82t16.5 -105v-9q-1 -5 -1 -9q-1 -4 -1 -8h-377q3 -35 17 -61t34.5 -43t45.5 -25t49 -8q48 0 79 23t51 57z
M407 306q-2 15 -9.5 33.5t-23 34t-40 26.5t-59.5 11q-48 0 -82.5 -28.5t-46.5 -76.5h261z" />
    <glyph glyph-name="f" unicode="f" horiz-adv-x="383" 
d="M290 724q28 0 50 -5t39 -13l-31 -98q-11 5 -23 8t-30 3q-29 0 -49.5 -20t-20.5 -58v-51h125v-98h-125v-392h-111v392h-90v98h90v59q0 41 13 73.5t36.5 55t56 34.5t70.5 12z" />
    <glyph glyph-name="g" unicode="g" horiz-adv-x="587" 
d="M278 -232q-51 0 -90.5 13.5t-68.5 34.5t-47.5 47t-27.5 50l106 43q14 -39 48 -63.5t80 -24.5q69 0 107.5 42t38.5 116v40h-6q-23 -33 -63.5 -55t-94.5 -22q-45 0 -87 19t-74.5 53t-51.5 82t-19 105t19 104.5t51.5 81.5t74.5 53t87 19q54 0 94.5 -22t63.5 -55h6v61h107
v-462q0 -63 -19.5 -111.5t-53 -81.5t-80 -50t-100.5 -17zM282 92q27 0 53 10t45.5 30t31.5 49t12 67q0 37 -12 66.5t-31.5 49t-45.5 30t-53 10.5q-28 0 -53.5 -10.5t-45.5 -30.5t-32 -49t-12 -66t12 -66t32 -49t45.5 -30.5t53.5 -10.5z" />
    <glyph glyph-name="h" unicode="h" 
d="M56 716h111v-213l-6 -79h6q21 35 62 58.5t91 23.5q48 0 83 -14.5t58 -41.5t34 -64.5t11 -82.5v-303h-111v288q0 61 -29.5 88t-74.5 27q-29 0 -51.5 -12.5t-39 -33.5t-25 -48t-8.5 -56v-253h-111v716z" />
    <glyph glyph-name="i" unicode="i" horiz-adv-x="239" 
d="M120 577q-32 0 -53.5 22t-21.5 53t21.5 53t53.5 22q31 0 52.5 -22t21.5 -53t-21.5 -53t-52.5 -22zM64 0v490h111v-490h-111z" />
    <glyph glyph-name="j" unicode="j" horiz-adv-x="239" 
d="M-18 -117q14 -7 30 -7q29 0 40.5 17.5t11.5 49.5v547h111v-548q0 -45 -11.5 -77t-32.5 -52t-49 -29.5t-61 -9.5q-20 0 -36.5 3.5t-31.5 8.5zM120 577q-32 0 -53.5 22t-21.5 53t21.5 53t53.5 22q31 0 52.5 -22t21.5 -53t-21.5 -53t-52.5 -22z" />
    <glyph glyph-name="k" unicode="k" horiz-adv-x="506" 
d="M56 716h111v-415h4l188 189h139v-6l-186 -184l198 -294v-6h-132l-145 223l-66 -65v-158h-111v716z" />
    <glyph glyph-name="l" unicode="l" horiz-adv-x="223" 
d="M56 0v716h111v-716h-111z" />
    <glyph glyph-name="m" unicode="m" horiz-adv-x="866" 
d="M56 490h105v-66h6q23 36 64 59t87 23q55 0 94.5 -25.5t57.5 -66.5q25 39 67 65.5t101 26.5q45 0 78 -14.5t54.5 -40.5t32.5 -62.5t11 -81.5v-307h-111v288q0 64 -24.5 89.5t-71.5 25.5q-27 0 -48.5 -12t-36.5 -32.5t-23 -47.5t-8 -57v-254h-111v288q0 64 -25.5 89.5
t-73.5 25.5q-26 0 -47 -12t-36 -32.5t-23 -47.5t-8 -57v-254h-111v490z" />
    <glyph glyph-name="n" unicode="n" 
d="M161 424h6q22 35 62.5 58.5t91.5 23.5q93 0 139 -55.5t46 -147.5v-303h-111v288q0 64 -29.5 89.5t-77.5 25.5q-29 0 -51 -12t-38 -32.5t-24 -47t-8 -55.5v-256h-111v490h105v-66z" />
    <glyph glyph-name="o" unicode="o" horiz-adv-x="568" 
d="M284 506q56 0 103 -19.5t81 -54.5t53 -83t19 -104t-19 -104t-53 -83t-81 -54.5t-103 -19.5t-103 19.5t-81 54.5t-53 83t-19 104t19 104t53 83t81 54.5t103 19.5zM284 87q28 0 54 11t46.5 31t32.5 49.5t12 66.5t-12 66.5t-32.5 49.5t-46.5 31t-54 11t-54 -11t-46.5 -31
t-32.5 -49.5t-12 -66.5t12 -66.5t32.5 -49.5t46.5 -31t54 -11z" />
    <glyph glyph-name="p" unicode="p" horiz-adv-x="584" 
d="M52 490h105v-63h6q20 32 61 55.5t98 23.5q47 0 89.5 -19.5t74.5 -54.5t51 -82.5t19 -104.5t-19 -104.5t-51 -82.5t-74.5 -54.5t-89.5 -19.5q-57 0 -98 23.5t-61 55.5h-6l6 -68v-211h-111v706zM301 87q28 0 54.5 11t46 31.5t31.5 49.5t12 66t-12 66t-31.5 49.5t-46 31.5
t-54.5 11q-29 0 -55 -11t-45.5 -31t-31.5 -49.5t-12 -66.5t12 -66.5t31.5 -49.5t45.5 -31t55 -11z" />
    <glyph glyph-name="q" unicode="q" horiz-adv-x="584" 
d="M421 -5l6 68h-6q-20 -32 -61 -55.5t-98 -23.5q-47 0 -89.5 19.5t-74.5 54.5t-51 82.5t-19 104.5t19 104.5t51 82.5t74.5 54.5t89.5 19.5q57 0 98 -23.5t61 -55.5h6v63h105v-706h-111v211zM283 87q28 0 54.5 11t46 31t31.5 49.5t12 66.5t-12 66.5t-31.5 49.5t-46 31
t-54.5 11q-29 0 -55 -11t-45.5 -31.5t-31.5 -49.5t-12 -66t12 -66t31.5 -49.5t45.5 -31.5t55 -11z" />
    <glyph glyph-name="r" unicode="r" horiz-adv-x="385" 
d="M56 490h105v-74h6q9 19 24.5 35.5t35 28t41 18t41.5 6.5q24 0 41 -4t31 -11l-32 -103q-11 5 -24.5 7.5t-32.5 2.5q-27 0 -49.5 -11t-39.5 -30t-26.5 -45t-9.5 -55v-255h-111v490z" />
    <glyph glyph-name="s" unicode="s" horiz-adv-x="469" 
d="M242 -16q-45 0 -81 12t-63 31.5t-45.5 44.5t-28.5 52l100 42q17 -43 49 -63.5t69 -20.5q42 0 66 17t24 38t-18 36.5t-68 27.5l-70 17q-23 5 -46.5 15.5t-43.5 27t-32.5 40t-12.5 55.5q0 36 15.5 64t42.5 47t62.5 29t75.5 10q33 0 63.5 -7t56.5 -21t46.5 -35.5t32.5 -50.5
l-98 -41q-14 32 -44 46.5t-61 14.5q-14 0 -28.5 -3.5t-26 -10t-19 -16.5t-7.5 -22q0 -20 17.5 -31.5t53.5 -20.5l75 -19q76 -19 111.5 -57.5t35.5 -90.5q0 -32 -14.5 -60t-41.5 -50t-64.5 -34.5t-82.5 -12.5z" />
    <glyph glyph-name="t" unicode="t" horiz-adv-x="378" 
d="M110 392h-86v98h86v150h111v-150h121v-98h-121v-218q0 -18 4 -33t12 -25q17 -19 43 -19q16 0 25 2.5t19 7.5l34 -98q-21 -8 -44 -12.5t-52 -4.5q-35 0 -62 11t-47 30q-43 43 -43 117v242z" />
    <glyph glyph-name="u" unicode="u" 
d="M397 66h-6q-22 -35 -62.5 -58.5t-91.5 -23.5q-93 0 -139 55.5t-46 147.5v303h111v-288q0 -64 29.5 -89.5t77.5 -25.5q28 0 50.5 12t38.5 32.5t24 47t8 55.5v256h111v-490h-105v66z" />
    <glyph glyph-name="v" unicode="v" horiz-adv-x="527" 
d="M4 490h125l132 -346h5l135 346h122l-205 -490h-111z" />
    <glyph glyph-name="w" unicode="w" horiz-adv-x="779" 
d="M4 490h121l95 -339h4l110 339h115l109 -339h4l94 339h119l-157 -490h-117l-111 343h-4l-108 -343h-117z" />
    <glyph glyph-name="x" unicode="x" horiz-adv-x="493" 
d="M180 249l-169 241h129l106 -155h3l99 155h134l-171 -241l174 -249h-132l-106 160h-3l-105 -160h-131z" />
    <glyph glyph-name="y" unicode="y" horiz-adv-x="526" 
d="M208 28l-204 462h124l135 -325h5l131 325h123l-307 -706h-118z" />
    <glyph glyph-name="z" unicode="z" horiz-adv-x="469" 
d="M32 93l264 300h-256v97h393v-93l-264 -300h268v-97h-405v93z" />
    <glyph glyph-name="braceleft" unicode="{" horiz-adv-x="328" 
d="M267 -124q-82 0 -128 47t-46 127v162q0 38 -20.5 57t-48.5 19v92q28 0 48.5 19t20.5 57v162q0 80 46 127t128 47h29v-92h-20q-32 0 -54.5 -23t-22.5 -63v-158q0 -50 -16.5 -78.5t-53.5 -40.5v-6q37 -11 53.5 -39.5t16.5 -79.5v-158q0 -40 22.5 -63t54.5 -23h20v-92h-29z
" />
    <glyph glyph-name="bar" unicode="|" horiz-adv-x="246" 
d="M72 792h102v-912h-102v912z" />
    <glyph glyph-name="braceright" unicode="}" horiz-adv-x="328" 
d="M32 -124v92h19q32 0 55 23t23 63v158q0 51 16 79.5t53 39.5v6q-37 12 -53 40.5t-16 78.5v158q0 40 -23 63t-55 23h-19v92h28q82 0 128.5 -47t46.5 -127v-162q0 -38 20.5 -57t48.5 -19v-92q-28 0 -48.5 -19t-20.5 -57v-162q0 -80 -46.5 -127t-128.5 -47h-28z" />
    <glyph glyph-name="asciitilde" unicode="~" horiz-adv-x="542" 
d="M383 229q-27 0 -56.5 9.5t-58.5 21.5t-54.5 21.5t-44.5 9.5q-23 0 -35 -15t-14 -33h-88q0 33 10 60t27 45.5t40 28.5t50 10q28 0 58 -9.5t59 -21.5q28 -12 53 -21.5t44 -9.5q23 0 35 15t14 33h88q0 -33 -10 -60t-27 -45.5t-40 -28.5t-50 -10z" />
    <glyph glyph-name="uni00A0" unicode="&#xa0;" horiz-adv-x="220" 
d="M0 0z" />
    <glyph glyph-name="exclamdown" unicode="&#xa1;" horiz-adv-x="251" 
d="M125 506q32 0 55 -22.5t23 -54.5t-23 -55t-55 -23t-54.5 23t-22.5 55t22.5 54.5t54.5 22.5zM80 266h91l11 -266v-216h-113v216z" />
    <glyph glyph-name="cent" unicode="&#xa2;" horiz-adv-x="530" 
d="M239 86q-47 7 -86 29t-66.5 56t-43 77.5t-15.5 93.5t15.5 93.5t43 77t66.5 55.5t86 30v86h82v-86q70 -9 114.5 -47t67.5 -89l-97 -40q-27 62 -85 78v-317q64 17 93 80l92 -40q-24 -51 -69 -89.5t-116 -48.5v-85h-82v86zM134 342q0 -61 30.5 -102.5t74.5 -55.5v316
q-44 -14 -74.5 -55.5t-30.5 -102.5z" />
    <glyph glyph-name="sterling" unicode="&#xa3;" horiz-adv-x="528" 
d="M346 514q-4 15 -12 30t-21 27t-30.5 19.5t-40.5 7.5q-24 0 -43 -8.5t-32 -22.5t-20 -32t-7 -37q0 -25 7 -46t17.5 -41t22.5 -39t23 -39h133v-89h-110q0 -42 -15 -77t-41 -61l3 -4h165q33 0 51 15t28 43l88 -38q-18 -55 -58 -88.5t-108 -33.5h-314v93q49 21 72.5 58
t23.5 78q0 10 -1 15h-93v89h61l-22 36t-20 38t-15 43t-6 51q0 39 15 75t42.5 63.5t66.5 44t86 16.5q46 0 80.5 -13t59.5 -34t40.5 -47t23.5 -51z" />
    <glyph glyph-name="currency" unicode="&#xa4;" horiz-adv-x="603" 
d="M302 106q-35 0 -67 10.5t-58 28.5l-59 -57l-58 59l59 58q-17 26 -26 56.5t-9 63.5t9 63.5t26 56.5l-59 58l58 60l59 -57q26 18 58 28t67 10t66.5 -10t57.5 -28l59 57l58 -60l-58 -57q17 -26 26 -56.5t9 -64.5q0 -33 -9 -63.5t-26 -56.5l58 -58l-58 -59l-59 57
q-26 -18 -57.5 -28.5t-66.5 -10.5zM302 197q25 0 47.5 10t39 27.5t26 40.5t9.5 50t-9.5 50t-26 40.5t-39 27.5t-47.5 10q-26 0 -48 -10t-38.5 -27.5t-26 -40.5t-9.5 -50t9.5 -50t26 -40.5t38.5 -27.5t48 -10z" />
    <glyph glyph-name="yen" unicode="&#xa5;" horiz-adv-x="602" 
d="M359 319v-74h165v-96h-165v-149h-113v149h-168v96h168v74h-168v96h106l-172 269h133l122 -204l33 -65h6l32 65l119 204h133l-170 -269h104v-96h-165z" />
    <glyph glyph-name="brokenbar" unicode="&#xa6;" horiz-adv-x="246" 
d="M72 376v380h102v-380h-102zM72 -120v412h102v-412h-102z" />
    <glyph glyph-name="section" unicode="&#xa7;" horiz-adv-x="547" 
d="M279 -232q-42 0 -81 13.5t-70.5 38.5t-54.5 61.5t-33 81.5l103 40q7 -28 19.5 -52t29.5 -42t39.5 -28t49.5 -10q23 0 44 7t36.5 19t24.5 28.5t9 36.5q0 22 -8.5 39.5t-26.5 31.5t-46 26t-67 25l-15 5q-85 29 -127.5 73.5t-42.5 109.5q0 42 20.5 77t58.5 61
q-38 26 -58.5 60.5t-20.5 80.5q0 35 15 67.5t42.5 58t67 40.5t88.5 15q45 0 81 -14.5t62.5 -36t43.5 -48t24 -50.5l-103 -41q-4 15 -12.5 30.5t-22 28t-32 20.5t-41.5 8q-45 0 -73.5 -24t-28.5 -53q0 -16 6.5 -28.5t21 -23t36.5 -21t53 -21.5l25 -9q41 -15 76.5 -32.5
t61 -41.5t40 -56.5t14.5 -77.5q0 -47 -17.5 -82.5t-45.5 -57.5q29 -26 45.5 -59.5t16.5 -78.5q0 -47 -19.5 -83.5t-51 -61t-72.5 -37.5t-84 -13zM306 173q14 -5 27.5 -10t25.5 -10q17 14 27 36t10 42q0 27 -9 45.5t-27 32.5t-45.5 26t-64.5 26l-16 6q-29 -12 -46.5 -36.5
t-17.5 -50.5q0 -35 28.5 -58t86.5 -42z" />
    <glyph glyph-name="dieresis" unicode="&#xa8;" horiz-adv-x="426" 
d="M303 595q-26 0 -45.5 19t-19.5 45q0 28 19.5 46t45.5 18q27 0 45.5 -18t18.5 -46q0 -26 -18.5 -45t-45.5 -19zM123 595q-26 0 -45 19t-19 45q0 28 19 46t45 18q28 0 46.5 -18t18.5 -46q0 -26 -18.5 -45t-46.5 -19z" />
    <glyph glyph-name="copyright" unicode="&#xa9;" horiz-adv-x="532" 
d="M266 272q-48 0 -89.5 18t-73 49.5t-49.5 73t-18 89.5q0 47 18 89t49.5 73.5t73 49.5t89.5 18q47 0 89 -18t73.5 -49.5t49.5 -73.5t18 -89q0 -48 -18 -89.5t-49.5 -73t-73.5 -49.5t-89 -18zM266 320q38 0 71 14.5t58 39.5t39 58t14 70q0 38 -14 71t-39 58t-58 39t-71 14
q-37 0 -70 -14t-58 -39t-39.5 -58t-14.5 -71q0 -37 14.5 -70t39.5 -58t58 -39.5t70 -14.5zM270 383q-26 0 -47.5 9.5t-37.5 25.5t-25 38t-9 46q0 25 9 46.5t25 37.5t37.5 25.5t47.5 9.5q31 0 50.5 -11t36.5 -28l-32 -29q-11 11 -22 17.5t-33 6.5q-29 0 -51 -21.5t-22 -53.5
t22 -53.5t51 -21.5q21 0 35 8.5t25 22.5l34 -27q-16 -21 -39 -34.5t-55 -13.5z" />
    <glyph glyph-name="ordfeminine" unicode="&#xaa;" horiz-adv-x="486" 
d="M206 272q-33 0 -63.5 10.5t-53 29.5t-36 46.5t-13.5 60.5q0 35 15 62.5t40.5 46t59 28.5t70.5 10q42 0 73 -9t48 -17v14q0 43 -30 67.5t-73 24.5q-35 0 -59.5 -12.5t-40.5 -40.5l-87 43q21 40 67.5 68t117.5 28q44 0 81.5 -12t65 -35t43 -58.5t15.5 -81.5v-259h-100v54
h-6q-20 -29 -53.5 -48.5t-80.5 -19.5zM226 356q23 0 45 8.5t38.5 23t26.5 34.5t10 43q-13 7 -38 16t-60 9q-55 0 -79 -21t-24 -52t25 -46t56 -15z" />
    <glyph glyph-name="guillemotleft" unicode="&#xab;" horiz-adv-x="583" 
d="M311 106l-64 -59l-207 224l207 224l64 -59l-156 -165zM523 106l-64 -59l-207 224l207 224l64 -59l-156 -165z" />
    <glyph glyph-name="logicalnot" unicode="&#xac;" horiz-adv-x="578" 
d="M48 394h450v-289h-93v195h-357v94z" />
    <glyph glyph-name="uni00AD" unicode="&#xad;" horiz-adv-x="441" 
d="M56 358h329v-96h-329v96z" />
    <glyph glyph-name="registered" unicode="&#xae;" horiz-adv-x="532" 
d="M266 272q-48 0 -89.5 18t-73 49.5t-49.5 73t-18 89.5q0 47 18 89t49.5 73.5t73 49.5t89.5 18q47 0 89 -18t73.5 -49.5t49.5 -73.5t18 -89q0 -48 -18 -89.5t-49.5 -73t-73.5 -49.5t-89 -18zM266 320q38 0 71 14.5t58 39.5t39 58t14 70q0 38 -14 71t-39 58t-58 39t-71 14
q-37 0 -70 -14t-58 -39t-39.5 -58t-14.5 -71q0 -37 14.5 -70t39.5 -58t58 -39.5t70 -14.5zM189 389v226h96q29 0 51 -20.5t22 -51.5q0 -23 -14.5 -41.5t-35.5 -24.5l-2 -2l60 -84v-2h-52l-55 84h-24v-84h-46zM281 515q12 0 21.5 7.5t9.5 20.5q0 10 -8 19t-22 9h-47v-56h46z
" />
    <glyph glyph-name="macron" unicode="&#xaf;" horiz-adv-x="408" 
d="M60 616v86h288v-86h-288z" />
    <glyph glyph-name="degree" unicode="&#xb0;" horiz-adv-x="325" 
d="M163 442q-27 0 -51 10t-41.5 27.5t-28 41t-10.5 50.5t10.5 50.5t28 41t41.5 27.5t51 10t50.5 -10t41 -27.5t28 -41t10.5 -50.5t-10.5 -50.5t-28 -41t-41 -27.5t-50.5 -10zM163 513q24 0 40 17.5t16 40.5q0 24 -16 41t-40 17t-40.5 -17t-16.5 -41q0 -23 16.5 -40.5
t40.5 -17.5z" />
    <glyph glyph-name="plusminus" unicode="&#xb1;" horiz-adv-x="559" 
d="M328 398h175v-92h-175v-149h-96v149h-176v92h176v149h96v-149zM56 0v96h447v-96h-447z" />
    <glyph glyph-name="twosuperior" unicode="&#xb2;" horiz-adv-x="311" 
d="M27 350v62l131 131q15 16 28 32.5t13 36.5q0 17 -13 29t-33 12t-35.5 -13t-20.5 -42l-73 30q11 45 46.5 70.5t81.5 25.5q26 0 49.5 -7.5t41 -22t28 -34.5t10.5 -44q0 -18 -7 -34.5t-16.5 -30.5t-20.5 -26t-20 -21l-83 -83h149v-71h-256z" />
    <glyph glyph-name="threesuperior" unicode="&#xb3;" horiz-adv-x="329" 
d="M162 342q-48 0 -86.5 24t-51.5 76l74 27q7 -32 25.5 -44t38.5 -12q21 0 37.5 13t16.5 36q0 21 -16.5 33t-41.5 12h-40v66h36q23 0 37 11t14 31q0 18 -13.5 28t-31.5 10q-25 0 -37 -13t-17 -27l-70 29q13 36 44 59t81 23q56 0 90 -30t34 -74q0 -47 -44 -77q24 -14 40 -35
t16 -49t-11.5 -49.5t-30 -36.5t-43 -23t-50.5 -8z" />
    <glyph glyph-name="acute" unicode="&#xb4;" horiz-adv-x="421" 
d="M152 588l47 132h126l-80 -132h-93z" />
    <glyph glyph-name="mu" unicode="&#xb5;" 
d="M397 0v61h-6q-21 -33 -55 -55t-84 -22q-26 0 -48 9t-41 23h-6l6 -60v-172h-111v706h111v-282q0 -64 29.5 -92.5t77.5 -28.5q28 0 50.5 12t38.5 32.5t24 47.5t8 56v255h111v-490h-105z" />
    <glyph glyph-name="paragraph" unicode="&#xb6;" horiz-adv-x="633" 
d="M283 -216v512h-35q-45 0 -85.5 14.5t-71 41.5t-49 66t-18.5 88t18.5 88t49 66t71 41.5t85.5 14.5h305v-932h-96v834h-78v-834h-96z" />
    <glyph glyph-name="periodcentered" unicode="&#xb7;" horiz-adv-x="195" 
d="M97 247q-32 0 -54.5 22.5t-22.5 54.5t22.5 54.5t54.5 22.5t55 -22.5t23 -54.5t-23 -54.5t-55 -22.5z" />
    <glyph glyph-name="cedilla" unicode="&#xb8;" horiz-adv-x="405" 
d="M168 -237q-35 0 -60.5 19t-36.5 47l58 25q5 -12 14.5 -21.5t24.5 -9.5q17 0 27 11t10 25q0 15 -10 26.5t-27 11.5q-19 0 -31 -15l-53 25l35 93h62l-21 -48q5 1 9 1.5t10 0.5q38 0 65 -26t27 -69q0 -40 -28.5 -68t-74.5 -28z" />
    <glyph glyph-name="onesuperior" unicode="&#xb9;" horiz-adv-x="257" 
d="M118 350v274l-66 -27l-28 64l118 55h55v-366h-79z" />
    <glyph glyph-name="ordmasculine" unicode="&#xba;" horiz-adv-x="525" 
d="M263 272q-50 0 -91.5 17.5t-71.5 48t-47 72.5t-17 92q0 49 17 91.5t47 73t71.5 48t91.5 17.5q49 0 90.5 -17.5t71.5 -48t47 -73t17 -91.5q0 -50 -17 -92t-47 -72.5t-71.5 -48t-90.5 -17.5zM263 366q24 0 46 9.5t39.5 27.5t28 43t10.5 56t-10.5 56t-28 43t-39.5 27.5
t-46 9.5t-46.5 -9.5t-39.5 -27.5t-27.5 -43t-10.5 -56t10.5 -56t27.5 -43t39.5 -27.5t46.5 -9.5z" />
    <glyph glyph-name="guillemotright" unicode="&#xbb;" horiz-adv-x="583" 
d="M216 271l-156 165l64 59l207 -224l-207 -224l-64 59zM428 271l-156 165l64 59l207 -224l-207 -224l-64 59z" />
    <glyph glyph-name="onequarter" unicode="&#xbc;" horiz-adv-x="753" 
d="M572 0v69h-172v56l172 241h78v-231h47v-66h-47v-69h-78zM572 135v120h-6l-86 -120h92zM110 33l466 695l67 -46l-465 -694zM142 350v274l-66 -27l-28 64l118 55h55v-366h-79z" />
    <glyph glyph-name="onehalf" unicode="&#xbd;" horiz-adv-x="792" 
d="M480 0v62l131 131q15 16 28 32.5t13 36.5q0 17 -13 29t-33 12t-35.5 -13t-20.5 -42l-73 30q11 45 46.5 70.5t81.5 25.5q26 0 49.5 -7.5t41 -22t28 -34.5t10.5 -44q0 -18 -7 -34.5t-16.5 -30.5t-20.5 -26t-20 -21l-83 -83h149v-71h-256zM102 33l466 695l67 -46l-465 -694z
M142 350v274l-66 -27l-28 64l118 55h55v-366h-79z" />
    <glyph glyph-name="threequarters" unicode="&#xbe;" horiz-adv-x="836" 
d="M186 342q-48 0 -86.5 24t-51.5 76l74 27q7 -32 25.5 -44t38.5 -12q21 0 37.5 13t16.5 36q0 21 -16.5 33t-41.5 12h-40v66h36q23 0 37 11t14 31q0 18 -13.5 28t-31.5 10q-25 0 -37 -13t-17 -27l-70 29q13 36 44 59t81 23q56 0 90 -30t34 -74q0 -47 -44 -77q24 -14 40 -35
t16 -49t-11.5 -49.5t-30 -36.5t-43 -23t-50.5 -8zM653 0v69h-172v56l172 241h78v-231h47v-66h-47v-69h-78zM653 135v120h-6l-86 -120h92zM179 33l466 695l67 -46l-465 -694z" />
    <glyph glyph-name="questiondown" unicode="&#xbf;" horiz-adv-x="492" 
d="M302 266v-40q0 -24 -4.5 -43.5t-15 -38t-27.5 -37t-42 -40.5q-29 -26 -47 -48.5t-18 -56.5q0 -38 25.5 -63.5t72.5 -25.5q24 0 42.5 8t32 20.5t22 28.5t13.5 32l100 -42q-8 -25 -25 -52t-42.5 -49t-60.5 -36.5t-80 -14.5q-47 0 -86 14.5t-66.5 40t-43 60t-15.5 75.5
q0 30 9 55t22.5 45.5t29.5 37t31 30.5q32 29 46 54t14 58v28h113zM170 429q0 32 22.5 54.5t54.5 22.5t54.5 -22.5t22.5 -54.5t-22.5 -54.5t-54.5 -22.5t-54.5 22.5t-22.5 54.5z" />
    <glyph glyph-name="Agrave" unicode="&#xc0;" horiz-adv-x="692" 
d="M281 716h130l269 -716h-125l-65 184h-288l-65 -184h-125zM452 287l-75 211l-28 84h-6l-28 -84l-75 -211h212zM302 772l-81 132h126l47 -132h-92z" />
    <glyph glyph-name="Aacute" unicode="&#xc1;" horiz-adv-x="692" 
d="M281 716h130l269 -716h-125l-65 184h-288l-65 -184h-125zM452 287l-75 211l-28 84h-6l-28 -84l-75 -211h212zM298 772l47 132h126l-80 -132h-93z" />
    <glyph glyph-name="Acircumflex" unicode="&#xc2;" horiz-adv-x="692" 
d="M281 716h130l269 -716h-125l-65 184h-288l-65 -184h-125zM452 287l-75 211l-28 84h-6l-28 -84l-75 -211h212zM189 779l108 121h98l108 -121v-7h-107l-45 59h-10l-45 -59h-107v7z" />
    <glyph glyph-name="Atilde" unicode="&#xc3;" horiz-adv-x="692" 
d="M281 716h130l269 -716h-125l-65 184h-288l-65 -184h-125zM452 287l-75 211l-28 84h-6l-28 -84l-75 -211h212zM407 775q-19 0 -37 7t-33.5 15t-27.5 15t-20 7q-27 0 -30 -32h-84q0 32 10 55t26.5 38t37 22t40.5 7q19 0 36.5 -7t33 -15t28.5 -15q12 -7 20 -7q28 0 29 32h84
q0 -32 -10 -55t-26 -38t-36.5 -22t-40.5 -7z" />
    <glyph glyph-name="Adieresis" unicode="&#xc4;" horiz-adv-x="692" 
d="M281 716h130l269 -716h-125l-65 184h-288l-65 -184h-125zM452 287l-75 211l-28 84h-6l-28 -84l-75 -211h212zM436 779q-26 0 -45.5 19t-19.5 45q0 28 19.5 46t45.5 18q27 0 45.5 -18t18.5 -46q0 -26 -18.5 -45t-45.5 -19zM256 779q-26 0 -45 19t-19 45q0 28 19 46t45 18
q28 0 46.5 -18t18.5 -46q0 -26 -18.5 -45t-46.5 -19z" />
    <glyph glyph-name="Aring" unicode="&#xc5;" horiz-adv-x="692" 
d="M265 672q-17 17 -26.5 38t-9.5 46q0 24 9 45.5t25 37.5t37.5 25t45.5 9t45.5 -9t37 -25t25 -37.5t9.5 -45.5q0 -25 -9.5 -46t-26.5 -38l253 -672h-125l-65 184h-288l-65 -184h-125zM452 287l-75 211l-28 84h-6l-28 -84l-75 -211h212zM346 716q17 0 28.5 11.5t11.5 28.5
t-11.5 28.5t-28.5 11.5t-28.5 -11.5t-11.5 -28.5t11.5 -28.5t28.5 -11.5z" />
    <glyph glyph-name="AE" unicode="&#xc6;" horiz-adv-x="982" 
d="M4 0l425 716h501v-108h-322v-197h290v-106h-290v-197h322v-108h-436v184h-250l-106 -184h-134zM306 290h188v318h-7l-31 -60z" />
    <glyph glyph-name="Ccedilla" unicode="&#xc7;" horiz-adv-x="732" 
d="M414 -237q-35 0 -60.5 19t-36.5 47l58 25q5 -12 15 -21.5t24 -9.5q17 0 27 11t10 25q0 15 -10 26.5t-27 11.5q-20 0 -30 -15l-54 25l30 80q-70 9 -129.5 40.5t-102.5 80.5t-67 113t-24 137q0 79 28.5 147.5t79 119t118.5 79t148 28.5q83 0 149 -30.5t116 -86.5l-80 -78
q-36 43 -80.5 65t-104.5 22q-53 0 -100.5 -18.5t-82.5 -53t-55.5 -84t-20.5 -110.5t20.5 -110.5t55.5 -84t82.5 -53t100.5 -18.5q64 0 114 26.5t89 73.5l82 -79q-50 -58 -119.5 -92.5t-156.5 -36.5l-14 -32q5 1 9 1.5t10 0.5q38 0 65.5 -26t27.5 -69q0 -40 -29 -68t-75 -28z
" />
    <glyph glyph-name="Egrave" unicode="&#xc8;" horiz-adv-x="560" 
d="M185 608v-197h291v-106h-291v-197h323v-108h-436v716h436v-108h-323zM252 772l-81 132h126l47 -132h-92z" />
    <glyph glyph-name="Eacute" unicode="&#xc9;" horiz-adv-x="560" 
d="M239 772l47 132h126l-80 -132h-93zM185 608v-197h291v-106h-291v-197h323v-108h-436v716h436v-108h-323z" />
    <glyph glyph-name="Ecircumflex" unicode="&#xca;" horiz-adv-x="560" 
d="M133 779l108 121h98l108 -121v-7h-107l-45 59h-10l-45 -59h-107v7zM185 608v-197h291v-106h-291v-197h323v-108h-436v716h436v-108h-323z" />
    <glyph glyph-name="Edieresis" unicode="&#xcb;" horiz-adv-x="560" 
d="M376 779q-26 0 -45.5 19t-19.5 45q0 28 19.5 46t45.5 18q27 0 45.5 -18t18.5 -46q0 -26 -18.5 -45t-45.5 -19zM196 779q-26 0 -45 19t-19 45q0 28 19 46t45 18q28 0 46.5 -18t18.5 -46q0 -26 -18.5 -45t-46.5 -19zM185 608v-197h291v-106h-291v-197h323v-108h-436v716
h436v-108h-323z" />
    <glyph glyph-name="Igrave" unicode="&#xcc;" horiz-adv-x="257" 
d="M72 716h113v-716h-113v716zM87 772l-81 132h126l47 -132h-92z" />
    <glyph glyph-name="Iacute" unicode="&#xcd;" horiz-adv-x="257" 
d="M72 716h113v-716h-113v716zM80 772l47 132h126l-80 -132h-93z" />
    <glyph glyph-name="Icircumflex" unicode="&#xce;" horiz-adv-x="257" 
d="M72 716h113v-716h-113v716zM-27 779l108 121h98l108 -121v-7h-107l-45 59h-10l-45 -59h-107v7z" />
    <glyph glyph-name="Idieresis" unicode="&#xcf;" horiz-adv-x="257" 
d="M51 781q-25 0 -44 18.5t-19 44.5t19 44.5t44 18.5q27 0 45 -18.5t18 -44.5t-18 -44.5t-45 -18.5zM206 781q-26 0 -44.5 18.5t-18.5 44.5t18.5 44.5t44.5 18.5q27 0 45 -18.5t18 -44.5t-18 -44.5t-45 -18.5zM72 716h113v-716h-113v716z" />
    <glyph glyph-name="Eth" unicode="&#xd0;" horiz-adv-x="765" 
d="M132 310h-76v94h76v312h230q85 0 152.5 -26.5t115 -73.5t73 -113t25.5 -145t-25.5 -145t-73 -113t-115 -73.5t-152.5 -26.5h-230v310zM360 108q121 0 187 66t66 184q0 117 -66 183.5t-187 66.5h-115v-204h192v-94h-192v-202h115z" />
    <glyph glyph-name="Ntilde" unicode="&#xd1;" horiz-adv-x="709" 
d="M72 716h135l318 -519h6l-6 138v381h112v-716h-118l-334 545h-6l6 -138v-407h-113v716zM422 775q-19 0 -37 7t-33.5 15t-27.5 15t-20 7q-27 0 -30 -32h-84q0 32 10 55t26.5 38t37 22t40.5 7q19 0 36.5 -7t33 -15t28.5 -15q12 -7 20 -7q28 0 29 32h84q0 -32 -10 -55
t-26 -38t-36.5 -22t-40.5 -7z" />
    <glyph glyph-name="Ograve" unicode="&#xd2;" horiz-adv-x="816" 
d="M408 -16q-80 0 -147.5 29t-117.5 79.5t-78 119t-28 146.5t28 146t78 119t117.5 80t147.5 29q79 0 147 -29t118 -80t78 -119t28 -146t-28 -146.5t-78 -119t-118 -79.5t-147 -29zM408 92q53 0 100 19t81.5 54t54.5 84t20 109t-20 109t-54.5 84t-81.5 54t-100 19t-100 -19
t-81.5 -54t-54.5 -84t-20 -109t20 -109t54.5 -84t81.5 -54t100 -19zM362 772l-81 132h126l47 -132h-92z" />
    <glyph glyph-name="Oacute" unicode="&#xd3;" horiz-adv-x="816" 
d="M361 772l47 132h126l-80 -132h-93zM408 -16q-80 0 -147.5 29t-117.5 79.5t-78 119t-28 146.5t28 146t78 119t117.5 80t147.5 29q79 0 147 -29t118 -80t78 -119t28 -146t-28 -146.5t-78 -119t-118 -79.5t-147 -29zM408 92q53 0 100 19t81.5 54t54.5 84t20 109t-20 109
t-54.5 84t-81.5 54t-100 19t-100 -19t-81.5 -54t-54.5 -84t-20 -109t20 -109t54.5 -84t81.5 -54t100 -19z" />
    <glyph glyph-name="Ocircumflex" unicode="&#xd4;" horiz-adv-x="816" 
d="M251 780l108 121h98l108 -121v-7h-107l-45 59h-10l-45 -59h-107v7zM408 -16q-80 0 -147.5 29t-117.5 79.5t-78 119t-28 146.5t28 146t78 119t117.5 80t147.5 29q79 0 147 -29t118 -80t78 -119t28 -146t-28 -146.5t-78 -119t-118 -79.5t-147 -29zM408 92q53 0 100 19
t81.5 54t54.5 84t20 109t-20 109t-54.5 84t-81.5 54t-100 19t-100 -19t-81.5 -54t-54.5 -84t-20 -109t20 -109t54.5 -84t81.5 -54t100 -19z" />
    <glyph glyph-name="Otilde" unicode="&#xd5;" horiz-adv-x="816" 
d="M408 -16q-80 0 -147.5 29t-117.5 79.5t-78 119t-28 146.5t28 146t78 119t117.5 80t147.5 29q79 0 147 -29t118 -80t78 -119t28 -146t-28 -146.5t-78 -119t-118 -79.5t-147 -29zM408 92q53 0 100 19t81.5 54t54.5 84t20 109t-20 109t-54.5 84t-81.5 54t-100 19t-100 -19
t-81.5 -54t-54.5 -84t-20 -109t20 -109t54.5 -84t81.5 -54t100 -19zM467 775q-19 0 -37 7t-33.5 15t-27.5 15t-20 7q-27 0 -30 -32h-84q0 32 10 55t26.5 38t37 22t40.5 7q19 0 36.5 -7t33 -15t28.5 -15q12 -7 20 -7q28 0 29 32h84q0 -32 -10 -55t-26 -38t-36.5 -22t-40.5 -7
z" />
    <glyph glyph-name="Odieresis" unicode="&#xd6;" horiz-adv-x="816" 
d="M498 779q-26 0 -45.5 19t-19.5 45q0 28 19.5 46t45.5 18q27 0 45.5 -18t18.5 -46q0 -26 -18.5 -45t-45.5 -19zM318 779q-26 0 -45 19t-19 45q0 28 19 46t45 18q28 0 46.5 -18t18.5 -46q0 -26 -18.5 -45t-46.5 -19zM408 -16q-80 0 -147.5 29t-117.5 79.5t-78 119
t-28 146.5t28 146t78 119t117.5 80t147.5 29q79 0 147 -29t118 -80t78 -119t28 -146t-28 -146.5t-78 -119t-118 -79.5t-147 -29zM408 92q53 0 100 19t81.5 54t54.5 84t20 109t-20 109t-54.5 84t-81.5 54t-100 19t-100 -19t-81.5 -54t-54.5 -84t-20 -109t20 -109t54.5 -84
t81.5 -54t100 -19z" />
    <glyph glyph-name="multiply" unicode="&#xd7;" horiz-adv-x="577" 
d="M221 271l-161 156l66 66l162 -157l163 157l66 -66l-162 -156l162 -156l-66 -66l-163 157l-162 -157l-66 66z" />
    <glyph glyph-name="Oslash" unicode="&#xd8;" horiz-adv-x="816" 
d="M408 -16q-43 0 -83 8.5t-75 24.5l-37 -59l-77 49l36 58q-63 51 -99 126.5t-36 166.5q0 78 28 146t78 119t117.5 80t147.5 29q85 0 159 -34l38 61l76 -50l-37 -60q63 -51 99 -126.5t36 -164.5q0 -78 -28 -146.5t-78 -119t-118 -79.5t-147 -29zM408 624q-53 0 -100 -19
t-81.5 -54t-54.5 -84t-20 -109q0 -63 21.5 -113t58.5 -85l276 444q-46 20 -100 20zM408 92q53 0 100 19t81.5 54t54.5 84t20 109q0 62 -21 112t-58 85l-277 -444q44 -19 100 -19z" />
    <glyph glyph-name="Ugrave" unicode="&#xd9;" horiz-adv-x="655" 
d="M328 -16q-61 0 -111 20.5t-86 58.5t-55.5 92t-19.5 120v441h113v-447q0 -38 10 -70.5t30 -56t49.5 -37t69.5 -13.5q39 0 69 13.5t49.5 37t29.5 56t10 70.5v447h113v-441q0 -65 -18.5 -118.5t-54 -91.5t-85.5 -59.5t-113 -21.5zM287 772l-81 132h126l47 -132h-92z" />
    <glyph glyph-name="Uacute" unicode="&#xda;" horiz-adv-x="655" 
d="M276 772l47 132h126l-80 -132h-93zM328 -16q-61 0 -111 20.5t-86 58.5t-55.5 92t-19.5 120v441h113v-447q0 -38 10 -70.5t30 -56t49.5 -37t69.5 -13.5q39 0 69 13.5t49.5 37t29.5 56t10 70.5v447h113v-441q0 -65 -18.5 -118.5t-54 -91.5t-85.5 -59.5t-113 -21.5z" />
    <glyph glyph-name="Ucircumflex" unicode="&#xdb;" horiz-adv-x="655" 
d="M171 779l108 121h98l108 -121v-7h-107l-45 59h-10l-45 -59h-107v7zM328 -16q-61 0 -111 20.5t-86 58.5t-55.5 92t-19.5 120v441h113v-447q0 -38 10 -70.5t30 -56t49.5 -37t69.5 -13.5q39 0 69 13.5t49.5 37t29.5 56t10 70.5v447h113v-441q0 -65 -18.5 -118.5t-54 -91.5
t-85.5 -59.5t-113 -21.5z" />
    <glyph glyph-name="Udieresis" unicode="&#xdc;" horiz-adv-x="655" 
d="M418 779q-26 0 -45.5 19t-19.5 45q0 28 19.5 46t45.5 18q27 0 45.5 -18t18.5 -46q0 -26 -18.5 -45t-45.5 -19zM238 779q-26 0 -45 19t-19 45q0 28 19 46t45 18q28 0 46.5 -18t18.5 -46q0 -26 -18.5 -45t-46.5 -19zM328 -16q-61 0 -111 20.5t-86 58.5t-55.5 92t-19.5 120
v441h113v-447q0 -38 10 -70.5t30 -56t49.5 -37t69.5 -13.5q39 0 69 13.5t49.5 37t29.5 56t10 70.5v447h113v-441q0 -65 -18.5 -118.5t-54 -91.5t-85.5 -59.5t-113 -21.5z" />
    <glyph glyph-name="Yacute" unicode="&#xdd;" horiz-adv-x="615" 
d="M253 333l-241 383h135l160 -264h6l155 264h135l-237 -383v-333h-113v333zM257 772l47 132h126l-80 -132h-93z" />
    <glyph glyph-name="Thorn" unicode="&#xde;" horiz-adv-x="578" 
d="M72 0v716h113v-115h135q48 0 90.5 -16t74.5 -45t50.5 -69.5t18.5 -89.5t-18.5 -89.5t-50.5 -69.5t-74.5 -45t-90.5 -16h-135v-161h-113zM185 493v-224h138q28 0 50 10t37 26t23 36t8 40t-8 40t-23 36t-37 26t-50 10h-138z" />
    <glyph glyph-name="germandbls" unicode="&#xdf;" horiz-adv-x="574" 
d="M425 384q51 -22 84 -65.5t33 -109.5q0 -48 -17 -87.5t-47.5 -68.5t-73 -45t-92.5 -16q-14 0 -27.5 1t-28.5 3v104q14 -2 26.5 -3.5t25.5 -1.5q25 0 47.5 9t38.5 24.5t25.5 37.5t9.5 48q0 25 -11 46.5t-29 37.5t-42 24.5t-50 8.5h-32v102h23q52 0 81 27.5t29 72.5
q0 42 -30.5 68t-73.5 26q-53 0 -81 -32.5t-28 -83.5v-511h-113v511q0 48 15 88.5t43.5 70t69.5 46t94 16.5q46 0 85.5 -14.5t68.5 -40t45 -61t16 -77.5q0 -56 -24.5 -92.5t-59.5 -56.5v-6z" />
    <glyph glyph-name="agrave" unicode="&#xe0;" horiz-adv-x="523" 
d="M366 60h-6q-22 -29 -57 -52.5t-89 -23.5q-39 0 -73 12.5t-59 35t-39.5 53t-14.5 67.5q0 39 15.5 70t43 52t65.5 32.5t82 11.5q49 0 82 -9.5t50 -17.5v19q0 22 -9.5 41t-26 32.5t-37.5 21t-44 7.5q-37 0 -66.5 -14.5t-52.5 -46.5l-88 58q35 48 87 72.5t118 24.5
q109 0 168.5 -54t59.5 -154v-298h-109v60zM366 204q-22 13 -49 21t-62 8q-52 0 -83 -24t-31 -58q0 -18 8 -31.5t20.5 -23.5t29 -15t33.5 -5q27 0 51.5 10.5t42.5 28t29 40.5t11 49zM224 588l-81 132h126l47 -132h-92z" />
    <glyph glyph-name="aacute" unicode="&#xe1;" horiz-adv-x="523" 
d="M366 60h-6q-22 -29 -57 -52.5t-89 -23.5q-39 0 -73 12.5t-59 35t-39.5 53t-14.5 67.5q0 39 15.5 70t43 52t65.5 32.5t82 11.5q49 0 82 -9.5t50 -17.5v19q0 22 -9.5 41t-26 32.5t-37.5 21t-44 7.5q-37 0 -66.5 -14.5t-52.5 -46.5l-88 58q35 48 87 72.5t118 24.5
q109 0 168.5 -54t59.5 -154v-298h-109v60zM366 204q-22 13 -49 21t-62 8q-52 0 -83 -24t-31 -58q0 -18 8 -31.5t20.5 -23.5t29 -15t33.5 -5q27 0 51.5 10.5t42.5 28t29 40.5t11 49zM206 588l47 132h126l-80 -132h-93z" />
    <glyph glyph-name="acircumflex" unicode="&#xe2;" horiz-adv-x="523" 
d="M366 60h-6q-22 -29 -57 -52.5t-89 -23.5q-39 0 -73 12.5t-59 35t-39.5 53t-14.5 67.5q0 39 15.5 70t43 52t65.5 32.5t82 11.5q49 0 82 -9.5t50 -17.5v19q0 22 -9.5 41t-26 32.5t-37.5 21t-44 7.5q-37 0 -66.5 -14.5t-52.5 -46.5l-88 58q35 48 87 72.5t118 24.5
q109 0 168.5 -54t59.5 -154v-298h-109v60zM366 204q-22 13 -49 21t-62 8q-52 0 -83 -24t-31 -58q0 -18 8 -31.5t20.5 -23.5t29 -15t33.5 -5q27 0 51.5 10.5t42.5 28t29 40.5t11 49zM97 595l108 121h98l108 -121v-7h-107l-45 59h-10l-45 -59h-107v7z" />
    <glyph glyph-name="atilde" unicode="&#xe3;" horiz-adv-x="523" 
d="M366 60h-6q-22 -29 -57 -52.5t-89 -23.5q-39 0 -73 12.5t-59 35t-39.5 53t-14.5 67.5q0 39 15.5 70t43 52t65.5 32.5t82 11.5q49 0 82 -9.5t50 -17.5v19q0 22 -9.5 41t-26 32.5t-37.5 21t-44 7.5q-37 0 -66.5 -14.5t-52.5 -46.5l-88 58q35 48 87 72.5t118 24.5
q109 0 168.5 -54t59.5 -154v-298h-109v60zM366 204q-22 13 -49 21t-62 8q-52 0 -83 -24t-31 -58q0 -18 8 -31.5t20.5 -23.5t29 -15t33.5 -5q27 0 51.5 10.5t42.5 28t29 40.5t11 49zM325 592q-19 0 -37 7t-33.5 15t-27.5 15t-20 7q-27 0 -30 -32h-84q0 32 10 55t26.5 38
t37 22t40.5 7q19 0 36.5 -7t33 -15t28.5 -15q12 -7 20 -7q28 0 29 32h84q0 -32 -10 -55t-26 -38t-36.5 -22t-40.5 -7z" />
    <glyph glyph-name="adieresis" unicode="&#xe4;" horiz-adv-x="523" 
d="M366 60h-6q-22 -29 -57 -52.5t-89 -23.5q-39 0 -73 12.5t-59 35t-39.5 53t-14.5 67.5q0 39 15.5 70t43 52t65.5 32.5t82 11.5q49 0 82 -9.5t50 -17.5v19q0 22 -9.5 41t-26 32.5t-37.5 21t-44 7.5q-37 0 -66.5 -14.5t-52.5 -46.5l-88 58q35 48 87 72.5t118 24.5
q109 0 168.5 -54t59.5 -154v-298h-109v60zM366 204q-22 13 -49 21t-62 8q-52 0 -83 -24t-31 -58q0 -18 8 -31.5t20.5 -23.5t29 -15t33.5 -5q27 0 51.5 10.5t42.5 28t29 40.5t11 49zM352 595q-26 0 -45.5 19t-19.5 45q0 28 19.5 46t45.5 18q27 0 45.5 -18t18.5 -46
q0 -26 -18.5 -45t-45.5 -19zM172 595q-26 0 -45 19t-19 45q0 28 19 46t45 18q28 0 46.5 -18t18.5 -46q0 -26 -18.5 -45t-46.5 -19z" />
    <glyph glyph-name="aring" unicode="&#xe5;" horiz-adv-x="523" 
d="M366 60h-6q-22 -29 -57 -52.5t-89 -23.5q-39 0 -73 12.5t-59 35t-39.5 53t-14.5 67.5q0 39 15.5 70t43 52t65.5 32.5t82 11.5q49 0 82 -9.5t50 -17.5v19q0 22 -9.5 41t-26 32.5t-37.5 21t-44 7.5q-37 0 -66.5 -14.5t-52.5 -46.5l-88 58q35 48 87 72.5t118 24.5
q109 0 168.5 -54t59.5 -154v-298h-109v60zM366 204q-22 13 -49 21t-62 8q-52 0 -83 -24t-31 -58q0 -18 8 -31.5t20.5 -23.5t29 -15t33.5 -5q27 0 51.5 10.5t42.5 28t29 40.5t11 49zM263 563q-22 0 -41.5 8.5t-33.5 23t-22.5 33.5t-8.5 41q0 45 30.5 75.5t75.5 30.5
q22 0 41 -8.5t33.5 -22.5t23 -33.5t8.5 -41.5t-8.5 -41t-23 -33.5t-33.5 -23t-41 -8.5zM263 629q16 0 27.5 12t11.5 28t-11.5 27.5t-27.5 11.5t-27.5 -11.5t-11.5 -27.5t11.5 -28t27.5 -12z" />
    <glyph glyph-name="ae" unicode="&#xe6;" horiz-adv-x="887" 
d="M623 -16q-66 0 -116.5 28.5t-83.5 76.5q-35 -51 -86 -78t-118 -27q-41 0 -76 12.5t-60.5 35t-40 53t-14.5 67.5q0 39 15.5 70t43 52t65.5 32.5t82 11.5q49 0 82.5 -9.5t52.5 -18.5v16q0 24 -9.5 43.5t-25.5 33.5t-37.5 21.5t-44.5 7.5q-77 0 -108 -62l-93 43
q26 52 75.5 82.5t124.5 30.5q63 0 109 -24.5t75 -67.5q31 43 77.5 67.5t104.5 24.5q57 0 102 -19t76 -53t47.5 -82t16.5 -105v-9q-1 -5 -1 -9q-1 -4 -1 -8h-378q2 -35 16 -61t35 -43t46.5 -25t49.5 -8q48 0 79 23t50 57l96 -47q-32 -57 -88.5 -95t-139.5 -38zM232 76
q27 0 52 10.5t43.5 28t30 40.5t11.5 49q-4 1 -13 6q-10 5 -24.5 10t-34 9t-42.5 4q-52 0 -83 -24t-31 -58q0 -18 8 -31.5t20.5 -23.5t29 -15t33.5 -5zM747 306q-1 15 -8.5 33.5t-23 34t-40 26.5t-59.5 11q-48 0 -83 -28.5t-47 -76.5h261z" />
    <glyph glyph-name="ccedilla" unicode="&#xe7;" horiz-adv-x="533" 
d="M289 -237q-35 0 -60.5 19t-36.5 47l58 25q5 -12 14.5 -21.5t24.5 -9.5q17 0 27 11t10 25q0 15 -10 26.5t-27 11.5q-19 0 -31 -15l-53 25l30 81q-46 8 -84 30.5t-65.5 56t-42.5 77t-15 93.5q0 56 19 104t53 83t81 54.5t103 19.5q43 0 78.5 -11t63 -30.5t47.5 -45t32 -53.5
l-102 -43q-17 38 -47 59t-76 21q-28 0 -53.5 -11.5t-45 -32t-31 -49.5t-11.5 -65t11.5 -65t31 -49.5t45 -32t53.5 -11.5q46 0 78.5 21.5t50.5 59.5l100 -43q-13 -28 -33 -53t-46.5 -44t-60 -31t-74.5 -13l-14 -32q5 1 9 1.5t10 0.5q38 0 65 -26t27 -69q0 -40 -28.5 -68
t-74.5 -28z" />
    <glyph glyph-name="egrave" unicode="&#xe8;" horiz-adv-x="546" 
d="M510 117q-31 -57 -88 -95t-140 -38q-55 0 -101.5 19.5t-80.5 54.5t-53 82.5t-19 104.5q0 53 18 100.5t50.5 83t78.5 56.5t102 21q57 0 101.5 -19t75.5 -53t47.5 -82t16.5 -105v-9q-1 -5 -1 -9q-1 -4 -1 -8h-377q3 -35 17 -61t34.5 -43t45.5 -25t49 -8q48 0 79 23t51 57z
M407 306q-2 15 -9.5 33.5t-23 34t-40 26.5t-59.5 11q-48 0 -82.5 -28.5t-46.5 -76.5h261zM230 588l-81 132h126l47 -132h-92z" />
    <glyph glyph-name="eacute" unicode="&#xe9;" horiz-adv-x="546" 
d="M220 588l47 132h126l-80 -132h-93zM510 117q-31 -57 -88 -95t-140 -38q-55 0 -101.5 19.5t-80.5 54.5t-53 82.5t-19 104.5q0 53 18 100.5t50.5 83t78.5 56.5t102 21q57 0 101.5 -19t75.5 -53t47.5 -82t16.5 -105v-9q-1 -5 -1 -9q-1 -4 -1 -8h-377q3 -35 17 -61t34.5 -43
t45.5 -25t49 -8q48 0 79 23t51 57zM407 306q-2 15 -9.5 33.5t-23 34t-40 26.5t-59.5 11q-48 0 -82.5 -28.5t-46.5 -76.5h261z" />
    <glyph glyph-name="ecircumflex" unicode="&#xea;" horiz-adv-x="546" 
d="M119 586l108 121h98l108 -121v-7h-107l-45 59h-10l-45 -59h-107v7zM510 117q-31 -57 -88 -95t-140 -38q-55 0 -101.5 19.5t-80.5 54.5t-53 82.5t-19 104.5q0 53 18 100.5t50.5 83t78.5 56.5t102 21q57 0 101.5 -19t75.5 -53t47.5 -82t16.5 -105v-9q-1 -5 -1 -9
q-1 -4 -1 -8h-377q3 -35 17 -61t34.5 -43t45.5 -25t49 -8q48 0 79 23t51 57zM407 306q-2 15 -9.5 33.5t-23 34t-40 26.5t-59.5 11q-48 0 -82.5 -28.5t-46.5 -76.5h261z" />
    <glyph glyph-name="edieresis" unicode="&#xeb;" horiz-adv-x="546" 
d="M361 595q-26 0 -45.5 19t-19.5 45q0 28 19.5 46t45.5 18q27 0 45.5 -18t18.5 -46q0 -26 -18.5 -45t-45.5 -19zM181 595q-26 0 -45 19t-19 45q0 28 19 46t45 18q28 0 46.5 -18t18.5 -46q0 -26 -18.5 -45t-46.5 -19zM510 117q-31 -57 -88 -95t-140 -38q-55 0 -101.5 19.5
t-80.5 54.5t-53 82.5t-19 104.5q0 53 18 100.5t50.5 83t78.5 56.5t102 21q57 0 101.5 -19t75.5 -53t47.5 -82t16.5 -105v-9q-1 -5 -1 -9q-1 -4 -1 -8h-377q3 -35 17 -61t34.5 -43t45.5 -25t49 -8q48 0 79 23t51 57zM407 306q-2 15 -9.5 33.5t-23 34t-40 26.5t-59.5 11
q-48 0 -82.5 -28.5t-46.5 -76.5h261z" />
    <glyph glyph-name="igrave" unicode="&#xec;" horiz-adv-x="239" 
d="M64 0v490h111v-490h-111zM76 588l-81 132h126l47 -132h-92z" />
    <glyph glyph-name="iacute" unicode="&#xed;" horiz-adv-x="239" 
d="M73 588l47 132h126l-80 -132h-93zM64 0v490h111v-490h-111z" />
    <glyph glyph-name="icircumflex" unicode="&#xee;" horiz-adv-x="239" 
d="M-36 595l108 121h98l108 -121v-7h-107l-45 59h-10l-45 -59h-107v7zM64 0v490h111v-490h-111z" />
    <glyph glyph-name="idieresis" unicode="&#xef;" horiz-adv-x="239" 
d="M44 596q-26 0 -44.5 18.5t-18.5 44.5q0 27 18.5 45t44.5 18t44.5 -18t18.5 -45q0 -26 -18.5 -44.5t-44.5 -18.5zM196 596q-26 0 -44.5 18.5t-18.5 44.5q0 27 18.5 45t44.5 18t44.5 -18t18.5 -45q0 -26 -18.5 -44.5t-44.5 -18.5zM64 0v490h111v-490h-111z" />
    <glyph glyph-name="eth" unicode="&#xf0;" horiz-adv-x="574" 
d="M159 724q100 -25 173 -74l102 45l31 -72l-63 -28q66 -66 99 -151t33 -185q0 -62 -18 -113t-51 -87t-79 -55.5t-101 -19.5q-50 0 -94.5 19t-78 52t-53 78t-19.5 98q0 55 20 99.5t52.5 76.5t74.5 49.5t87 17.5q43 0 72 -13t45 -28l5 5q-30 69 -89 114l-126 -56l-31 74
l73 32q-24 11 -49 19.5t-51 14.5zM286 87q28 0 52.5 10t43.5 29t30 45.5t11 58.5t-11 58t-29.5 44.5t-43.5 28.5t-52 10q-28 0 -52.5 -10t-43 -28.5t-29.5 -44.5t-11 -58t11 -58.5t29.5 -45.5t43 -29t51.5 -10z" />
    <glyph glyph-name="ntilde" unicode="&#xf1;" 
d="M161 424h6q22 35 62.5 58.5t91.5 23.5q93 0 139 -55.5t46 -147.5v-303h-111v288q0 64 -29.5 89.5t-77.5 25.5q-29 0 -51 -12t-38 -32.5t-24 -47t-8 -55.5v-256h-111v490h105v-66zM346 592q-19 0 -37 7t-33.5 15t-27.5 15t-20 7q-27 0 -30 -32h-84q0 32 10 55t26.5 38
t37 22t40.5 7q19 0 36.5 -7t33 -15t28.5 -15q12 -7 20 -7q28 0 29 32h84q0 -32 -10 -55t-26 -38t-36.5 -22t-40.5 -7z" />
    <glyph glyph-name="ograve" unicode="&#xf2;" horiz-adv-x="568" 
d="M284 506q56 0 103 -19.5t81 -54.5t53 -83t19 -104t-19 -104t-53 -83t-81 -54.5t-103 -19.5t-103 19.5t-81 54.5t-53 83t-19 104t19 104t53 83t81 54.5t103 19.5zM284 87q28 0 54 11t46.5 31t32.5 49.5t12 66.5t-12 66.5t-32.5 49.5t-46.5 31t-54 11t-54 -11t-46.5 -31
t-32.5 -49.5t-12 -66.5t12 -66.5t32.5 -49.5t46.5 -31t54 -11zM233 588l-81 132h126l47 -132h-92z" />
    <glyph glyph-name="oacute" unicode="&#xf3;" horiz-adv-x="568" 
d="M234 588l47 132h126l-80 -132h-93zM284 506q56 0 103 -19.5t81 -54.5t53 -83t19 -104t-19 -104t-53 -83t-81 -54.5t-103 -19.5t-103 19.5t-81 54.5t-53 83t-19 104t19 104t53 83t81 54.5t103 19.5zM284 87q28 0 54 11t46.5 31t32.5 49.5t12 66.5t-12 66.5t-32.5 49.5
t-46.5 31t-54 11t-54 -11t-46.5 -31t-32.5 -49.5t-12 -66.5t12 -66.5t32.5 -49.5t46.5 -31t54 -11z" />
    <glyph glyph-name="ocircumflex" unicode="&#xf4;" horiz-adv-x="568" 
d="M127 595l108 121h98l108 -121v-7h-107l-45 59h-10l-45 -59h-107v7zM284 506q56 0 103 -19.5t81 -54.5t53 -83t19 -104t-19 -104t-53 -83t-81 -54.5t-103 -19.5t-103 19.5t-81 54.5t-53 83t-19 104t19 104t53 83t81 54.5t103 19.5zM284 87q28 0 54 11t46.5 31t32.5 49.5
t12 66.5t-12 66.5t-32.5 49.5t-46.5 31t-54 11t-54 -11t-46.5 -31t-32.5 -49.5t-12 -66.5t12 -66.5t32.5 -49.5t46.5 -31t54 -11z" />
    <glyph glyph-name="otilde" unicode="&#xf5;" horiz-adv-x="568" 
d="M284 506q56 0 103 -19.5t81 -54.5t53 -83t19 -104t-19 -104t-53 -83t-81 -54.5t-103 -19.5t-103 19.5t-81 54.5t-53 83t-19 104t19 104t53 83t81 54.5t103 19.5zM284 87q28 0 54 11t46.5 31t32.5 49.5t12 66.5t-12 66.5t-32.5 49.5t-46.5 31t-54 11t-54 -11t-46.5 -31
t-32.5 -49.5t-12 -66.5t12 -66.5t32.5 -49.5t46.5 -31t54 -11zM343 592q-19 0 -37 7t-33.5 15t-27.5 15t-20 7q-27 0 -30 -32h-84q0 32 10 55t26.5 38t37 22t40.5 7q19 0 36.5 -7t33 -15t28.5 -15q12 -7 20 -7q28 0 29 32h84q0 -32 -10 -55t-26 -38t-36.5 -22t-40.5 -7z" />
    <glyph glyph-name="odieresis" unicode="&#xf6;" horiz-adv-x="568" 
d="M374 595q-26 0 -45.5 19t-19.5 45q0 28 19.5 46t45.5 18q27 0 45.5 -18t18.5 -46q0 -26 -18.5 -45t-45.5 -19zM194 595q-26 0 -45 19t-19 45q0 28 19 46t45 18q28 0 46.5 -18t18.5 -46q0 -26 -18.5 -45t-46.5 -19zM284 506q56 0 103 -19.5t81 -54.5t53 -83t19 -104
t-19 -104t-53 -83t-81 -54.5t-103 -19.5t-103 19.5t-81 54.5t-53 83t-19 104t19 104t53 83t81 54.5t103 19.5zM284 87q28 0 54 11t46.5 31t32.5 49.5t12 66.5t-12 66.5t-32.5 49.5t-46.5 31t-54 11t-54 -11t-46.5 -31t-32.5 -49.5t-12 -66.5t12 -66.5t32.5 -49.5t46.5 -31
t54 -11z" />
    <glyph glyph-name="divide" unicode="&#xf7;" horiz-adv-x="559" 
d="M56 225v92h447v-92h-447zM280 6q-32 0 -53.5 21.5t-21.5 53.5t21.5 53.5t53.5 21.5q31 0 53 -21.5t22 -53.5t-22 -53.5t-53 -21.5zM280 386q-32 0 -53.5 21.5t-21.5 53.5t21.5 53.5t53.5 21.5q31 0 53 -21.5t22 -53.5t-22 -53.5t-53 -21.5z" />
    <glyph glyph-name="oslash" unicode="&#xf8;" horiz-adv-x="568" 
d="M284 506q28 0 53.5 -5t49.5 -14l25 41l74 -42l-28 -45q38 -35 60 -85.5t22 -110.5q0 -56 -19 -104t-53 -83t-81 -54.5t-103 -19.5q-55 0 -100 18l-24 -39l-75 41l27 43q-40 35 -62 85.5t-22 112.5q0 56 19 104t53 83t81 54.5t103 19.5zM134 245q0 -33 9 -60.5t25 -47.5
l165 264q-26 8 -49 8q-29 0 -56 -11t-48 -32t-33.5 -51.5t-12.5 -69.5zM284 81q29 0 56 11t48 32t33.5 51.5t12.5 69.5q0 32 -9 58.5t-24 46.5l-163 -262q20 -7 46 -7z" />
    <glyph glyph-name="ugrave" unicode="&#xf9;" 
d="M397 66h-6q-22 -35 -62.5 -58.5t-91.5 -23.5q-93 0 -139 55.5t-46 147.5v303h111v-288q0 -64 29.5 -89.5t77.5 -25.5q28 0 50.5 12t38.5 32.5t24 47t8 55.5v256h111v-490h-105v66zM239 588l-81 132h126l47 -132h-92z" />
    <glyph glyph-name="uacute" unicode="&#xfa;" 
d="M225 588l47 132h126l-80 -132h-93zM397 66h-6q-22 -35 -62.5 -58.5t-91.5 -23.5q-93 0 -139 55.5t-46 147.5v303h111v-288q0 -64 29.5 -89.5t77.5 -25.5q28 0 50.5 12t38.5 32.5t24 47t8 55.5v256h111v-490h-105v66z" />
    <glyph glyph-name="ucircumflex" unicode="&#xfb;" 
d="M122 580l108 121h98l108 -121v-7h-107l-45 59h-10l-45 -59h-107v7zM397 66h-6q-22 -35 -62.5 -58.5t-91.5 -23.5q-93 0 -139 55.5t-46 147.5v303h111v-288q0 -64 29.5 -89.5t77.5 -25.5q28 0 50.5 12t38.5 32.5t24 47t8 55.5v256h111v-490h-105v66z" />
    <glyph glyph-name="udieresis" unicode="&#xfc;" 
d="M371 595q-26 0 -45.5 19t-19.5 45q0 28 19.5 46t45.5 18q27 0 45.5 -18t18.5 -46q0 -26 -18.5 -45t-45.5 -19zM191 595q-26 0 -45 19t-19 45q0 28 19 46t45 18q28 0 46.5 -18t18.5 -46q0 -26 -18.5 -45t-46.5 -19zM397 66h-6q-22 -35 -62.5 -58.5t-91.5 -23.5
q-93 0 -139 55.5t-46 147.5v303h111v-288q0 -64 29.5 -89.5t77.5 -25.5q28 0 50.5 12t38.5 32.5t24 47t8 55.5v256h111v-490h-105v66z" />
    <glyph glyph-name="yacute" unicode="&#xfd;" horiz-adv-x="526" 
d="M208 28l-204 462h124l135 -325h5l131 325h123l-307 -706h-118zM218 588l47 132h126l-80 -132h-93z" />
    <glyph glyph-name="thorn" unicode="&#xfe;" horiz-adv-x="588" 
d="M326 -16q-57 0 -98 23.5t-61 55.5h-6l6 -68v-211h-111v932h111v-221l-6 -68h6q20 32 61 55.5t98 23.5q47 0 89.5 -19.5t74.5 -54.5t51 -82.5t19 -104.5t-19 -104.5t-51 -82.5t-74.5 -54.5t-89.5 -19.5zM305 87q28 0 54.5 11t46 31.5t31.5 49.5t12 66t-12 66t-31.5 49.5
t-46 31.5t-54.5 11q-29 0 -55 -11t-45.5 -31t-31.5 -49.5t-12 -66.5t12 -66.5t31.5 -49.5t45.5 -31t55 -11z" />
    <glyph glyph-name="ydieresis" unicode="&#xff;" horiz-adv-x="526" 
d="M208 28l-204 462h124l135 -325h5l131 325h123l-307 -706h-118zM355 595q-26 0 -45.5 19t-19.5 45q0 28 19.5 46t45.5 18q27 0 45.5 -18t18.5 -46q0 -26 -18.5 -45t-45.5 -19zM175 595q-26 0 -45 19t-19 45q0 28 19 46t45 18q28 0 46.5 -18t18.5 -46q0 -26 -18.5 -45
t-46.5 -19z" />
    <glyph glyph-name="Amacron" unicode="&#x100;" horiz-adv-x="692" 
d="M281 716h130l269 -716h-125l-65 184h-288l-65 -184h-125zM452 287l-75 211l-28 84h-6l-28 -84l-75 -211h212zM202 800v86h288v-86h-288z" />
    <glyph glyph-name="amacron" unicode="&#x101;" horiz-adv-x="523" 
d="M366 60h-6q-22 -29 -57 -52.5t-89 -23.5q-39 0 -73 12.5t-59 35t-39.5 53t-14.5 67.5q0 39 15.5 70t43 52t65.5 32.5t82 11.5q49 0 82 -9.5t50 -17.5v19q0 22 -9.5 41t-26 32.5t-37.5 21t-44 7.5q-37 0 -66.5 -14.5t-52.5 -46.5l-88 58q35 48 87 72.5t118 24.5
q109 0 168.5 -54t59.5 -154v-298h-109v60zM366 204q-22 13 -49 21t-62 8q-52 0 -83 -24t-31 -58q0 -18 8 -31.5t20.5 -23.5t29 -15t33.5 -5q27 0 51.5 10.5t42.5 28t29 40.5t11 49zM123 616v86h288v-86h-288z" />
    <glyph glyph-name="Abreve" unicode="&#x102;" horiz-adv-x="692" 
d="M281 716h130l269 -716h-125l-65 184h-288l-65 -184h-125zM452 287l-75 211l-28 84h-6l-28 -84l-75 -211h212zM347 767q-26 0 -50 10t-42.5 27t-29.5 41t-11 52h83q0 -20 13 -35.5t37 -15.5q23 0 36 15.5t13 35.5h82q0 -28 -11 -52t-29 -41t-41.5 -27t-49.5 -10z" />
    <glyph glyph-name="abreve" unicode="&#x103;" horiz-adv-x="523" 
d="M366 60h-6q-22 -29 -57 -52.5t-89 -23.5q-39 0 -73 12.5t-59 35t-39.5 53t-14.5 67.5q0 39 15.5 70t43 52t65.5 32.5t82 11.5q49 0 82 -9.5t50 -17.5v19q0 22 -9.5 41t-26 32.5t-37.5 21t-44 7.5q-37 0 -66.5 -14.5t-52.5 -46.5l-88 58q35 48 87 72.5t118 24.5
q109 0 168.5 -54t59.5 -154v-298h-109v60zM366 204q-22 13 -49 21t-62 8q-52 0 -83 -24t-31 -58q0 -18 8 -31.5t20.5 -23.5t29 -15t33.5 -5q27 0 51.5 10.5t42.5 28t29 40.5t11 49zM264 583q-26 0 -50 10t-42.5 27t-29.5 41t-11 52h83q0 -20 13 -35.5t37 -15.5q23 0 36 15.5
t13 35.5h82q0 -28 -11 -52t-29 -41t-41.5 -27t-49.5 -10z" />
    <glyph glyph-name="Aogonek" unicode="&#x104;" horiz-adv-x="692" 
d="M490 184h-288l-65 -184h-125l269 716h130l269 -716q-28 -20 -49 -42t-21 -50q0 -20 11.5 -33.5t30.5 -13.5q16 0 26 5l31 -75q-30 -15 -71 -15q-59 0 -92 33t-33 84q0 19 5 35t13 28.5t17 23t18 18.5l-1 2h-10zM452 287l-75 211l-28 84h-6l-28 -84l-75 -211h212z" />
    <glyph glyph-name="aogonek" unicode="&#x105;" horiz-adv-x="523" 
d="M214 -16q-39 0 -73 12.5t-59 35t-39.5 53t-14.5 67.5q0 39 15.5 70t43 52t65.5 32.5t82 11.5q49 0 82 -9.5t50 -17.5v19q0 22 -9.5 41t-26 32.5t-37.5 21t-44 7.5q-37 0 -66.5 -14.5t-52.5 -46.5l-88 58q35 48 87 72.5t118 24.5q109 0 168.5 -54t59.5 -154v-298
q-29 -20 -50 -42t-21 -50q0 -20 11.5 -33.5t30.5 -13.5q16 0 26 5l31 -75q-30 -15 -70 -15q-59 0 -92 33t-33 81q0 20 6 36.5t15 29.5t19.5 23t20.5 18l-3 3v60h-6q-22 -29 -57 -52.5t-89 -23.5zM366 204q-22 13 -49 21t-62 8q-52 0 -83 -24t-31 -58q0 -18 8 -31.5
t20.5 -23.5t29 -15t33.5 -5q27 0 51.5 10.5t42.5 28t29 40.5t11 49z" />
    <glyph glyph-name="Cacute" unicode="&#x106;" horiz-adv-x="732" 
d="M357 772l47 132h126l-80 -132h-93zM696 113q-51 -60 -123 -94.5t-162 -34.5q-80 0 -148 28.5t-118.5 79t-79 118.5t-28.5 148q0 79 28.5 147.5t79 119t118.5 79t148 28.5q83 0 149 -30.5t116 -86.5l-80 -78q-36 43 -80.5 65t-104.5 22q-53 0 -100.5 -18.5t-82.5 -53
t-55.5 -84t-20.5 -110.5t20.5 -110.5t55.5 -84t82.5 -53t100.5 -18.5q64 0 114 26.5t89 73.5z" />
    <glyph glyph-name="cacute" unicode="&#x107;" horiz-adv-x="533" 
d="M220 588l47 132h126l-80 -132h-93zM509 125q-14 -29 -34.5 -54.5t-48 -45t-63.5 -30.5t-79 -11q-56 0 -103 19.5t-81 54.5t-53 83t-19 104t19 104t53 83t81 54.5t103 19.5q43 0 78.5 -11t63 -30.5t47.5 -45t32 -53.5l-102 -43q-17 38 -47 59t-76 21q-28 0 -53.5 -11.5
t-45 -32t-31 -49.5t-11.5 -65t11.5 -65t31 -49.5t45 -32t53.5 -11.5q46 0 78.5 21.5t50.5 59.5z" />
    <glyph glyph-name="Ccircumflex" unicode="&#x108;" horiz-adv-x="732" 
d="M252 780l108 121h98l108 -121v-7h-107l-45 59h-10l-45 -59h-107v7zM696 113q-51 -60 -123 -94.5t-162 -34.5q-80 0 -148 28.5t-118.5 79t-79 118.5t-28.5 148q0 79 28.5 147.5t79 119t118.5 79t148 28.5q83 0 149 -30.5t116 -86.5l-80 -78q-36 43 -80.5 65t-104.5 22
q-53 0 -100.5 -18.5t-82.5 -53t-55.5 -84t-20.5 -110.5t20.5 -110.5t55.5 -84t82.5 -53t100.5 -18.5q64 0 114 26.5t89 73.5z" />
    <glyph glyph-name="ccircumflex" unicode="&#x109;" horiz-adv-x="533" 
d="M122 595l108 121h98l108 -121v-7h-107l-45 59h-10l-45 -59h-107v7zM509 125q-14 -29 -34.5 -54.5t-48 -45t-63.5 -30.5t-79 -11q-56 0 -103 19.5t-81 54.5t-53 83t-19 104t19 104t53 83t81 54.5t103 19.5q43 0 78.5 -11t63 -30.5t47.5 -45t32 -53.5l-102 -43
q-17 38 -47 59t-76 21q-28 0 -53.5 -11.5t-45 -32t-31 -49.5t-11.5 -65t11.5 -65t31 -49.5t45 -32t53.5 -11.5q46 0 78.5 21.5t50.5 59.5z" />
    <glyph glyph-name="Cdotaccent" unicode="&#x10a;" horiz-adv-x="732" 
d="M394 795q-24 0 -42.5 18t-18.5 43q0 26 18.5 43.5t42.5 17.5q26 0 44 -17.5t18 -43.5q0 -25 -18 -43t-44 -18zM696 113q-51 -60 -123 -94.5t-162 -34.5q-80 0 -148 28.5t-118.5 79t-79 118.5t-28.5 148q0 79 28.5 147.5t79 119t118.5 79t148 28.5q83 0 149 -30.5
t116 -86.5l-80 -78q-36 43 -80.5 65t-104.5 22q-53 0 -100.5 -18.5t-82.5 -53t-55.5 -84t-20.5 -110.5t20.5 -110.5t55.5 -84t82.5 -53t100.5 -18.5q64 0 114 26.5t89 73.5z" />
    <glyph glyph-name="cdotaccent" unicode="&#x10b;" horiz-adv-x="533" 
d="M509 125q-14 -29 -34.5 -54.5t-48 -45t-63.5 -30.5t-79 -11q-56 0 -103 19.5t-81 54.5t-53 83t-19 104t19 104t53 83t81 54.5t103 19.5q43 0 78.5 -11t63 -30.5t47.5 -45t32 -53.5l-102 -43q-17 38 -47 59t-76 21q-28 0 -53.5 -11.5t-45 -32t-31 -49.5t-11.5 -65
t11.5 -65t31 -49.5t45 -32t53.5 -11.5q46 0 78.5 21.5t50.5 59.5zM278 589q-26 0 -46 19.5t-20 46.5q0 29 20 47.5t46 18.5q29 0 48 -18.5t19 -47.5q0 -27 -19 -46.5t-48 -19.5z" />
    <glyph glyph-name="Ccaron" unicode="&#x10c;" horiz-adv-x="732" 
d="M240 906h107l45 -59h10l45 59h107v-7l-108 -121h-98l-108 121v7zM696 113q-51 -60 -123 -94.5t-162 -34.5q-80 0 -148 28.5t-118.5 79t-79 118.5t-28.5 148q0 79 28.5 147.5t79 119t118.5 79t148 28.5q83 0 149 -30.5t116 -86.5l-80 -78q-36 43 -80.5 65t-104.5 22
q-53 0 -100.5 -18.5t-82.5 -53t-55.5 -84t-20.5 -110.5t20.5 -110.5t55.5 -84t82.5 -53t100.5 -18.5q64 0 114 26.5t89 73.5z" />
    <glyph glyph-name="ccaron" unicode="&#x10d;" horiz-adv-x="533" 
d="M127 716h107l45 -59h10l45 59h107v-7l-108 -121h-98l-108 121v7zM509 125q-14 -29 -34.5 -54.5t-48 -45t-63.5 -30.5t-79 -11q-56 0 -103 19.5t-81 54.5t-53 83t-19 104t19 104t53 83t81 54.5t103 19.5q43 0 78.5 -11t63 -30.5t47.5 -45t32 -53.5l-102 -43q-17 38 -47 59
t-76 21q-28 0 -53.5 -11.5t-45 -32t-31 -49.5t-11.5 -65t11.5 -65t31 -49.5t45 -32t53.5 -11.5q46 0 78.5 21.5t50.5 59.5z" />
    <glyph glyph-name="Dcaron" unicode="&#x10e;" horiz-adv-x="705" 
d="M163 900h107l45 -59h10l45 59h107v-7l-108 -121h-98l-108 121v7zM72 716h230q85 0 152.5 -26.5t115 -73.5t73 -113t25.5 -145t-25.5 -145t-73 -113t-115 -73.5t-152.5 -26.5h-230v716zM300 108q121 0 187 66t66 184q0 117 -66 183.5t-187 66.5h-115v-500h115z" />
    <glyph glyph-name="dcaron" unicode="&#x10f;" horiz-adv-x="686" 
d="M591 501v215h119l-40 -215h-79zM427 63h-6q-20 -32 -61 -55.5t-98 -23.5q-47 0 -89.5 19.5t-74.5 54.5t-51 82.5t-19 104.5t19 104.5t51 82.5t74.5 54.5t89.5 19.5q57 0 98 -23.5t61 -55.5h6l-6 68v221h111v-716h-105v63zM283 87q28 0 54.5 11t46 31t31.5 49.5t12 66.5
t-12 66.5t-31.5 49.5t-46 31t-54.5 11q-29 0 -55 -11t-45.5 -31.5t-31.5 -49.5t-12 -66t12 -66t31.5 -49.5t45.5 -31.5t55 -11z" />
    <glyph glyph-name="Dcroat" unicode="&#x110;" horiz-adv-x="702" 
d="M69 327h-77v90h77v299h230q84 0 152 -26.5t115.5 -73.5t73 -113t25.5 -145t-25.5 -145t-73 -113t-115.5 -73.5t-152 -26.5h-230v327zM296 108q121 0 187.5 66t66.5 184q0 117 -66.5 183.5t-187.5 66.5h-114v-191h182v-90h-182v-219h114z" />
    <glyph glyph-name="dcroat" unicode="&#x111;" horiz-adv-x="586" 
d="M427 63h-6q-20 -32 -61 -55.5t-98 -23.5q-47 0 -89.5 19.5t-74.5 54.5t-51 82.5t-19 104.5t19 104.5t51 82.5t74.5 54.5t89.5 19.5q57 0 98 -23.5t61 -55.5h6l-6 68v72h-139v82h139v67h111v-67h62v-82h-62v-567h-105v63zM283 87q28 0 54.5 11t46 31t31.5 49.5t12 66.5
t-12 66.5t-31.5 49.5t-46 31t-54.5 11q-29 0 -55 -11t-45.5 -31.5t-31.5 -49.5t-12 -66t12 -66t31.5 -49.5t45.5 -31.5t55 -11z" />
    <glyph glyph-name="Emacron" unicode="&#x112;" horiz-adv-x="560" 
d="M185 608v-197h291v-106h-291v-197h323v-108h-436v716h436v-108h-323zM140 800v86h288v-86h-288z" />
    <glyph glyph-name="emacron" unicode="&#x113;" horiz-adv-x="546" 
d="M510 117q-31 -57 -88 -95t-140 -38q-55 0 -101.5 19.5t-80.5 54.5t-53 82.5t-19 104.5q0 53 18 100.5t50.5 83t78.5 56.5t102 21q57 0 101.5 -19t75.5 -53t47.5 -82t16.5 -105v-9q-1 -5 -1 -9q-1 -4 -1 -8h-377q3 -35 17 -61t34.5 -43t45.5 -25t49 -8q48 0 79 23t51 57z
M407 306q-2 15 -9.5 33.5t-23 34t-40 26.5t-59.5 11q-48 0 -82.5 -28.5t-46.5 -76.5h261zM133 616v86h288v-86h-288z" />
    <glyph glyph-name="Ebreve" unicode="&#x114;" horiz-adv-x="560" 
d="M185 608v-197h291v-106h-291v-197h323v-108h-436v716h436v-108h-323zM291 767q-26 0 -50 10t-42.5 27t-29.5 41t-11 52h83q0 -20 13 -35.5t37 -15.5q23 0 36 15.5t13 35.5h82q0 -28 -11 -52t-29 -41t-41.5 -27t-49.5 -10z" />
    <glyph glyph-name="ebreve" unicode="&#x115;" horiz-adv-x="546" 
d="M510 117q-31 -57 -88 -95t-140 -38q-55 0 -101.5 19.5t-80.5 54.5t-53 82.5t-19 104.5q0 53 18 100.5t50.5 83t78.5 56.5t102 21q57 0 101.5 -19t75.5 -53t47.5 -82t16.5 -105v-9q-1 -5 -1 -9q-1 -4 -1 -8h-377q3 -35 17 -61t34.5 -43t45.5 -25t49 -8q48 0 79 23t51 57z
M407 306q-2 15 -9.5 33.5t-23 34t-40 26.5t-59.5 11q-48 0 -82.5 -28.5t-46.5 -76.5h261zM276 583q-26 0 -50 10t-42.5 27t-29.5 41t-11 52h83q0 -20 13 -35.5t37 -15.5q23 0 36 15.5t13 35.5h82q0 -28 -11 -52t-29 -41t-41.5 -27t-49.5 -10z" />
    <glyph glyph-name="Edotaccent" unicode="&#x116;" horiz-adv-x="560" 
d="M292 795q-24 0 -42.5 18t-18.5 43q0 26 18.5 43.5t42.5 17.5q26 0 44 -17.5t18 -43.5q0 -25 -18 -43t-44 -18zM185 608v-197h291v-106h-291v-197h323v-108h-436v716h436v-108h-323z" />
    <glyph glyph-name="edotaccent" unicode="&#x117;" horiz-adv-x="546" 
d="M510 117q-31 -57 -88 -95t-140 -38q-55 0 -101.5 19.5t-80.5 54.5t-53 82.5t-19 104.5q0 53 18 100.5t50.5 83t78.5 56.5t102 21q57 0 101.5 -19t75.5 -53t47.5 -82t16.5 -105v-9q-1 -5 -1 -9q-1 -4 -1 -8h-377q3 -35 17 -61t34.5 -43t45.5 -25t49 -8q48 0 79 23t51 57z
M407 306q-2 15 -9.5 33.5t-23 34t-40 26.5t-59.5 11q-48 0 -82.5 -28.5t-46.5 -76.5h261zM277 589q-26 0 -46 19.5t-20 46.5q0 29 20 47.5t46 18.5q29 0 48 -18.5t19 -47.5q0 -27 -19 -46.5t-48 -19.5z" />
    <glyph glyph-name="Eogonek" unicode="&#x118;" horiz-adv-x="560" 
d="M185 608v-197h291v-106h-291v-197h323v-108q-28 -20 -49 -42t-21 -50q0 -20 11 -33.5t31 -13.5q15 0 25 5l31 -75q-30 -15 -70 -15q-59 0 -92 33t-33 81q0 21 6.5 38t16 31t20 24t19.5 17h-331v716h436v-108h-323z" />
    <glyph glyph-name="eogonek" unicode="&#x119;" horiz-adv-x="546" 
d="M510 117q-29 -53 -81 -90q-18 -14 -36 -29.5t-33 -31t-24 -31t-9 -28.5q0 -20 11.5 -33t30.5 -13q16 0 26 5l31 -75q-30 -15 -70 -15q-59 0 -92 32.5t-33 77.5q0 29 16.5 55.5t36.5 42.5h-6q-54 1 -100 20.5t-79.5 54.5t-52 82.5t-18.5 103.5q0 53 18 100.5t50.5 83
t78.5 56.5t102 21q57 0 101.5 -19t75.5 -53t47.5 -82t16.5 -105v-9q-1 -5 -1 -9q-1 -4 -1 -8h-377q3 -35 17 -61t34.5 -43t45.5 -25t49 -8q48 0 79 23t51 57zM407 306q-2 15 -9.5 33.5t-23 34t-40 26.5t-59.5 11q-48 0 -82.5 -28.5t-46.5 -76.5h261z" />
    <glyph glyph-name="Ecaron" unicode="&#x11a;" horiz-adv-x="560" 
d="M133 900h107l45 -59h10l45 59h107v-7l-108 -121h-98l-108 121v7zM185 608v-197h291v-106h-291v-197h323v-108h-436v716h436v-108h-323z" />
    <glyph glyph-name="ecaron" unicode="&#x11b;" horiz-adv-x="546" 
d="M116 716h107l45 -59h10l45 59h107v-7l-108 -121h-98l-108 121v7zM510 117q-31 -57 -88 -95t-140 -38q-55 0 -101.5 19.5t-80.5 54.5t-53 82.5t-19 104.5q0 53 18 100.5t50.5 83t78.5 56.5t102 21q57 0 101.5 -19t75.5 -53t47.5 -82t16.5 -105v-9q-1 -5 -1 -9q-1 -4 -1 -8
h-377q3 -35 17 -61t34.5 -43t45.5 -25t49 -8q48 0 79 23t51 57zM407 306q-2 15 -9.5 33.5t-23 34t-40 26.5t-59.5 11q-48 0 -82.5 -28.5t-46.5 -76.5h261z" />
    <glyph glyph-name="Gcircumflex" unicode="&#x11c;" horiz-adv-x="806" 
d="M254 780l108 121h98l108 -121v-7h-107l-45 59h-10l-45 -59h-107v7zM411 388h349q2 -13 4 -27.5t2 -30.5q0 -64 -20 -127t-68 -112q-49 -51 -115 -79t-151 -28q-77 0 -145.5 28t-119.5 78t-80.5 118.5t-29.5 149.5t29.5 149.5t80.5 118.5t119.5 78t145.5 28
q82 0 151.5 -29t116.5 -81l-79 -79q-35 39 -82.5 60t-107.5 21q-51 0 -98 -19t-83 -53.5t-57 -83.5t-21 -110t21 -110t57 -83.5t83 -53.5t99 -19q69 0 111.5 21t71.5 49q21 20 37 52.5t21 71.5h-242v102z" />
    <glyph glyph-name="gcircumflex" unicode="&#x11d;" horiz-adv-x="587" 
d="M124 595l108 121h98l108 -121v-7h-107l-45 59h-10l-45 -59h-107v7zM278 -232q-51 0 -90.5 13.5t-68.5 34.5t-47.5 47t-27.5 50l106 43q14 -39 48 -63.5t80 -24.5q69 0 107.5 42t38.5 116v40h-6q-23 -33 -63.5 -55t-94.5 -22q-45 0 -87 19t-74.5 53t-51.5 82t-19 105
t19 104.5t51.5 81.5t74.5 53t87 19q54 0 94.5 -22t63.5 -55h6v61h107v-462q0 -63 -19.5 -111.5t-53 -81.5t-80 -50t-100.5 -17zM282 92q27 0 53 10t45.5 30t31.5 49t12 67q0 37 -12 66.5t-31.5 49t-45.5 30t-53 10.5q-28 0 -53.5 -10.5t-45.5 -30.5t-32 -49t-12 -66t12 -66
t32 -49t45.5 -30.5t53.5 -10.5z" />
    <glyph glyph-name="Gbreve" unicode="&#x11e;" horiz-adv-x="806" 
d="M411 388h349q2 -13 4 -27.5t2 -30.5q0 -64 -20 -127t-68 -112q-49 -51 -115 -79t-151 -28q-77 0 -145.5 28t-119.5 78t-80.5 118.5t-29.5 149.5t29.5 149.5t80.5 118.5t119.5 78t145.5 28q82 0 151.5 -29t116.5 -81l-79 -79q-35 39 -82.5 60t-107.5 21q-51 0 -98 -19
t-83 -53.5t-57 -83.5t-21 -110t21 -110t57 -83.5t83 -53.5t99 -19q69 0 111.5 21t71.5 49q21 20 37 52.5t21 71.5h-242v102zM410 767q-26 0 -50 10t-42.5 27t-29.5 41t-11 52h83q0 -20 13 -35.5t37 -15.5q23 0 36 15.5t13 35.5h82q0 -28 -11 -52t-29 -41t-41.5 -27
t-49.5 -10z" />
    <glyph glyph-name="gbreve" unicode="&#x11f;" horiz-adv-x="587" 
d="M278 -232q-51 0 -90.5 13.5t-68.5 34.5t-47.5 47t-27.5 50l106 43q14 -39 48 -63.5t80 -24.5q69 0 107.5 42t38.5 116v40h-6q-23 -33 -63.5 -55t-94.5 -22q-45 0 -87 19t-74.5 53t-51.5 82t-19 105t19 104.5t51.5 81.5t74.5 53t87 19q54 0 94.5 -22t63.5 -55h6v61h107
v-462q0 -63 -19.5 -111.5t-53 -81.5t-80 -50t-100.5 -17zM282 92q27 0 53 10t45.5 30t31.5 49t12 67q0 37 -12 66.5t-31.5 49t-45.5 30t-53 10.5q-28 0 -53.5 -10.5t-45.5 -30.5t-32 -49t-12 -66t12 -66t32 -49t45.5 -30.5t53.5 -10.5zM296 583q-26 0 -50 10t-42.5 27
t-29.5 41t-11 52h83q0 -20 13 -35.5t37 -15.5q23 0 36 15.5t13 35.5h82q0 -28 -11 -52t-29 -41t-41.5 -27t-49.5 -10z" />
    <glyph glyph-name="Gdotaccent" unicode="&#x120;" horiz-adv-x="806" 
d="M398 795q-24 0 -42.5 18t-18.5 43q0 26 18.5 43.5t42.5 17.5q26 0 44 -17.5t18 -43.5q0 -25 -18 -43t-44 -18zM411 388h349q2 -13 4 -27.5t2 -30.5q0 -64 -20 -127t-68 -112q-49 -51 -115 -79t-151 -28q-77 0 -145.5 28t-119.5 78t-80.5 118.5t-29.5 149.5t29.5 149.5
t80.5 118.5t119.5 78t145.5 28q82 0 151.5 -29t116.5 -81l-79 -79q-35 39 -82.5 60t-107.5 21q-51 0 -98 -19t-83 -53.5t-57 -83.5t-21 -110t21 -110t57 -83.5t83 -53.5t99 -19q69 0 111.5 21t71.5 49q21 20 37 52.5t21 71.5h-242v102z" />
    <glyph glyph-name="gdotaccent" unicode="&#x121;" horiz-adv-x="587" 
d="M278 -232q-51 0 -90.5 13.5t-68.5 34.5t-47.5 47t-27.5 50l106 43q14 -39 48 -63.5t80 -24.5q69 0 107.5 42t38.5 116v40h-6q-23 -33 -63.5 -55t-94.5 -22q-45 0 -87 19t-74.5 53t-51.5 82t-19 105t19 104.5t51.5 81.5t74.5 53t87 19q54 0 94.5 -22t63.5 -55h6v61h107
v-462q0 -63 -19.5 -111.5t-53 -81.5t-80 -50t-100.5 -17zM282 92q27 0 53 10t45.5 30t31.5 49t12 67q0 37 -12 66.5t-31.5 49t-45.5 30t-53 10.5q-28 0 -53.5 -10.5t-45.5 -30.5t-32 -49t-12 -66t12 -66t32 -49t45.5 -30.5t53.5 -10.5zM289 589q-26 0 -46 19.5t-20 46.5
q0 29 20 47.5t46 18.5q29 0 48 -18.5t19 -47.5q0 -27 -19 -46.5t-48 -19.5z" />
    <glyph glyph-name="uni0122" unicode="&#x122;" horiz-adv-x="806" 
d="M359 -234l43 62q-20 5 -32 22t-12 38q0 25 18 44.5t47 19.5t47 -19.5t18 -46.5q0 -24 -13 -45l-71 -106zM411 388h349q2 -13 4 -27.5t2 -30.5q0 -64 -20 -127t-68 -112q-49 -51 -115 -79t-151 -28q-77 0 -145.5 28t-119.5 78t-80.5 118.5t-29.5 149.5t29.5 149.5
t80.5 118.5t119.5 78t145.5 28q82 0 151.5 -29t116.5 -81l-79 -79q-35 39 -82.5 60t-107.5 21q-51 0 -98 -19t-83 -53.5t-57 -83.5t-21 -110t21 -110t57 -83.5t83 -53.5t99 -19q69 0 111.5 21t71.5 49q21 20 37 52.5t21 71.5h-242v102z" />
    <glyph glyph-name="uni0123" unicode="&#x123;" horiz-adv-x="587" 
d="M350.017 757.972l-42.9941 -61.9932q19.9971 -4.99902 31.9961 -21.9971q11.998 -16.998 11.998 -37.9951q0 -24.9971 -17.9971 -44.4941q-17.998 -19.498 -46.9951 -19.498q-28.9961 0 -46.9941 19.498q-17.9971 19.4971 -17.9971 46.4941q0 23.9971 12.998 44.9941
l70.9912 105.987zM278 -232q-51 0 -90.5 13.5t-68.5 34.5t-47.5 47t-27.5 50l106 43q14 -39 48 -63.5t80 -24.5q69 0 107.5 42t38.5 116v40h-6q-23 -33 -63.5 -55t-94.5 -22q-45 0 -87 19t-74.5 53t-51.5 82t-19 105t19 104.5t51.5 81.5t74.5 53t87 19q54 0 94.5 -22
t63.5 -55h6v61h107v-462q0 -63 -19.5 -111.5t-53 -81.5t-80 -50t-100.5 -17zM282 92q27 0 53 10t45.5 30t31.5 49t12 67q0 37 -12 66.5t-31.5 49t-45.5 30t-53 10.5q-28 0 -53.5 -10.5t-45.5 -30.5t-32 -49t-12 -66t12 -66t32 -49t45.5 -30.5t53.5 -10.5z" />
    <glyph glyph-name="Hcircumflex" unicode="&#x124;" horiz-adv-x="701" 
d="M193 779l108 121h98l108 -121v-7h-107l-45 59h-10l-45 -59h-107v7zM72 716h113v-297h331v297h113v-716h-113v313h-331v-313h-113v716z" />
    <glyph glyph-name="hcircumflex" unicode="&#x125;" 
d="M133 779l108 121h98l108 -121v-7h-107l-45 59h-10l-45 -59h-107v7zM56 716h111v-213l-6 -79h6q21 35 62 58.5t91 23.5q48 0 83 -14.5t58 -41.5t34 -64.5t11 -82.5v-303h-111v288q0 61 -29.5 88t-74.5 27q-29 0 -51.5 -12.5t-39 -33.5t-25 -48t-8.5 -56v-253h-111v716z
" />
    <glyph glyph-name="Hbar" unicode="&#x126;" horiz-adv-x="701" 
d="M72 499h-63v86h63v131h113v-131h331v131h113v-131h63v-86h-63v-499h-113v313h-331v-313h-113v499zM516 419v80h-331v-80h331z" />
    <glyph glyph-name="hbar" unicode="&#x127;" 
d="M56 567h-61v82h61v67h111v-67h140v-82h-140v-64l-6 -79h6q21 35 62 58.5t91 23.5q48 0 83 -14.5t58 -41.5t34 -64.5t11 -82.5v-303h-111v288q0 61 -29.5 88t-74.5 27q-29 0 -51.5 -12.5t-39 -33.5t-25 -48t-8.5 -56v-253h-111v567z" />
    <glyph glyph-name="Itilde" unicode="&#x128;" horiz-adv-x="257" 
d="M72 716h113v-716h-113v716zM189 775q-19 0 -37 7t-33.5 15t-27.5 15t-20 7q-27 0 -30 -32h-84q0 32 10 55t26.5 38t37 22t40.5 7q19 0 36.5 -7t33 -15t28.5 -15q12 -7 20 -7q28 0 29 32h84q0 -32 -10 -55t-26 -38t-36.5 -22t-40.5 -7z" />
    <glyph glyph-name="itilde" unicode="&#x129;" horiz-adv-x="239" 
d="M64 0v490h111v-490h-111zM180 591q-19 0 -37 7t-33.5 15t-27.5 15t-20 7q-27 0 -30 -32h-84q0 32 10 55t26.5 38t37 22t40.5 7q19 0 36.5 -7t33 -15t28.5 -15q12 -7 20 -7q28 0 29 32h84q0 -32 -10 -55t-26 -38t-36.5 -22t-40.5 -7z" />
    <glyph glyph-name="Imacron" unicode="&#x12a;" horiz-adv-x="257" 
d="M-2 800v86h261v-86h-261zM72 716h113v-716h-113v716z" />
    <glyph glyph-name="imacron" unicode="&#x12b;" horiz-adv-x="239" 
d="M64 0v490h111v-490h-111zM-23 616v86h288v-86h-288z" />
    <glyph glyph-name="Ibreve" unicode="&#x12c;" horiz-adv-x="257" 
d="M72 716h113v-716h-113v716zM131 767q-26 0 -50 10t-42.5 27t-29.5 41t-11 52h83q0 -20 13 -35.5t37 -15.5q23 0 36 15.5t13 35.5h82q0 -28 -11 -52t-29 -41t-41.5 -27t-49.5 -10z" />
    <glyph glyph-name="ibreve" unicode="&#x12d;" horiz-adv-x="239" 
d="M64 0v490h111v-490h-111zM122 583q-26 0 -50 10t-42.5 27t-29.5 41t-11 52h83q0 -20 13 -35.5t37 -15.5q23 0 36 15.5t13 35.5h82q0 -28 -11 -52t-29 -41t-41.5 -27t-49.5 -10z" />
    <glyph glyph-name="Iogonek" unicode="&#x12e;" horiz-adv-x="257" 
d="M72 716h113v-716q-28 -20 -49 -42t-21 -50q0 -20 11.5 -33.5t31.5 -13.5q15 0 25 5l31 -75q-30 -15 -70 -15q-60 0 -93 33t-33 81q0 20 6 36.5t15 30t19.5 24t19.5 17.5l-1 2h-5v716z" />
    <glyph glyph-name="iogonek" unicode="&#x12f;" horiz-adv-x="239" 
d="M120 577q-32 0 -53.5 22t-21.5 53t21.5 53t53.5 22q31 0 52.5 -22t21.5 -53t-21.5 -53t-52.5 -22zM175 0q-28 -20 -49 -42t-21 -50q0 -20 11.5 -33.5t30.5 -13.5q15 0 26 5l30 -75q-29 -15 -69 -15q-60 0 -93 33t-33 81q0 19 6 35.5t14.5 30t18.5 24t19 17.5l-2 3v490
h111v-490z" />
    <glyph glyph-name="Idotaccent" unicode="&#x130;" horiz-adv-x="257" 
d="M72 716h113v-716h-113v716zM128 795q-24 0 -42.5 18t-18.5 43q0 26 18.5 43.5t42.5 17.5q26 0 44 -17.5t18 -43.5q0 -25 -18 -43t-44 -18z" />
    <glyph glyph-name="dotlessi" unicode="&#x131;" horiz-adv-x="239" 
d="M64 0v490h111v-490h-111z" />
    <glyph glyph-name="Jcircumflex" unicode="&#x134;" horiz-adv-x="540" 
d="M269 779l108 121h98l108 -121v-7h-107l-45 59h-10l-45 -59h-107v7zM254 -16q-82 0 -143.5 44.5t-86.5 125.5l105 43q17 -56 49 -80.5t76 -24.5q52 0 82.5 35t30.5 93v496h113v-491q0 -59 -17.5 -104t-47.5 -75.5t-71.5 -46t-89.5 -15.5z" />
    <glyph glyph-name="jcircumflex" unicode="&#x135;" horiz-adv-x="239" 
d="M21 -226q-20 0 -36.5 3.5t-31.5 8.5l29 97q14 -7 30 -7q29 0 40.5 17.5t11.5 49.5v547h111v-548q0 -45 -11.5 -77t-32.5 -52t-49 -29.5t-61 -9.5zM-36 595l108 121h98l108 -121v-7h-107l-45 59h-10l-45 -59h-107v7z" />
    <glyph glyph-name="uni0136" unicode="&#x136;" horiz-adv-x="637" 
d="M263 -234l43 62q-20 5 -32 22t-12 38q0 25 18 44.5t47 19.5t47 -19.5t18 -46.5q0 -24 -13 -45l-71 -106zM72 716h113v-338h6l289 338h141v-6l-262 -302l284 -402v-6h-138l-224 320l-96 -111v-209h-113v716z" />
    <glyph glyph-name="uni0137" unicode="&#x137;" horiz-adv-x="501" 
d="M192 -234l43 62q-20 5 -32 22t-12 38q0 25 18 44.5t47 19.5t47 -19.5t18 -46.5q0 -24 -13 -45l-71 -106zM56 716h111v-415h4l188 189h139v-6l-186 -184l198 -294v-6h-132l-145 223l-66 -65v-158h-111v716z" />
    <glyph glyph-name="kgreenlandic" unicode="&#x138;" horiz-adv-x="495" 
d="M173 240h-6v-240h-111v490h111v-215h6l179 215h136v-6l-196 -226l207 -252v-6h-134z" />
    <glyph glyph-name="Lacute" unicode="&#x139;" horiz-adv-x="516" 
d="M80 772l47 132h126l-80 -132h-93zM72 716h113v-608h307v-108h-420v716z" />
    <glyph glyph-name="lacute" unicode="&#x13a;" horiz-adv-x="223" 
d="M63 772l47 132h126l-80 -132h-93zM56 0v716h111v-716h-111z" />
    <glyph glyph-name="uni013B" unicode="&#x13b;" horiz-adv-x="516" 
d="M218 -234l43 62q-20 5 -32 22t-12 38q0 25 18 44.5t47 19.5t47 -19.5t18 -46.5q0 -24 -13 -45l-71 -106zM72 716h113v-608h307v-108h-420v716z" />
    <glyph glyph-name="uni013C" unicode="&#x13c;" horiz-adv-x="223" 
d="M49 -234l43 62q-20 5 -32 22t-12 38q0 25 18 44.5t47 19.5t47 -19.5t18 -46.5q0 -24 -13 -45l-71 -106zM56 0v716h111v-716h-111z" />
    <glyph glyph-name="Lcaron" unicode="&#x13d;" horiz-adv-x="516" 
d="M324 501v215h119l-40 -215h-79zM72 716h113v-608h307v-108h-420v716z" />
    <glyph glyph-name="lcaron" unicode="&#x13e;" horiz-adv-x="346" 
d="M251 501v215h119l-40 -215h-79zM76 0v716h111v-716h-111z" />
    <glyph glyph-name="Ldot" unicode="&#x13f;" horiz-adv-x="516" 
d="M72 716h113v-608h307v-108h-420v716zM347 267q-32 0 -54.5 22.5t-22.5 54.5t22.5 54.5t54.5 22.5t55 -22.5t23 -54.5t-23 -54.5t-55 -22.5z" />
    <glyph glyph-name="Lslash" unicode="&#x141;" horiz-adv-x="595" 
d="M151 261l-59 -36l-50 81l109 68v342h113v-268l119 75l49 -80l-168 -105v-230h307v-108h-420v261z" />
    <glyph glyph-name="lslash" unicode="&#x142;" horiz-adv-x="392" 
d="M137 0v273l-50 -36l-57 74l107 78v327h111v-250l66 49l57 -76l-123 -89v-350h-111z" />
    <glyph glyph-name="Nacute" unicode="&#x143;" horiz-adv-x="709" 
d="M321 772l47 132h126l-80 -132h-93zM72 716h135l318 -519h6l-6 138v381h112v-716h-118l-334 545h-6l6 -138v-407h-113v716z" />
    <glyph glyph-name="nacute" unicode="&#x144;" 
d="M240 588l47 132h126l-80 -132h-93zM161 424h6q22 35 62.5 58.5t91.5 23.5q93 0 139 -55.5t46 -147.5v-303h-111v288q0 64 -29.5 89.5t-77.5 25.5q-29 0 -51 -12t-38 -32.5t-24 -47t-8 -55.5v-256h-111v490h105v-66z" />
    <glyph glyph-name="uni0145" unicode="&#x145;" horiz-adv-x="709" 
d="M291 -234l43 62q-20 5 -32 22t-12 38q0 25 18 44.5t47 19.5t47 -19.5t18 -46.5q0 -24 -13 -45l-71 -106zM72 716h135l318 -519h6l-6 138v381h112v-716h-118l-334 545h-6l6 -138v-407h-113v716z" />
    <glyph glyph-name="uni0146" unicode="&#x146;" 
d="M217 -234l43 62q-20 5 -32 22t-12 38q0 25 18 44.5t47 19.5t47 -19.5t18 -46.5q0 -24 -13 -45l-71 -106zM161 424h6q22 35 62.5 58.5t91.5 23.5q93 0 139 -55.5t46 -147.5v-303h-111v288q0 64 -29.5 89.5t-77.5 25.5q-29 0 -51 -12t-38 -32.5t-24 -47t-8 -55.5v-256h-111
v490h105v-66z" />
    <glyph glyph-name="Ncaron" unicode="&#x147;" horiz-adv-x="709" 
d="M203 900h107l45 -59h10l45 59h107v-7l-108 -121h-98l-108 121v7zM72 716h135l318 -519h6l-6 138v381h112v-716h-118l-334 545h-6l6 -138v-407h-113v716z" />
    <glyph glyph-name="ncaron" unicode="&#x148;" 
d="M126 716h107l45 -59h10l45 59h107v-7l-108 -121h-98l-108 121v7zM161 424h6q22 35 62.5 58.5t91.5 23.5q93 0 139 -55.5t46 -147.5v-303h-111v288q0 64 -29.5 89.5t-77.5 25.5q-29 0 -51 -12t-38 -32.5t-24 -47t-8 -55.5v-256h-111v490h105v-66z" />
    <glyph glyph-name="Eng" unicode="&#x14a;" horiz-adv-x="709" 
d="M72 716h135l318 -514h6l-6 138v376h112v-769q0 -47 -12 -80t-33 -53.5t-50 -30t-63 -9.5q-19 0 -34 3.5t-30 8.5l28 97q14 -7 30 -7q28 0 40 17.5t12 49.5v60l-340 542h-6l6 -138v-407h-113v716z" />
    <glyph glyph-name="eng" unicode="&#x14b;" 
d="M161 424h6q22 35 62.5 58.5t91.5 23.5q93 0 139 -55.5t46 -147.5v-361q0 -45 -11.5 -77t-32.5 -52t-49 -29.5t-61 -9.5q-20 0 -36.5 3.5t-31.5 8.5l29 97q14 -7 30 -7q28 0 40 17.5t12 49.5v345q0 64 -29.5 89.5t-77.5 25.5q-29 0 -51 -12t-38 -32.5t-24 -47t-8 -55.5
v-256h-111v490h105v-66z" />
    <glyph glyph-name="Omacron" unicode="&#x14c;" horiz-adv-x="816" 
d="M264 800v86h288v-86h-288zM408 -16q-80 0 -147.5 29t-117.5 79.5t-78 119t-28 146.5t28 146t78 119t117.5 80t147.5 29q79 0 147 -29t118 -80t78 -119t28 -146t-28 -146.5t-78 -119t-118 -79.5t-147 -29zM408 92q53 0 100 19t81.5 54t54.5 84t20 109t-20 109t-54.5 84
t-81.5 54t-100 19t-100 -19t-81.5 -54t-54.5 -84t-20 -109t20 -109t54.5 -84t81.5 -54t100 -19z" />
    <glyph glyph-name="omacron" unicode="&#x14d;" horiz-adv-x="568" 
d="M140 616v86h288v-86h-288zM284 506q56 0 103 -19.5t81 -54.5t53 -83t19 -104t-19 -104t-53 -83t-81 -54.5t-103 -19.5t-103 19.5t-81 54.5t-53 83t-19 104t19 104t53 83t81 54.5t103 19.5zM284 87q28 0 54 11t46.5 31t32.5 49.5t12 66.5t-12 66.5t-32.5 49.5t-46.5 31
t-54 11t-54 -11t-46.5 -31t-32.5 -49.5t-12 -66.5t12 -66.5t32.5 -49.5t46.5 -31t54 -11z" />
    <glyph glyph-name="Obreve" unicode="&#x14e;" horiz-adv-x="816" 
d="M408 -16q-80 0 -147.5 29t-117.5 79.5t-78 119t-28 146.5t28 146t78 119t117.5 80t147.5 29q79 0 147 -29t118 -80t78 -119t28 -146t-28 -146.5t-78 -119t-118 -79.5t-147 -29zM408 92q53 0 100 19t81.5 54t54.5 84t20 109t-20 109t-54.5 84t-81.5 54t-100 19t-100 -19
t-81.5 -54t-54.5 -84t-20 -109t20 -109t54.5 -84t81.5 -54t100 -19zM409 767q-26 0 -50 10t-42.5 27t-29.5 41t-11 52h83q0 -20 13 -35.5t37 -15.5q23 0 36 15.5t13 35.5h82q0 -28 -11 -52t-29 -41t-41.5 -27t-49.5 -10z" />
    <glyph glyph-name="obreve" unicode="&#x14f;" horiz-adv-x="568" 
d="M284 506q56 0 103 -19.5t81 -54.5t53 -83t19 -104t-19 -104t-53 -83t-81 -54.5t-103 -19.5t-103 19.5t-81 54.5t-53 83t-19 104t19 104t53 83t81 54.5t103 19.5zM284 87q28 0 54 11t46.5 31t32.5 49.5t12 66.5t-12 66.5t-32.5 49.5t-46.5 31t-54 11t-54 -11t-46.5 -31
t-32.5 -49.5t-12 -66.5t12 -66.5t32.5 -49.5t46.5 -31t54 -11zM285 583q-26 0 -50 10t-42.5 27t-29.5 41t-11 52h83q0 -20 13 -35.5t37 -15.5q23 0 36 15.5t13 35.5h82q0 -28 -11 -52t-29 -41t-41.5 -27t-49.5 -10z" />
    <glyph glyph-name="Ohungarumlaut" unicode="&#x150;" horiz-adv-x="816" 
d="M408 -16q-80 0 -147.5 29t-117.5 79.5t-78 119t-28 146.5t28 146t78 119t117.5 80t147.5 29q79 0 147 -29t118 -80t78 -119t28 -146t-28 -146.5t-78 -119t-118 -79.5t-147 -29zM408 92q53 0 100 19t81.5 54t54.5 84t20 109t-20 109t-54.5 84t-81.5 54t-100 19t-100 -19
t-81.5 -54t-54.5 -84t-20 -109t20 -109t54.5 -84t81.5 -54t100 -19zM284 772l47 132h126l-80 -132h-93zM466 772l47 132h126l-80 -132h-93z" />
    <glyph glyph-name="ohungarumlaut" unicode="&#x151;" horiz-adv-x="568" 
d="M148 588l47 132h126l-80 -132h-93zM329 588l47 132h126l-80 -132h-93zM284 506q56 0 103 -19.5t81 -54.5t53 -83t19 -104t-19 -104t-53 -83t-81 -54.5t-103 -19.5t-103 19.5t-81 54.5t-53 83t-19 104t19 104t53 83t81 54.5t103 19.5zM284 87q28 0 54 11t46.5 31
t32.5 49.5t12 66.5t-12 66.5t-32.5 49.5t-46.5 31t-54 11t-54 -11t-46.5 -31t-32.5 -49.5t-12 -66.5t12 -66.5t32.5 -49.5t46.5 -31t54 -11z" />
    <glyph glyph-name="OE" unicode="&#x152;" horiz-adv-x="1147" 
d="M773 608v-197h290v-106h-290v-197h322v-108h-436v93h-3q-41 -51 -105 -80t-149 -29q-77 0 -144 29t-116 79.5t-77 119t-28 146.5t28 146t77 119t116 80t144 29q85 0 149 -29t105 -80h3v93h436v-108h-322zM408 92q53 0 100 19t81.5 54t54.5 84t20 109t-20 109t-54.5 84
t-81.5 54t-100 19t-100 -19t-81.5 -54t-54.5 -84t-20 -109t20 -109t54.5 -84t81.5 -54t100 -19z" />
    <glyph glyph-name="oe" unicode="&#x153;" horiz-adv-x="950" 
d="M686 -16q-67 0 -118.5 29.5t-81.5 77.5q-33 -50 -84 -78.5t-118 -28.5q-56 0 -103 19.5t-81 54.5t-53 83t-19 104t19 104t53 83t81 54.5t103 19.5q67 0 118 -29t85 -80q30 49 80 79t114 30q57 0 101.5 -19t75.5 -53t47.5 -82t16.5 -105v-9q-1 -5 -1 -9q-1 -4 -1 -8h-378
q3 -35 17 -61t35 -43t46 -25t49 -8q48 0 79 23t51 57l95 -47q-31 -57 -88 -95t-140 -38zM284 87q28 0 54 11t46.5 31t32.5 49.5t12 66.5t-12 66.5t-32.5 49.5t-46.5 31t-54 11t-54 -11t-46.5 -31t-32.5 -49.5t-12 -66.5t12 -66.5t32.5 -49.5t46.5 -31t54 -11zM811 306
q-2 15 -9.5 33.5t-23 34t-40 26.5t-59.5 11q-48 0 -83 -28.5t-47 -76.5h262z" />
    <glyph glyph-name="Racute" unicode="&#x154;" horiz-adv-x="599" 
d="M239 772l47 132h126l-80 -132h-93zM72 716h253q49 0 91.5 -16t73.5 -45.5t48.5 -69.5t17.5 -88q0 -37 -12.5 -70t-34.5 -59.5t-51.5 -45.5t-63.5 -28l-1 -5l196 -283v-6h-132l-189 279h-83v-279h-113v716zM322 385q25 0 46.5 8.5t37.5 23.5t25.5 35.5t9.5 45.5
q0 20 -7.5 40t-22 36t-36 26t-49.5 10h-141v-225h137z" />
    <glyph glyph-name="racute" unicode="&#x155;" horiz-adv-x="385" 
d="M165 588l47 132h126l-80 -132h-93zM56 490h105v-74h6q9 19 24.5 35.5t35 28t41 18t41.5 6.5q24 0 41 -4t31 -11l-32 -103q-11 5 -24.5 7.5t-32.5 2.5q-27 0 -49.5 -11t-39.5 -30t-26.5 -45t-9.5 -55v-255h-111v490z" />
    <glyph glyph-name="uni0156" unicode="&#x156;" horiz-adv-x="590" 
d="M249 -234l43 62q-20 5 -32 22t-12 38q0 25 18 44.5t47 19.5t47 -19.5t18 -46.5q0 -24 -13 -45l-71 -106zM72 716h253q49 0 91.5 -16t73.5 -45.5t48.5 -69.5t17.5 -88q0 -37 -12.5 -70t-34.5 -59.5t-51.5 -45.5t-63.5 -28l-1 -5l196 -283v-6h-132l-189 279h-83v-279h-113
v716zM322 385q25 0 46.5 8.5t37.5 23.5t25.5 35.5t9.5 45.5q0 20 -7.5 40t-22 36t-36 26t-49.5 10h-141v-225h137z" />
    <glyph glyph-name="uni0157" unicode="&#x157;" horiz-adv-x="385" 
d="M50 -234l43 62q-20 5 -32 22t-12 38q0 25 18 44.5t47 19.5t47 -19.5t18 -46.5q0 -24 -13 -45l-71 -106zM56 490h105v-74h6q9 19 24.5 35.5t35 28t41 18t41.5 6.5q24 0 41 -4t31 -11l-32 -103q-11 5 -24.5 7.5t-32.5 2.5q-27 0 -49.5 -11t-39.5 -30t-26.5 -45t-9.5 -55
v-255h-111v490z" />
    <glyph glyph-name="Rcaron" unicode="&#x158;" horiz-adv-x="599" 
d="M133 900h107l45 -59h10l45 59h107v-7l-108 -121h-98l-108 121v7zM72 716h253q49 0 91.5 -16t73.5 -45.5t48.5 -69.5t17.5 -88q0 -37 -12.5 -70t-34.5 -59.5t-51.5 -45.5t-63.5 -28l-1 -5l196 -283v-6h-132l-189 279h-83v-279h-113v716zM322 385q25 0 46.5 8.5t37.5 23.5
t25.5 35.5t9.5 45.5q0 20 -7.5 40t-22 36t-36 26t-49.5 10h-141v-225h137z" />
    <glyph glyph-name="rcaron" unicode="&#x159;" horiz-adv-x="385" 
d="M48 716h107l45 -59h10l45 59h107v-7l-108 -121h-98l-108 121v7zM56 490h105v-74h6q9 19 24.5 35.5t35 28t41 18t41.5 6.5q24 0 41 -4t31 -11l-32 -103q-11 5 -24.5 7.5t-32.5 2.5q-27 0 -49.5 -11t-39.5 -30t-26.5 -45t-9.5 -55v-255h-111v490z" />
    <glyph glyph-name="Sacute" unicode="&#x15a;" horiz-adv-x="564" 
d="M228 772l47 132h126l-80 -132h-93zM283 -16q-43 0 -83.5 12.5t-75 37.5t-60.5 62t-40 86l108 44q7 -28 20.5 -52.5t33 -42.5t44 -28.5t54.5 -10.5q25 0 48 6.5t40 19.5t27.5 32t10.5 44q0 22 -8 40t-25 33t-45 28.5t-67 27.5l-45 16q-29 10 -59.5 26.5t-55 40t-40 55.5
t-15.5 75q0 40 16.5 75.5t46.5 62.5t71.5 42.5t91.5 15.5q52 0 91.5 -14.5t66.5 -36.5t43.5 -48.5t24.5 -49.5l-102 -43q-5 15 -14.5 30.5t-24.5 27.5t-35.5 20t-47.5 8q-24 0 -45 -6.5t-36.5 -18.5t-24.5 -28t-9 -35q0 -38 31.5 -61.5t92.5 -44.5l45 -16q42 -14 77 -33
t61 -45.5t40.5 -61.5t14.5 -81q0 -56 -22.5 -95.5t-57.5 -65.5t-78 -38t-84 -12z" />
    <glyph glyph-name="sacute" unicode="&#x15b;" horiz-adv-x="469" 
d="M184 588l47 132h126l-80 -132h-93zM242 -16q-45 0 -81 12t-63 31.5t-45.5 44.5t-28.5 52l100 42q17 -43 49 -63.5t69 -20.5q42 0 66 17t24 38t-18 36.5t-68 27.5l-70 17q-23 5 -46.5 15.5t-43.5 27t-32.5 40t-12.5 55.5q0 36 15.5 64t42.5 47t62.5 29t75.5 10
q33 0 63.5 -7t56.5 -21t46.5 -35.5t32.5 -50.5l-98 -41q-14 32 -44 46.5t-61 14.5q-14 0 -28.5 -3.5t-26 -10t-19 -16.5t-7.5 -22q0 -20 17.5 -31.5t53.5 -20.5l75 -19q76 -19 111.5 -57.5t35.5 -90.5q0 -32 -14.5 -60t-41.5 -50t-64.5 -34.5t-82.5 -12.5z" />
    <glyph glyph-name="Scircumflex" unicode="&#x15c;" horiz-adv-x="564" 
d="M116 780l108 121h98l108 -121v-7h-107l-45 59h-10l-45 -59h-107v7zM283 -16q-43 0 -83.5 12.5t-75 37.5t-60.5 62t-40 86l108 44q7 -28 20.5 -52.5t33 -42.5t44 -28.5t54.5 -10.5q25 0 48 6.5t40 19.5t27.5 32t10.5 44q0 22 -8 40t-25 33t-45 28.5t-67 27.5l-45 16
q-29 10 -59.5 26.5t-55 40t-40 55.5t-15.5 75q0 40 16.5 75.5t46.5 62.5t71.5 42.5t91.5 15.5q52 0 91.5 -14.5t66.5 -36.5t43.5 -48.5t24.5 -49.5l-102 -43q-5 15 -14.5 30.5t-24.5 27.5t-35.5 20t-47.5 8q-24 0 -45 -6.5t-36.5 -18.5t-24.5 -28t-9 -35q0 -38 31.5 -61.5
t92.5 -44.5l45 -16q42 -14 77 -33t61 -45.5t40.5 -61.5t14.5 -81q0 -56 -22.5 -95.5t-57.5 -65.5t-78 -38t-84 -12z" />
    <glyph glyph-name="scircumflex" unicode="&#x15d;" horiz-adv-x="469" 
d="M81 595l108 121h98l108 -121v-7h-107l-45 59h-10l-45 -59h-107v7zM242 -16q-45 0 -81 12t-63 31.5t-45.5 44.5t-28.5 52l100 42q17 -43 49 -63.5t69 -20.5q42 0 66 17t24 38t-18 36.5t-68 27.5l-70 17q-23 5 -46.5 15.5t-43.5 27t-32.5 40t-12.5 55.5q0 36 15.5 64
t42.5 47t62.5 29t75.5 10q33 0 63.5 -7t56.5 -21t46.5 -35.5t32.5 -50.5l-98 -41q-14 32 -44 46.5t-61 14.5q-14 0 -28.5 -3.5t-26 -10t-19 -16.5t-7.5 -22q0 -20 17.5 -31.5t53.5 -20.5l75 -19q76 -19 111.5 -57.5t35.5 -90.5q0 -32 -14.5 -60t-41.5 -50t-64.5 -34.5
t-82.5 -12.5z" />
    <glyph glyph-name="uni015E" unicode="&#x15e;" horiz-adv-x="564" 
d="M294 -237q-35 0 -60.5 19t-36.5 47l58 25q5 -12 14.5 -21.5t24.5 -9.5q17 0 27 11t10 25q0 15 -10 26.5t-27 11.5q-19 0 -31 -15l-53 25l30 80q-37 6 -70.5 21t-62 39.5t-50 58t-33.5 76.5l108 44q7 -28 20.5 -52.5t33 -42.5t44 -28.5t54.5 -10.5q25 0 48 6.5t40 19.5
t27.5 32t10.5 44q0 22 -8 40t-25 33t-45 28.5t-67 27.5l-45 16q-29 10 -59.5 26.5t-55 40t-40 55.5t-15.5 75q0 40 16.5 75.5t46.5 62.5t71.5 42.5t91.5 15.5q52 0 91.5 -14.5t66.5 -36.5t43.5 -48.5t24.5 -49.5l-102 -43q-5 15 -14.5 30.5t-24.5 27.5t-35.5 20t-47.5 8
q-24 0 -45 -6.5t-36.5 -18.5t-24.5 -28t-9 -35q0 -38 31.5 -61.5t92.5 -44.5l45 -16q42 -14 77 -33t61 -45.5t40.5 -61.5t14.5 -81q0 -53 -20.5 -91.5t-52.5 -64t-72.5 -39t-79.5 -15.5l-14 -33q5 1 9 1.5t10 0.5q38 0 65 -26t27 -69q0 -40 -28.5 -68t-74.5 -28z" />
    <glyph glyph-name="uni015F" unicode="&#x15f;" horiz-adv-x="469" 
d="M257 -237q-35 0 -60.5 19t-36.5 47l58 25q5 -12 14.5 -21.5t24.5 -9.5q17 0 27 11t10 25q0 15 -10 26.5t-27 11.5q-19 0 -31 -15l-53 25l30 80q-36 5 -65.5 18t-51.5 31.5t-37.5 41t-24.5 46.5l100 42q17 -43 49 -63.5t69 -20.5q42 0 66 17t24 38t-18 36.5t-68 27.5
l-70 17q-23 5 -46.5 15.5t-43.5 27t-32.5 40t-12.5 55.5q0 36 15.5 64t42.5 47t62.5 29t75.5 10q33 0 63.5 -7t56.5 -21t46.5 -35.5t32.5 -50.5l-98 -41q-14 32 -44 46.5t-61 14.5q-14 0 -28.5 -3.5t-26 -10t-19 -16.5t-7.5 -22q0 -20 17.5 -31.5t53.5 -20.5l75 -19
q76 -19 111.5 -57.5t35.5 -90.5q0 -30 -13 -57t-37 -48t-57.5 -34.5t-74.5 -16.5l-14 -33q5 1 9 1.5t10 0.5q38 0 65 -26t27 -69q0 -40 -28.5 -68t-74.5 -28z" />
    <glyph glyph-name="Scaron" unicode="&#x160;" horiz-adv-x="564" 
d="M123 900h107l45 -59h10l45 59h107v-7l-108 -121h-98l-108 121v7zM283 -16q-43 0 -83.5 12.5t-75 37.5t-60.5 62t-40 86l108 44q7 -28 20.5 -52.5t33 -42.5t44 -28.5t54.5 -10.5q25 0 48 6.5t40 19.5t27.5 32t10.5 44q0 22 -8 40t-25 33t-45 28.5t-67 27.5l-45 16
q-29 10 -59.5 26.5t-55 40t-40 55.5t-15.5 75q0 40 16.5 75.5t46.5 62.5t71.5 42.5t91.5 15.5q52 0 91.5 -14.5t66.5 -36.5t43.5 -48.5t24.5 -49.5l-102 -43q-5 15 -14.5 30.5t-24.5 27.5t-35.5 20t-47.5 8q-24 0 -45 -6.5t-36.5 -18.5t-24.5 -28t-9 -35q0 -38 31.5 -61.5
t92.5 -44.5l45 -16q42 -14 77 -33t61 -45.5t40.5 -61.5t14.5 -81q0 -56 -22.5 -95.5t-57.5 -65.5t-78 -38t-84 -12z" />
    <glyph glyph-name="scaron" unicode="&#x161;" horiz-adv-x="469" 
d="M77 716h107l45 -59h10l45 59h107v-7l-108 -121h-98l-108 121v7zM242 -16q-45 0 -81 12t-63 31.5t-45.5 44.5t-28.5 52l100 42q17 -43 49 -63.5t69 -20.5q42 0 66 17t24 38t-18 36.5t-68 27.5l-70 17q-23 5 -46.5 15.5t-43.5 27t-32.5 40t-12.5 55.5q0 36 15.5 64t42.5 47
t62.5 29t75.5 10q33 0 63.5 -7t56.5 -21t46.5 -35.5t32.5 -50.5l-98 -41q-14 32 -44 46.5t-61 14.5q-14 0 -28.5 -3.5t-26 -10t-19 -16.5t-7.5 -22q0 -20 17.5 -31.5t53.5 -20.5l75 -19q76 -19 111.5 -57.5t35.5 -90.5q0 -32 -14.5 -60t-41.5 -50t-64.5 -34.5t-82.5 -12.5z
" />
    <glyph glyph-name="uni0162" unicode="&#x162;" horiz-adv-x="561" 
d="M297 -237q-35 0 -60.5 19t-36.5 47l58 25q5 -12 14.5 -21.5t24.5 -9.5q17 0 27 11t10 25q0 15 -10 26.5t-27 11.5q-19 0 -31 -15l-53 25l35 93h-24v608h-200v108h513v-108h-200v-608h-27l-21 -48q5 1 9 1.5t10 0.5q38 0 65 -26t27 -69q0 -40 -28.5 -68t-74.5 -28z" />
    <glyph glyph-name="uni0163" unicode="&#x163;" horiz-adv-x="378" 
d="M110 392h-86v98h86v150h111v-150h121v-98h-121v-218q0 -18 4 -33t12 -25q17 -19 43 -19q16 0 25 2.5t19 7.5l34 -98q-21 -8 -44 -12.5t-52 -4.5h-14l-19 -40q5 1 9 1.5t10 0.5q38 0 65 -26t27 -69q0 -40 -28.5 -68t-74.5 -28q-35 0 -60.5 19t-36.5 47l58 25
q5 -12 15 -21.5t24 -9.5q17 0 27 11t10 25q0 15 -10 26.5t-27 11.5q-20 0 -30 -15l-54 25l40 99q-24 11 -40 27q-43 43 -43 117v242z" />
    <glyph glyph-name="Tcaron" unicode="&#x164;" horiz-adv-x="561" 
d="M124 906h107l45 -59h10l45 59h107v-7l-108 -121h-98l-108 121v7zM224 0v608h-200v108h513v-108h-200v-608h-113z" />
    <glyph glyph-name="tcaron" unicode="&#x165;" horiz-adv-x="378" 
d="M281 549v167h105l-30 -167h-75zM110 392h-86v98h86v150h111v-150h121v-98h-121v-218q0 -18 4 -33t12 -25q17 -19 43 -19q16 0 25 2.5t19 7.5l34 -98q-21 -8 -44 -12.5t-52 -4.5q-35 0 -62 11t-47 30q-43 43 -43 117v242z" />
    <glyph glyph-name="Tbar" unicode="&#x166;" horiz-adv-x="561" 
d="M224 0v329h-127v90h127v189h-200v108h513v-108h-200v-189h128v-90h-128v-329h-113z" />
    <glyph glyph-name="tbar" unicode="&#x167;" horiz-adv-x="378" 
d="M110 218h-86v92h86v82h-86v98h86v150h111v-150h121v-98h-121v-82h114v-92h-114v-44q0 -18 4 -33t12 -25q17 -19 43 -19q16 0 25 2.5t19 7.5l34 -98q-21 -8 -44 -12.5t-52 -4.5q-35 0 -62 11t-47 30q-43 43 -43 117v68z" />
    <glyph glyph-name="Utilde" unicode="&#x168;" horiz-adv-x="655" 
d="M328 -16q-61 0 -111 20.5t-86 58.5t-55.5 92t-19.5 120v441h113v-447q0 -38 10 -70.5t30 -56t49.5 -37t69.5 -13.5q39 0 69 13.5t49.5 37t29.5 56t10 70.5v447h113v-441q0 -65 -18.5 -118.5t-54 -91.5t-85.5 -59.5t-113 -21.5zM387 775q-19 0 -37 7t-33.5 15t-27.5 15
t-20 7q-27 0 -30 -32h-84q0 32 10 55t26.5 38t37 22t40.5 7q19 0 36.5 -7t33 -15t28.5 -15q12 -7 20 -7q28 0 29 32h84q0 -32 -10 -55t-26 -38t-36.5 -22t-40.5 -7z" />
    <glyph glyph-name="utilde" unicode="&#x169;" 
d="M397 66h-6q-22 -35 -62.5 -58.5t-91.5 -23.5q-93 0 -139 55.5t-46 147.5v303h111v-288q0 -64 29.5 -89.5t77.5 -25.5q28 0 50.5 12t38.5 32.5t24 47t8 55.5v256h111v-490h-105v66zM342 591q-19 0 -37 7t-33.5 15t-27.5 15t-20 7q-27 0 -30 -32h-84q0 32 10 55t26.5 38
t37 22t40.5 7q19 0 36.5 -7t33 -15t28.5 -15q12 -7 20 -7q28 0 29 32h84q0 -32 -10 -55t-26 -38t-36.5 -22t-40.5 -7z" />
    <glyph glyph-name="Umacron" unicode="&#x16a;" horiz-adv-x="655" 
d="M328 -16q-61 0 -111 20.5t-86 58.5t-55.5 92t-19.5 120v441h113v-447q0 -38 10 -70.5t30 -56t49.5 -37t69.5 -13.5q39 0 69 13.5t49.5 37t29.5 56t10 70.5v447h113v-441q0 -65 -18.5 -118.5t-54 -91.5t-85.5 -59.5t-113 -21.5zM184 800v86h288v-86h-288z" />
    <glyph glyph-name="umacron" unicode="&#x16b;" 
d="M397 66h-6q-22 -35 -62.5 -58.5t-91.5 -23.5q-93 0 -139 55.5t-46 147.5v303h111v-288q0 -64 29.5 -89.5t77.5 -25.5q28 0 50.5 12t38.5 32.5t24 47t8 55.5v256h111v-490h-105v66zM135 616v86h288v-86h-288z" />
    <glyph glyph-name="Ubreve" unicode="&#x16c;" horiz-adv-x="655" 
d="M328 -16q-61 0 -111 20.5t-86 58.5t-55.5 92t-19.5 120v441h113v-447q0 -38 10 -70.5t30 -56t49.5 -37t69.5 -13.5q39 0 69 13.5t49.5 37t29.5 56t10 70.5v447h113v-441q0 -65 -18.5 -118.5t-54 -91.5t-85.5 -59.5t-113 -21.5zM329 767q-26 0 -50 10t-42.5 27t-29.5 41
t-11 52h83q0 -20 13 -35.5t37 -15.5q23 0 36 15.5t13 35.5h82q0 -28 -11 -52t-29 -41t-41.5 -27t-49.5 -10z" />
    <glyph glyph-name="ubreve" unicode="&#x16d;" 
d="M397 66h-6q-22 -35 -62.5 -58.5t-91.5 -23.5q-93 0 -139 55.5t-46 147.5v303h111v-288q0 -64 29.5 -89.5t77.5 -25.5q28 0 50.5 12t38.5 32.5t24 47t8 55.5v256h111v-490h-105v66zM280 568q-26 0 -50 10t-42.5 27t-29.5 41t-11 52h83q0 -20 13 -35.5t37 -15.5
q23 0 36 15.5t13 35.5h82q0 -28 -11 -52t-29 -41t-41.5 -27t-49.5 -10z" />
    <glyph glyph-name="Uring" unicode="&#x16e;" horiz-adv-x="655" 
d="M328 750q-22 0 -41.5 8.5t-33.5 23t-22.5 33.5t-8.5 41q0 45 30.5 75.5t75.5 30.5q22 0 41 -8.5t33.5 -22.5t23 -33.5t8.5 -41.5t-8.5 -41t-23 -33.5t-33.5 -23t-41 -8.5zM328 816q16 0 27.5 12t11.5 28t-11.5 27.5t-27.5 11.5t-27.5 -11.5t-11.5 -27.5t11.5 -28
t27.5 -12zM328 -16q-61 0 -111 20.5t-86 58.5t-55.5 92t-19.5 120v441h113v-447q0 -38 10 -70.5t30 -56t49.5 -37t69.5 -13.5q39 0 69 13.5t49.5 37t29.5 56t10 70.5v447h113v-441q0 -65 -18.5 -118.5t-54 -91.5t-85.5 -59.5t-113 -21.5z" />
    <glyph glyph-name="uring" unicode="&#x16f;" 
d="M279 566q-22 0 -41.5 8.5t-33.5 23t-22.5 33.5t-8.5 41q0 45 30.5 75.5t75.5 30.5q22 0 41 -8.5t33.5 -22.5t23 -33.5t8.5 -41.5t-8.5 -41t-23 -33.5t-33.5 -23t-41 -8.5zM279 632q16 0 27.5 12t11.5 28t-11.5 27.5t-27.5 11.5t-27.5 -11.5t-11.5 -27.5t11.5 -28
t27.5 -12zM397 66h-6q-22 -35 -62.5 -58.5t-91.5 -23.5q-93 0 -139 55.5t-46 147.5v303h111v-288q0 -64 29.5 -89.5t77.5 -25.5q28 0 50.5 12t38.5 32.5t24 47t8 55.5v256h111v-490h-105v66z" />
    <glyph glyph-name="Uhungarumlaut" unicode="&#x170;" horiz-adv-x="655" 
d="M328 -16q-61 0 -111 20.5t-86 58.5t-55.5 92t-19.5 120v441h113v-447q0 -38 10 -70.5t30 -56t49.5 -37t69.5 -13.5q39 0 69 13.5t49.5 37t29.5 56t10 70.5v447h113v-441q0 -65 -18.5 -118.5t-54 -91.5t-85.5 -59.5t-113 -21.5zM181 772l47 132h126l-80 -132h-93zM363 772
l47 132h126l-80 -132h-93z" />
    <glyph glyph-name="uhungarumlaut" unicode="&#x171;" 
d="M138 588l47 132h126l-80 -132h-93zM319 588l47 132h126l-80 -132h-93zM397 66h-6q-22 -35 -62.5 -58.5t-91.5 -23.5q-93 0 -139 55.5t-46 147.5v303h111v-288q0 -64 29.5 -89.5t77.5 -25.5q28 0 50.5 12t38.5 32.5t24 47t8 55.5v256h111v-490h-105v66z" />
    <glyph glyph-name="Uogonek" unicode="&#x172;" horiz-adv-x="655" 
d="M56 716h113v-447q0 -38 10 -70.5t30 -56t49.5 -37t69.5 -13.5q39 0 69 13.5t49.5 37t29.5 56t10 70.5v447h113v-441q0 -82 -29.5 -144.5t-84.5 -100.5q-15 -12 -33 -26q-19 -15 -36 -31t-28.5 -33t-11.5 -32q0 -20 11.5 -33.5t30.5 -13.5q15 0 26 5l30 -75
q-29 -15 -69 -15q-60 0 -93 33t-33 81q0 32 16.5 56.5t33.5 38.5h-13q-59 1 -106.5 22.5t-82 59t-53 90.5t-18.5 118v441z" />
    <glyph glyph-name="uogonek" unicode="&#x173;" 
d="M460 -224q-59 0 -92 33t-33 81q0 20 6.5 36.5t16 30t20.5 24t20 16.5l-1 3v66h-6q-22 -35 -62.5 -58.5t-91.5 -23.5q-93 0 -139 55.5t-46 147.5v303h111v-288q0 -64 29.5 -89.5t77.5 -25.5q28 0 50.5 12t38.5 32.5t24 47t8 55.5v256h111v-490q-28 -20 -49 -42t-21 -50
q0 -20 11 -33.5t31 -13.5q15 0 25 5l31 -75q-30 -15 -70 -15z" />
    <glyph glyph-name="Wcircumflex" unicode="&#x174;" horiz-adv-x="938" 
d="M316 779l108 121h98l108 -121v-7h-107l-45 59h-10l-45 -59h-107v7zM16 716h119l123 -460l17 -69h6l20 69l119 364h106l119 -364l20 -68h6l15 68l117 460h119l-190 -716h-112l-123 377l-21 71h-6l-20 -71l-124 -377h-112z" />
    <glyph glyph-name="wcircumflex" unicode="&#x175;" horiz-adv-x="779" 
d="M232 595l108 121h98l108 -121v-7h-107l-45 59h-10l-45 -59h-107v7zM4 490h121l95 -339h4l110 339h115l109 -339h4l94 339h119l-157 -490h-117l-111 343h-4l-108 -343h-117z" />
    <glyph glyph-name="Ycircumflex" unicode="&#x176;" horiz-adv-x="615" 
d="M253 333l-241 383h135l160 -264h6l155 264h135l-237 -383v-333h-113v333zM153 779l108 121h98l108 -121v-7h-107l-45 59h-10l-45 -59h-107v7z" />
    <glyph glyph-name="ycircumflex" unicode="&#x177;" horiz-adv-x="526" 
d="M208 28l-204 462h124l135 -325h5l131 325h123l-307 -706h-118zM108 595l108 121h98l108 -121v-7h-107l-45 59h-10l-45 -59h-107v7z" />
    <glyph glyph-name="Ydieresis" unicode="&#x178;" horiz-adv-x="615" 
d="M253 333l-241 383h135l160 -264h6l155 264h135l-237 -383v-333h-113v333zM400 779q-26 0 -45.5 19t-19.5 45q0 28 19.5 46t45.5 18q27 0 45.5 -18t18.5 -46q0 -26 -18.5 -45t-45.5 -19zM220 779q-26 0 -45 19t-19 45q0 28 19 46t45 18q28 0 46.5 -18t18.5 -46
q0 -26 -18.5 -45t-46.5 -19z" />
    <glyph glyph-name="Zacute" unicode="&#x179;" horiz-adv-x="580" 
d="M239 772l47 132h126l-80 -132h-93zM32 116l372 492h-356v108h488v-116l-370 -492h374v-108h-508v116z" />
    <glyph glyph-name="zacute" unicode="&#x17a;" horiz-adv-x="469" 
d="M195 588l47 132h126l-80 -132h-93zM32 93l264 300h-256v97h393v-93l-264 -300h268v-97h-405v93z" />
    <glyph glyph-name="Zdotaccent" unicode="&#x17b;" horiz-adv-x="580" 
d="M294 795q-24 0 -42.5 18t-18.5 43q0 26 18.5 43.5t42.5 17.5q26 0 44 -17.5t18 -43.5q0 -25 -18 -43t-44 -18zM32 116l372 492h-356v108h488v-116l-370 -492h374v-108h-508v116z" />
    <glyph glyph-name="zdotaccent" unicode="&#x17c;" horiz-adv-x="469" 
d="M32 93l264 300h-256v97h393v-93l-264 -300h268v-97h-405v93zM240 589q-26 0 -46 19.5t-20 46.5q0 29 20 47.5t46 18.5q29 0 48 -18.5t19 -47.5q0 -27 -19 -46.5t-48 -19.5z" />
    <glyph glyph-name="Zcaron" unicode="&#x17d;" horiz-adv-x="580" 
d="M139 900h107l45 -59h10l45 59h107v-7l-108 -121h-98l-108 121v7zM32 116l372 492h-356v108h488v-116l-370 -492h374v-108h-508v116z" />
    <glyph glyph-name="zcaron" unicode="&#x17e;" horiz-adv-x="469" 
d="M86 716h107l45 -59h10l45 59h107v-7l-108 -121h-98l-108 121v7zM32 93l264 300h-256v97h393v-93l-264 -300h268v-97h-405v93z" />
    <glyph glyph-name="uni0192" unicode="&#x192;" horiz-adv-x="589" 
d="M120 -220q-21 0 -42.5 4t-38.5 11l29 99q9 -5 20 -8t25 -3q28 0 47.5 18t26.5 52l71 362h-98v98h118l29 146q14 75 63.5 118t124.5 43q47 0 82 -15l-38 -98q-17 10 -43 10q-30 0 -52.5 -17t-29.5 -50l-27 -137h120v-98h-140l-76 -387q-13 -63 -56 -105.5t-115 -42.5z" />
    <glyph glyph-name="Aringacute" unicode="&#x1fa;" horiz-adv-x="692" 
d="M265 672q-17 16 -26.5 37.5t-9.5 46.5q0 40 23 70.5t60 41.5l31 75h105l-47 -84q27 -14 44.5 -41.5t17.5 -61.5q0 -25 -9.5 -46.5t-26.5 -37.5l253 -672h-125l-65 184h-288l-65 -184h-125zM452 287l-75 211l-28 84h-6l-28 -84l-75 -211h212zM306 756q0 -17 11.5 -28.5
t28.5 -11.5t28.5 11.5t11.5 28.5t-11.5 28.5t-28.5 11.5t-28.5 -11.5t-11.5 -28.5z" />
    <glyph glyph-name="aringacute" unicode="&#x1fb;" horiz-adv-x="523" 
d="M220 800l38 111h118l-65 -111h-91zM366 60h-6q-22 -29 -57 -52.5t-89 -23.5q-39 0 -73 12.5t-59 35t-39.5 53t-14.5 67.5q0 39 15.5 70t43 52t65.5 32.5t82 11.5q49 0 82 -9.5t50 -17.5v19q0 22 -9.5 41t-26 32.5t-37.5 21t-44 7.5q-37 0 -66.5 -14.5t-52.5 -46.5l-88 58
q35 48 87 72.5t118 24.5q109 0 168.5 -54t59.5 -154v-298h-109v60zM366 204q-22 13 -49 21t-62 8q-52 0 -83 -24t-31 -58q0 -18 8 -31.5t20.5 -23.5t29 -15t33.5 -5q27 0 51.5 10.5t42.5 28t29 40.5t11 49zM263 566q-22 0 -41.5 8.5t-33.5 23t-22.5 33.5t-8.5 41
q0 45 30.5 75.5t75.5 30.5q22 0 41 -8.5t33.5 -22.5t23 -33.5t8.5 -41.5t-8.5 -41t-23 -33.5t-33.5 -23t-41 -8.5zM263 632q16 0 27.5 12t11.5 28t-11.5 27.5t-27.5 11.5t-27.5 -11.5t-11.5 -27.5t11.5 -28t27.5 -12z" />
    <glyph glyph-name="AEacute" unicode="&#x1fc;" horiz-adv-x="982" 
d="M633 772l47 132h126l-80 -132h-93zM4 0l425 716h501v-108h-322v-197h290v-106h-290v-197h322v-108h-436v184h-250l-106 -184h-134zM306 290h188v318h-7l-31 -60z" />
    <glyph glyph-name="aeacute" unicode="&#x1fd;" horiz-adv-x="887" 
d="M388 588l47 132h126l-80 -132h-93zM623 -16q-66 0 -116.5 28.5t-83.5 76.5q-35 -51 -86 -78t-118 -27q-41 0 -76 12.5t-60.5 35t-40 53t-14.5 67.5q0 39 15.5 70t43 52t65.5 32.5t82 11.5q49 0 82.5 -9.5t52.5 -18.5v16q0 24 -9.5 43.5t-25.5 33.5t-37.5 21.5t-44.5 7.5
q-77 0 -108 -62l-93 43q26 52 75.5 82.5t124.5 30.5q63 0 109 -24.5t75 -67.5q31 43 77.5 67.5t104.5 24.5q57 0 102 -19t76 -53t47.5 -82t16.5 -105v-9q-1 -5 -1 -9q-1 -4 -1 -8h-378q2 -35 16 -61t35 -43t46.5 -25t49.5 -8q48 0 79 23t50 57l96 -47q-32 -57 -88.5 -95
t-139.5 -38zM232 76q27 0 52 10.5t43.5 28t30 40.5t11.5 49q-4 1 -13 6q-10 5 -24.5 10t-34 9t-42.5 4q-52 0 -83 -24t-31 -58q0 -18 8 -31.5t20.5 -23.5t29 -15t33.5 -5zM747 306q-1 15 -8.5 33.5t-23 34t-40 26.5t-59.5 11q-48 0 -83 -28.5t-47 -76.5h261z" />
    <glyph glyph-name="Oslashacute" unicode="&#x1fe;" horiz-adv-x="816" 
d="M140 7l35 56q-65 51 -101.5 127.5t-36.5 167.5q0 78 28 146t78 119t117.5 80t147.5 29q45 0 85 -9.5t77 -26.5l39 63l77 -50l-39 -62q62 -52 97 -126.5t35 -162.5q0 -78 -28 -146.5t-78 -119t-118 -79.5t-147 -29q-42 0 -81 8.5t-74 23.5l-36 -58zM152 358q0 -63 22 -114
t60 -86l278 445q-48 21 -104 21q-53 0 -100 -19t-81.5 -54t-54.5 -84t-20 -109zM408 92q53 0 100 19t81.5 54t54.5 84t20 109t-20.5 109.5t-55.5 84.5l-277 -443q46 -17 97 -17zM362 772l47 132h126l-80 -132h-93z" />
    <glyph glyph-name="oslashacute" unicode="&#x1ff;" horiz-adv-x="568" 
d="M284 506q28 0 53.5 -5t49.5 -14l25 41l74 -42l-28 -45q38 -35 60 -85.5t22 -110.5q0 -56 -19 -104t-53 -83t-81 -54.5t-103 -19.5q-55 0 -100 18l-24 -39l-75 41l27 43q-40 35 -62 85.5t-22 112.5q0 56 19 104t53 83t81 54.5t103 19.5zM134 245q0 -33 9 -60.5t25 -47.5
l165 264q-26 8 -49 8q-29 0 -56 -11t-48 -32t-33.5 -51.5t-12.5 -69.5zM284 81q29 0 56 11t48 32t33.5 51.5t12.5 69.5q0 32 -9 58.5t-24 46.5l-163 -262q20 -7 46 -7zM235 588l47 132h126l-80 -132h-93z" />
    <glyph glyph-name="uni0218" unicode="&#x218;" horiz-adv-x="564" 
d="M231 -234l43 62q-20 5 -32 22t-12 38q0 25 18 44.5t47 19.5t47 -19.5t18 -46.5q0 -24 -13 -45l-71 -106zM283 -16q-43 0 -83.5 12.5t-75 37.5t-60.5 62t-40 86l108 44q7 -28 20.5 -52.5t33 -42.5t44 -28.5t54.5 -10.5q25 0 48 6.5t40 19.5t27.5 32t10.5 44q0 22 -8 40
t-25 33t-45 28.5t-67 27.5l-45 16q-29 10 -59.5 26.5t-55 40t-40 55.5t-15.5 75q0 40 16.5 75.5t46.5 62.5t71.5 42.5t91.5 15.5q52 0 91.5 -14.5t66.5 -36.5t43.5 -48.5t24.5 -49.5l-102 -43q-5 15 -14.5 30.5t-24.5 27.5t-35.5 20t-47.5 8q-24 0 -45 -6.5t-36.5 -18.5
t-24.5 -28t-9 -35q0 -38 31.5 -61.5t92.5 -44.5l45 -16q42 -14 77 -33t61 -45.5t40.5 -61.5t14.5 -81q0 -56 -22.5 -95.5t-57.5 -65.5t-78 -38t-84 -12z" />
    <glyph glyph-name="uni0219" unicode="&#x219;" horiz-adv-x="469" 
d="M182 -234l43 62q-20 5 -32 22t-12 38q0 25 18 44.5t47 19.5t47 -19.5t18 -46.5q0 -24 -13 -45l-71 -106zM242 -16q-45 0 -81 12t-63 31.5t-45.5 44.5t-28.5 52l100 42q17 -43 49 -63.5t69 -20.5q42 0 66 17t24 38t-18 36.5t-68 27.5l-70 17q-23 5 -46.5 15.5t-43.5 27
t-32.5 40t-12.5 55.5q0 36 15.5 64t42.5 47t62.5 29t75.5 10q33 0 63.5 -7t56.5 -21t46.5 -35.5t32.5 -50.5l-98 -41q-14 32 -44 46.5t-61 14.5q-14 0 -28.5 -3.5t-26 -10t-19 -16.5t-7.5 -22q0 -20 17.5 -31.5t53.5 -20.5l75 -19q76 -19 111.5 -57.5t35.5 -90.5
q0 -32 -14.5 -60t-41.5 -50t-64.5 -34.5t-82.5 -12.5z" />
    <glyph glyph-name="uni021A" unicode="&#x21a;" horiz-adv-x="561" 
d="M217 -234l43 62q-20 5 -32 22t-12 38q0 25 18 44.5t47 19.5t47 -19.5t18 -46.5q0 -24 -13 -45l-71 -106zM224 0v608h-200v108h513v-108h-200v-608h-113z" />
    <glyph glyph-name="uni021B" unicode="&#x21b;" horiz-adv-x="378" 
d="M169 -234l43 62q-20 5 -32 22t-12 38q0 25 18 44.5t47 19.5t47 -19.5t18 -46.5q0 -24 -13 -45l-71 -106zM110 392h-86v98h86v150h111v-150h121v-98h-121v-218q0 -18 4 -33t12 -25q17 -19 43 -19q16 0 25 2.5t19 7.5l34 -98q-21 -8 -44 -12.5t-52 -4.5q-35 0 -62 11
t-47 30q-43 43 -43 117v242z" />
    <glyph glyph-name="uni0237" unicode="&#x237;" horiz-adv-x="239" 
d="M21 -226q-20 0 -36.5 3.5t-31.5 8.5l29 97q14 -7 30 -7q29 0 40.5 17.5t11.5 49.5v547h111v-548q0 -45 -11.5 -77t-32.5 -52t-49 -29.5t-61 -9.5z" />
    <glyph glyph-name="circumflex" unicode="&#x2c6;" horiz-adv-x="428" 
d="M57 595l108 121h98l108 -121v-7h-107l-45 59h-10l-45 -59h-107v7z" />
    <glyph glyph-name="caron" unicode="&#x2c7;" horiz-adv-x="428" 
d="M57 716h107l45 -59h10l45 59h107v-7l-108 -121h-98l-108 121v7z" />
    <glyph glyph-name="breve" unicode="&#x2d8;" horiz-adv-x="408" 
d="M205 583q-26 0 -50 10t-42.5 27t-29.5 41t-11 52h83q0 -20 13 -35.5t37 -15.5q23 0 36 15.5t13 35.5h82q0 -28 -11 -52t-29 -41t-41.5 -27t-49.5 -10z" />
    <glyph glyph-name="dotaccent" unicode="&#x2d9;" horiz-adv-x="251" 
d="M125 589q-26 0 -46 19.5t-20 46.5q0 29 20 47.5t46 18.5q29 0 48 -18.5t19 -47.5q0 -27 -19 -46.5t-48 -19.5z" />
    <glyph glyph-name="ring" unicode="&#x2da;" horiz-adv-x="404" 
d="M202 566q-22 0 -41.5 8.5t-33.5 23t-22.5 33.5t-8.5 41q0 45 30.5 75.5t75.5 30.5q22 0 41 -8.5t33.5 -22.5t23 -33.5t8.5 -41.5t-8.5 -41t-23 -33.5t-33.5 -23t-41 -8.5zM202 632q16 0 27.5 12t11.5 28t-11.5 27.5t-27.5 11.5t-27.5 -11.5t-11.5 -27.5t11.5 -28
t27.5 -12z" />
    <glyph glyph-name="tilde" unicode="&#x2dc;" horiz-adv-x="409" 
d="M264 591q-19 0 -37 7t-33.5 15t-27.5 15t-20 7q-27 0 -30 -32h-84q0 32 10 55t26.5 38t37 22t40.5 7q19 0 36.5 -7t33 -15t28.5 -15q12 -7 20 -7q28 0 29 32h84q0 -32 -10 -55t-26 -38t-36.5 -22t-40.5 -7z" />
    <glyph glyph-name="uni0374" unicode="&#x374;" horiz-adv-x="296" 
d="M119 716h137l-123 -215h-93z" />
    <glyph glyph-name="uni0375" unicode="&#x375;" horiz-adv-x="296" 
d="M176 -93h-136l122 215h94z" />
    <glyph glyph-name="uni037E" unicode="&#x37e;" horiz-adv-x="252" 
d="M126 345q-32 0 -54.5 22.5t-22.5 54.5t22.5 54.5t54.5 22.5t54.5 -22.5t22.5 -54.5t-22.5 -54.5t-54.5 -22.5zM44 -74l57 88q-20 6 -36 24t-16 46q0 32 22.5 55t54.5 23t55 -23t23 -55q0 -20 -8 -36t-20 -34l-81 -121z" />
    <glyph glyph-name="tonos" unicode="&#x384;" horiz-adv-x="421" 
d="M175 716h126l-79 -132h-93z" />
    <glyph glyph-name="dieresistonos" unicode="&#x385;" horiz-adv-x="432" 
d="M91 600q-23 0 -41 18t-18 41q0 25 18 42t41 17q25 0 42 -17t17 -42q0 -23 -17 -41t-42 -18zM181 732h70v-144h-70v144zM341 600q-23 0 -41 18t-18 41q0 25 18 42t41 17q25 0 42 -17t17 -42q0 -23 -17 -41t-42 -18z" />
    <glyph glyph-name="Alphatonos" unicode="&#x386;" horiz-adv-x="692" 
d="M281 716h130l269 -716h-125l-65 184h-288l-65 -184h-125zM452 287l-75 211l-28 84h-6l-28 -84l-75 -211h212zM45 588l47 132h126l-80 -132h-93z" />
    <glyph glyph-name="anoteleia" unicode="&#x387;" horiz-adv-x="195" 
d="M97 247q-32 0 -54.5 22.5t-22.5 54.5t22.5 54.5t54.5 22.5t55 -22.5t23 -54.5t-23 -54.5t-55 -22.5z" />
    <glyph glyph-name="Epsilontonos" unicode="&#x388;" horiz-adv-x="620" 
d="M-79 588l47 132h126l-80 -132h-93zM245 608v-197h291v-106h-291v-197h323v-108h-436v716h436v-108h-323z" />
    <glyph glyph-name="Etatonos" unicode="&#x389;" horiz-adv-x="760" 
d="M132 716h113v-297h331v297h113v-716h-113v313h-331v-313h-113v716zM-79 588l47 132h126l-80 -132h-93z" />
    <glyph glyph-name="Iotatonos" unicode="&#x38a;" horiz-adv-x="317" 
d="M132 716h113v-716h-113v716zM-79 588l47 132h126l-80 -132h-93z" />
    <glyph glyph-name="Omicrontonos" unicode="&#x38c;" horiz-adv-x="786" 
d="M-79 588l47 132h126l-80 -132h-93zM379 -16q-80 0 -147.5 29t-117.5 79.5t-78 119t-28 146.5t28 146t78 119t117.5 80t147.5 29q79 0 147 -29t118 -80t78 -119t28 -146t-28 -146.5t-78 -119t-118 -79.5t-147 -29zM379 92q53 0 100 19t81.5 54t54.5 84t20 109t-20 109
t-54.5 84t-81.5 54t-100 19t-100 -19t-81.5 -54t-54.5 -84t-20 -109t20 -109t54.5 -84t81.5 -54t100 -19z" />
    <glyph glyph-name="Upsilontonos" unicode="&#x38e;" horiz-adv-x="717" 
d="M349 333l-241 383h135l160 -264h6l155 264h135l-237 -383v-333h-113v333zM-79 588l47 132h126l-80 -132h-93z" />
    <glyph glyph-name="Omegatonos" unicode="&#x38f;" horiz-adv-x="767" 
d="M423 0v146q39 10 73.5 31.5t59.5 52t39.5 70t14.5 86.5q0 51 -19 95t-51.5 75.5t-76.5 49.5t-93 18q-50 0 -93.5 -18t-76 -49.5t-51.5 -75.5t-19 -95q0 -47 14.5 -86.5t39.5 -70t59.5 -52t73.5 -31.5v-146h-288v103h145v6q-35 19 -64 47t-50 63.5t-33 78t-12 92.5
q0 69 27 131.5t74 109t112 74t142 27.5q76 0 141.5 -27.5t112.5 -74t74 -109t27 -131.5q0 -50 -12 -92.5t-33 -78t-50.5 -63.5t-63.5 -47v-6h145v-103h-288zM-79 588l47 132h126l-80 -132h-93z" />
    <glyph glyph-name="iotadieresistonos" unicode="&#x390;" horiz-adv-x="239" 
d="M-4 600q-23 0 -41 18t-18 41q0 25 18 42t41 17q25 0 42 -17t17 -42q0 -23 -17 -41t-42 -18zM86 732h70v-144h-70v144zM246 600q-23 0 -41 18t-18 41q0 25 18 42t41 17q25 0 42 -17t17 -42q0 -23 -17 -41t-42 -18zM64 0v490h111v-490h-111z" />
    <glyph glyph-name="Alpha" unicode="&#x391;" horiz-adv-x="692" 
d="M281 716h130l269 -716h-125l-65 184h-288l-65 -184h-125zM452 287l-75 211l-28 84h-6l-28 -84l-75 -211h212z" />
    <glyph glyph-name="Beta" unicode="&#x392;" horiz-adv-x="611" 
d="M72 716h270q43 0 81.5 -14.5t68 -40t46.5 -60.5t17 -76q0 -55 -27.5 -93.5t-69.5 -57.5v-6q54 -19 87.5 -62t33.5 -104q0 -46 -18 -83t-49 -63.5t-71.5 -41t-86.5 -14.5h-282v716zM338 417q25 0 45 8.5t33.5 22t20.5 31t7 35.5t-7 35.5t-20 31t-32 22t-43 8.5h-157v-194
h153zM354 105q27 0 48 9t35 24t21.5 34t7.5 39t-7.5 38.5t-22.5 33t-36.5 23.5t-49.5 9h-165v-210h169z" />
    <glyph glyph-name="Gamma" unicode="&#x393;" horiz-adv-x="516" 
d="M72 716h420v-108h-307v-608h-113v716z" />
    <glyph glyph-name="uni0394" unicode="&#x394;" horiz-adv-x="684" 
d="M277 716h130l265 -716h-660zM174 106h336l-165 470h-6z" />
    <glyph glyph-name="Epsilon" unicode="&#x395;" horiz-adv-x="560" 
d="M185 608v-197h291v-106h-291v-197h323v-108h-436v716h436v-108h-323z" />
    <glyph glyph-name="Zeta" unicode="&#x396;" horiz-adv-x="580" 
d="M32 116l372 492h-356v108h488v-116l-370 -492h374v-108h-508v116z" />
    <glyph glyph-name="Eta" unicode="&#x397;" horiz-adv-x="701" 
d="M72 716h113v-297h331v297h113v-716h-113v313h-331v-313h-113v716z" />
    <glyph glyph-name="Theta" unicode="&#x398;" horiz-adv-x="830" 
d="M255 307v103h315v-103h-315zM408 -16q-80 0 -147.5 29t-117.5 79.5t-78 119t-28 146.5t28 146t78 119t117.5 80t147.5 29q79 0 147 -29t118 -80t78 -119t28 -146t-28 -146.5t-78 -119t-118 -79.5t-147 -29zM408 92q53 0 100 19t81.5 54t54.5 84t20 109t-20 109t-54.5 84
t-81.5 54t-100 19t-100 -19t-81.5 -54t-54.5 -84t-20 -109t20 -109t54.5 -84t81.5 -54t100 -19z" />
    <glyph glyph-name="Iota" unicode="&#x399;" horiz-adv-x="257" 
d="M72 716h113v-716h-113v716z" />
    <glyph glyph-name="Kappa" unicode="&#x39a;" horiz-adv-x="633" 
d="M616 710l-298 -357l315 -347v-6h-150l-292 327h-6v-327h-113v716h113v-346h6l282 346h143v-6z" />
    <glyph glyph-name="Lambda" unicode="&#x39b;" horiz-adv-x="676" 
d="M273 716h130l261 -716h-126l-172 503l-25 79h-6l-25 -79l-172 -503h-126z" />
    <glyph glyph-name="Mu" unicode="&#x39c;" horiz-adv-x="843" 
d="M72 716h113l234 -407h6l234 407h112v-716h-112v389l6 120h-6l-204 -357h-67l-203 357h-6l6 -120v-389h-113v716z" />
    <glyph glyph-name="Nu" unicode="&#x39d;" horiz-adv-x="709" 
d="M72 716h135l318 -519h6l-6 138v381h112v-716h-118l-334 545h-6l6 -138v-407h-113v716z" />
    <glyph glyph-name="Xi" unicode="&#x39e;" horiz-adv-x="517" 
d="M28 108h461v-108h-461v108zM60 412h397v-108h-397v108zM28 716h461v-108h-461v108z" />
    <glyph glyph-name="Omicron" unicode="&#x39f;" horiz-adv-x="816" 
d="M408 -16q-80 0 -147.5 29t-117.5 79.5t-78 119t-28 146.5t28 146t78 119t117.5 80t147.5 29q79 0 147 -29t118 -80t78 -119t28 -146t-28 -146.5t-78 -119t-118 -79.5t-147 -29zM408 92q53 0 100 19t81.5 54t54.5 84t20 109t-20 109t-54.5 84t-81.5 54t-100 19t-100 -19
t-81.5 -54t-54.5 -84t-20 -109t20 -109t54.5 -84t81.5 -54t100 -19z" />
    <glyph glyph-name="Pi" unicode="&#x3a0;" horiz-adv-x="678" 
d="M72 716h534v-716h-113v608h-308v-608h-113v716z" />
    <glyph glyph-name="Rho" unicode="&#x3a1;" horiz-adv-x="578" 
d="M72 0v716h248q48 0 90.5 -16t74.5 -45t50.5 -69.5t18.5 -89.5q0 -48 -18.5 -88.5t-50.5 -69.5t-74.5 -45t-90.5 -16h-135v-277h-113zM323 385q28 0 50 9.5t37 25.5t23 36t8 40q0 21 -8 41t-23 35.5t-37 25.5t-50 10h-138v-223h138z" />
    <glyph glyph-name="Sigma" unicode="&#x3a3;" horiz-adv-x="514" 
d="M171 610l206 -244l-206 -260h315v-106h-446v114l202 252l-202 236v114h446v-106h-315z" />
    <glyph glyph-name="Tau" unicode="&#x3a4;" horiz-adv-x="561" 
d="M224 0v608h-200v108h513v-108h-200v-608h-113z" />
    <glyph glyph-name="Upsilon" unicode="&#x3a5;" horiz-adv-x="615" 
d="M253 333l-241 383h135l160 -264h6l155 264h135l-237 -383v-333h-113v333z" />
    <glyph glyph-name="Phi" unicode="&#x3a6;" horiz-adv-x="799" 
d="M343 -16v75q-70 7 -126.5 33t-96.5 65.5t-61.5 90.5t-21.5 110q0 58 21.5 109.5t61.5 91t96.5 65t126.5 33.5v75h113v-75q70 -8 126.5 -33.5t96.5 -65t61.5 -91t21.5 -109.5q0 -59 -21.5 -110t-61.5 -90.5t-96.5 -65.5t-126.5 -33v-75h-113zM152 358q0 -78 50 -129.5
t141 -64.5v388q-91 -13 -141 -64.5t-50 -129.5zM647 358q0 78 -50 129.5t-141 64.5v-388q91 13 141 64.5t50 129.5z" />
    <glyph glyph-name="Chi" unicode="&#x3a7;" horiz-adv-x="660" 
d="M253 372l-221 344h139l156 -254h6l156 254h139l-221 -344l237 -372h-138l-173 275h-6l-173 -275h-138z" />
    <glyph glyph-name="Psi" unicode="&#x3a8;" horiz-adv-x="753" 
d="M433 0h-113v156q-53 0 -101 20.5t-84 58t-57.5 91.5t-21.5 122v268h113v-274q0 -38 9.5 -70.5t28.5 -56.5t47 -37.5t66 -13.5v452h113v-452q37 0 65.5 13.5t47.5 37.5t28.5 56.5t9.5 70.5v274h113v-268q0 -68 -21.5 -122t-57.5 -91.5t-84 -58t-101 -20.5v-156z" />
    <glyph glyph-name="uni03A9" unicode="&#x3a9;" horiz-adv-x="796" 
d="M451 0v146q39 10 73.5 31.5t59.5 52t39.5 70t14.5 86.5q0 51 -19 95t-51.5 75.5t-76.5 49.5t-93 18q-50 0 -93.5 -18t-76 -49.5t-51.5 -75.5t-19 -95q0 -47 14.5 -86.5t39.5 -70t59.5 -52t73.5 -31.5v-146h-288v103h145v6q-35 19 -64 47t-50 63.5t-33 78t-12 92.5
q0 69 27 131.5t74 109t112 74t142 27.5q76 0 141.5 -27.5t112.5 -74t74 -109t27 -131.5q0 -50 -12 -92.5t-33 -78t-50.5 -63.5t-63.5 -47v-6h145v-103h-288z" />
    <glyph glyph-name="Iotadieresis" unicode="&#x3aa;" horiz-adv-x="257" 
d="M211 796q-23 0 -41 18t-18 42q0 26 18 43t41 17q26 0 43 -17t17 -43q0 -24 -17 -42t-43 -18zM46 796q-24 0 -42 18t-18 42q0 26 18 43t42 17q26 0 43 -17t17 -43q0 -24 -17 -42t-43 -18zM72 716h113v-716h-113v716z" />
    <glyph glyph-name="Upsilondieresis" unicode="&#x3ab;" horiz-adv-x="615" 
d="M253 333l-241 383h135l160 -264h6l155 264h135l-237 -383v-333h-113v333zM400 779q-26 0 -45.5 19t-19.5 45q0 28 19.5 46t45.5 18q27 0 45.5 -18t18.5 -46q0 -26 -18.5 -45t-45.5 -19zM220 779q-26 0 -45 19t-19 45q0 28 19 46t45 18q28 0 46.5 -18t18.5 -46
q0 -26 -18.5 -45t-46.5 -19z" />
    <glyph glyph-name="alphatonos" unicode="&#x3ac;" horiz-adv-x="584" 
d="M229 588l47 132h126l-80 -132h-93zM262 -16q-47 0 -89.5 19.5t-74.5 54.5t-51 82.5t-19 104.5t19 104.5t51 82.5t74.5 54.5t89.5 19.5q57 0 98 -23.5t61 -55.5h6v63h105v-490h-105v63h-6q-20 -32 -61 -55.5t-98 -23.5zM283 87q28 0 54.5 11t46 31t31.5 49.5t12 66.5
t-12 66.5t-31.5 49.5t-46 31t-54.5 11q-29 0 -55 -11t-45.5 -31.5t-31.5 -49.5t-12 -66t12 -66t31.5 -49.5t45.5 -31.5t55 -11z" />
    <glyph glyph-name="epsilontonos" unicode="&#x3ad;" horiz-adv-x="509" 
d="M247 506q57 0 102 -19t86 -60l-69 -67q-29 29 -56 40.5t-63 11.5q-39 0 -63 -18t-24 -42q0 -27 20.5 -44t51.5 -17h81v-85h-83q-42 0 -62.5 -18.5t-20.5 -43.5q0 -28 27 -45t75 -17q39 0 69.5 15t61.5 46l71 -71q-38 -42 -90 -65t-112 -23q-97 0 -155 40.5t-58 112.5
q0 38 23.5 67.5t59.5 46.5v6q-29 13 -46.5 37.5t-17.5 66.5q0 31 15.5 58t42 46t61 30t73.5 11zM204 588l47 132h126l-80 -132h-93z" />
    <glyph glyph-name="etatonos" unicode="&#x3ae;" 
d="M240 588l47 132h126l-80 -132h-93zM161 424h6q22 35 62.5 58.5t91.5 23.5q46 0 80.5 -15.5t58 -43t35 -66t11.5 -84.5v-513h-111v498q0 64 -29.5 92.5t-77.5 28.5q-29 0 -51 -12t-38 -32.5t-24 -47t-8 -55.5v-256h-111v490h105v-66z" />
    <glyph glyph-name="iotatonos" unicode="&#x3af;" horiz-adv-x="239" 
d="M70 588l47 132h126l-80 -132h-93zM64 0v490h111v-490h-111z" />
    <glyph glyph-name="upsilondieresistonos" unicode="&#x3b0;" horiz-adv-x="553" 
d="M135 600q-23 0 -41 18t-18 41q0 25 18 42t41 17q25 0 42 -17t17 -42q0 -23 -17 -41t-42 -18zM225 732h70v-144h-70v144zM385 600q-23 0 -41 18t-18 41q0 25 18 42t41 17q25 0 42 -17t17 -42q0 -23 -17 -41t-42 -18zM276 -16q-47 0 -88 17t-71 47t-47.5 71.5t-17.5 91.5
v279h111v-255q0 -37 9.5 -64.5t25.5 -46t38 -28t46 -9.5q25 0 49 10t42.5 29.5t29.5 47.5t11 65q0 60 -21.5 121.5t-60.5 129.5h122q30 -56 50.5 -120t20.5 -133q0 -66 -21 -114t-56 -78.5t-79.5 -45.5t-92.5 -15z" />
    <glyph glyph-name="alpha" unicode="&#x3b1;" horiz-adv-x="584" 
d="M262 -16q-47 0 -89.5 19.5t-74.5 54.5t-51 82.5t-19 104.5t19 104.5t51 82.5t74.5 54.5t89.5 19.5q57 0 98 -23.5t61 -55.5h6v63h105v-490h-105v63h-6q-20 -32 -61 -55.5t-98 -23.5zM283 87q28 0 54.5 11t46 31t31.5 49.5t12 66.5t-12 66.5t-31.5 49.5t-46 31t-54.5 11
q-29 0 -55 -11t-45.5 -31.5t-31.5 -49.5t-12 -66t12 -66t31.5 -49.5t45.5 -31.5t55 -11z" />
    <glyph glyph-name="beta" unicode="&#x3b2;" horiz-adv-x="574" 
d="M425 384q50 -21 83.5 -65t33.5 -113q0 -49 -17.5 -90t-48 -70t-71 -45.5t-86.5 -16.5q-44 0 -77 16.5t-57 46.5h-6l6 -72v-191h-113v727q0 48 15 88.5t43.5 70t69.5 46t94 16.5q46 0 85.5 -14.5t68.5 -40t45 -61t16 -77.5q0 -58 -25 -93.5t-59 -55.5v-6zM305 87
q25 0 48 9.5t39.5 26.5t26.5 39.5t10 48.5q0 25 -10.5 47t-28.5 38t-42 25.5t-50 9.5h-36v102h26q52 0 81 27.5t29 72.5q0 43 -30.5 68.5t-73.5 25.5q-53 0 -81 -32.5t-28 -82.5v-296q0 -59 30 -94t90 -35z" />
    <glyph glyph-name="gamma" unicode="&#x3b3;" horiz-adv-x="554" 
d="M220 -216v222l-216 484h125l146 -351h4l148 351h123l-219 -484v-222h-111z" />
    <glyph glyph-name="delta" unicode="&#x3b4;" horiz-adv-x="568" 
d="M284 -16q-56 0 -103 19.5t-81 54.5t-53 83t-19 104q0 51 16 94t43.5 76t65 54t80.5 28l-163 133v86h413v-98h-250l210 -167q48 -38 72.5 -91t24.5 -115q0 -56 -19 -104t-53 -83t-81 -54.5t-103 -19.5zM284 87q28 0 54 11t46.5 31t32.5 49.5t12 66.5t-12 66.5t-32.5 49.5
t-46.5 31t-54 11t-54 -11t-46.5 -31t-32.5 -49.5t-12 -66.5t12 -66.5t32.5 -49.5t46.5 -31t54 -11z" />
    <glyph glyph-name="epsilon" unicode="&#x3b5;" horiz-adv-x="491" 
d="M247 506q57 0 102 -19t86 -60l-69 -67q-29 29 -56 40.5t-63 11.5q-39 0 -63 -18t-24 -42q0 -27 20.5 -44t51.5 -17h81v-85h-83q-42 0 -62.5 -18.5t-20.5 -43.5q0 -28 27 -45t75 -17q39 0 69.5 15t61.5 46l71 -71q-38 -42 -90 -65t-112 -23q-97 0 -155 40.5t-58 112.5
q0 38 23.5 67.5t59.5 46.5v6q-29 13 -46.5 37.5t-17.5 66.5q0 31 15.5 58t42 46t61 30t73.5 11z" />
    <glyph glyph-name="zeta" unicode="&#x3b6;" horiz-adv-x="484" 
d="M311 -74q22 0 32.5 11t10.5 26q0 16 -10.5 26.5t-32.5 10.5h-122q-82 0 -123.5 40.5t-41.5 101.5q0 37 17.5 68.5t49.5 55.5q16 11 46 32l60 42q35 25 75 52h-233v98h393v-94q-72 -51 -129 -92q-24 -18 -48 -35t-43 -31t-32 -23t-15 -11q-14 -10 -22 -21.5t-8 -29.5
q0 -25 18.5 -40t48.5 -15h110q68 0 108 -35t40 -95q0 -33 -11.5 -58t-31.5 -42.5t-47 -26.5t-59 -9v94z" />
    <glyph glyph-name="eta" unicode="&#x3b7;" 
d="M161 424h6q22 35 62.5 58.5t91.5 23.5q46 0 80.5 -15.5t58 -43t35 -66t11.5 -84.5v-513h-111v498q0 64 -29.5 92.5t-77.5 28.5q-29 0 -51 -12t-38 -32.5t-24 -47t-8 -55.5v-256h-111v490h105v-66z" />
    <glyph glyph-name="theta" unicode="&#x3b8;" horiz-adv-x="667" 
d="M325 -16q-64 0 -116 27.5t-88.5 76t-56.5 114t-20 140.5t20 140.5t56.5 114t88.5 76t116 27.5t116 -27.5t89 -76t56.5 -114t19.5 -140.5t-19.5 -140.5t-56.5 -114t-89 -76t-116 -27.5zM325 89q37 0 66.5 17t51 47t34 71.5t15.5 89.5h-334q3 -48 15.5 -89.5t34 -71.5
t51 -47t66.5 -17zM325 595q-33 0 -60.5 -14t-48.5 -39t-35 -60t-20 -76h328q-6 41 -20 76t-35 60t-48.5 39t-60.5 14z" />
    <glyph glyph-name="iota" unicode="&#x3b9;" horiz-adv-x="239" 
d="M64 0v490h111v-490h-111z" />
    <glyph glyph-name="kappa" unicode="&#x3ba;" horiz-adv-x="495" 
d="M173 240h-6v-240h-111v490h111v-215h6l179 215h136v-6l-196 -226l207 -252v-6h-134z" />
    <glyph glyph-name="lambda" unicode="&#x3bb;" horiz-adv-x="526" 
d="M208 462.004l-204 -461.944h124l135 324.961h5l131 -324.961h123l-307 705.914h-118z" />
    <glyph glyph-name="nu" unicode="&#x3bd;" horiz-adv-x="527" 
d="M4 490h125l132 -346h5l135 346h122l-205 -490h-111z" />
    <glyph glyph-name="xi" unicode="&#x3be;" horiz-adv-x="526" 
d="M269 732q73 0 123.5 -26.5t91.5 -73.5l-78 -75q-29 38 -60.5 55t-71.5 17q-52 0 -83 -28.5t-31 -71.5q0 -51 34.5 -78t84.5 -27h102v-98h-109q-59 0 -97 -31t-38 -80q0 -51 36 -80t105 -29h66q76 0 117 -38.5t41 -98.5q0 -33 -11.5 -58.5t-31.5 -43t-47 -26.5t-59 -9v94
q22 0 32.5 11t10.5 26q0 16 -10.5 26.5t-32.5 10.5h-84q-59 0 -104.5 15t-76.5 42.5t-47.5 66t-16.5 84.5q0 34 9.5 61t25.5 47.5t36.5 35t42.5 24.5v6q-18 10 -34 23t-28 31t-19.5 42t-7.5 56q0 42 16.5 78t45.5 63t69.5 42t88.5 15z" />
    <glyph glyph-name="omicron" unicode="&#x3bf;" horiz-adv-x="568" 
d="M284 506q56 0 103 -19.5t81 -54.5t53 -83t19 -104t-19 -104t-53 -83t-81 -54.5t-103 -19.5t-103 19.5t-81 54.5t-53 83t-19 104t19 104t53 83t81 54.5t103 19.5zM284 87q28 0 54 11t46.5 31t32.5 49.5t12 66.5t-12 66.5t-32.5 49.5t-46.5 31t-54 11t-54 -11t-46.5 -31
t-32.5 -49.5t-12 -66.5t12 -66.5t32.5 -49.5t46.5 -31t54 -11z" />
    <glyph glyph-name="pi" unicode="&#x3c0;" horiz-adv-x="716" 
d="M692 9q-17 -8 -38 -12.5t-47 -4.5q-74 0 -118.5 46t-44.5 126v228h-191v-392h-111v392h-118v98h652v-98h-121v-221q0 -37 16.5 -57t45.5 -20q22 0 39 10z" />
    <glyph glyph-name="rho" unicode="&#x3c1;" horiz-adv-x="588" 
d="M331 -16q-60 0 -101 23.5t-63 55.5h-6l6 -68v-211h-111v453q0 58 18.5 107.5t51.5 85.5t79 56t101 20q58 0 105 -20t80 -55.5t51 -83.5t18 -103q0 -56 -18 -104t-49.5 -82.5t-73 -54t-88.5 -19.5zM305 87q28 0 54.5 10.5t46 31t31.5 49.5t12 66t-12 67t-32 50t-46 31
t-54 11t-54 -11t-46 -31t-32 -50t-12 -67t12 -66t31.5 -49.5t45.5 -31t55 -10.5z" />
    <glyph glyph-name="uni03C2" unicode="&#x3c2;" horiz-adv-x="529" 
d="M318 -16q-71 0 -125.5 19.5t-91 54.5t-55 83t-18.5 104t19 104t53 83t81 54.5t103 19.5q43 0 78.5 -11t63 -30.5t47.5 -45t32 -53.5l-102 -43q-16 38 -46.5 59t-76.5 21q-28 0 -53.5 -11.5t-45 -32t-31 -49.5t-11.5 -65q0 -71 46 -114.5t130 -43.5h33q71 0 113 -37.5
t42 -97.5q0 -33 -11.5 -58t-31.5 -42.5t-47 -26.5t-59 -9v94q22 0 33 11t11 26q0 16 -11 26.5t-33 10.5h-36z" />
    <glyph glyph-name="sigma" unicode="&#x3c3;" horiz-adv-x="599" 
d="M277 -16q-54 0 -99.5 19.5t-79 53t-52 80t-18.5 100.5t18.5 100.5t52 80.5t79 53t99.5 19h310v-97h-57l-71 6v-6q29 -25 48.5 -65.5t19.5 -90.5q0 -54 -18.5 -100.5t-52 -80t-79.5 -53t-100 -19.5zM277 87q27 0 52 10t44 29.5t30.5 47t11.5 63.5t-11.5 63.5t-30.5 47
t-44 29.5t-52 10t-52 -10t-44 -29.5t-30.5 -47t-11.5 -63.5t11.5 -63.5t30.5 -47t44 -29.5t52 -10z" />
    <glyph glyph-name="tau" unicode="&#x3c4;" horiz-adv-x="467" 
d="M24 490h419v-103h-154v-387h-111v387h-154v103z" />
    <glyph glyph-name="upsilon" unicode="&#x3c5;" horiz-adv-x="553" 
d="M276 -16q-47 0 -88 17t-71 47t-47.5 71.5t-17.5 91.5v279h111v-255q0 -37 9.5 -64.5t25.5 -46t38 -28t46 -9.5q25 0 49 10t42.5 29.5t29.5 47.5t11 65q0 60 -21.5 121.5t-60.5 129.5h122q30 -56 50.5 -120t20.5 -133q0 -66 -21 -114t-56 -78.5t-79.5 -45.5t-92.5 -15z
" />
    <glyph glyph-name="phi" unicode="&#x3c6;" horiz-adv-x="728" 
d="M306 -216v203q-57 7 -105.5 28.5t-83 56t-54 80t-19.5 100.5q0 52 16.5 92.5t42 71.5t55.5 53t57 37l49 -95q-19 -11 -38.5 -25.5t-35 -34t-25.5 -44.5t-10 -55q0 -36 12 -64t32.5 -48t48 -32.5t58.5 -17.5v262q0 34 11 62.5t30.5 49t47 31.5t59.5 11q47 0 88.5 -20
t73 -54t50 -80t18.5 -97q0 -55 -20 -101t-55 -80.5t-84.5 -56.5t-107.5 -29v-204h-111zM417 90q32 5 60.5 17.5t49.5 33.5t33.5 50.5t12.5 68.5q0 31 -8.5 57.5t-23 45.5t-33.5 29.5t-39 10.5q-23 0 -37.5 -14.5t-14.5 -37.5v-261z" />
    <glyph glyph-name="chi" unicode="&#x3c7;" horiz-adv-x="493" 
d="M180 249l-169 241h129l106 -155h3l99 155h134l-171 -241l174 -249h-132l-106 160h-3l-105 -160h-131z" />
    <glyph glyph-name="psi" unicode="&#x3c8;" horiz-adv-x="701" 
d="M304 -16q-54 0 -100 17.5t-80 50t-53 78t-19 101.5v259h111v-258q0 -39 12 -66.5t31.5 -45t45 -25.5t52.5 -8v403h111v-403q28 0 54.5 10t47 29.5t33 49t12.5 68.5q0 65 -15 122.5t-51 123.5h118q29 -55 44 -119t15 -130q0 -68 -24.5 -116.5t-62.5 -79.5t-83.5 -46
t-87.5 -15v-200h-111v200z" />
    <glyph glyph-name="omega" unicode="&#x3c9;" horiz-adv-x="787" 
d="M544 -16q-101 0 -150 94q-25 -46 -62.5 -70t-88.5 -24q-42 0 -81 15.5t-69 46.5t-47.5 78.5t-17.5 112.5q0 70 20 134.5t49 118.5h126q-38 -65 -60 -125.5t-22 -125.5q0 -69 29 -109t75 -40q40 0 68 36t28 110v134h105v-134q0 -74 28 -110t68 -36q46 0 75 40t29 109
q0 65 -21.5 125.5t-59.5 125.5h126q29 -54 48.5 -118.5t19.5 -134.5q0 -65 -17.5 -112.5t-47.5 -78.5t-69 -46.5t-81 -15.5z" />
    <glyph glyph-name="iotadieresis" unicode="&#x3ca;" horiz-adv-x="239" 
d="M44 596q-26 0 -44.5 18.5t-18.5 44.5q0 27 18.5 45t44.5 18t44.5 -18t18.5 -45q0 -26 -18.5 -44.5t-44.5 -18.5zM196 596q-26 0 -44.5 18.5t-18.5 44.5q0 27 18.5 45t44.5 18t44.5 -18t18.5 -45q0 -26 -18.5 -44.5t-44.5 -18.5zM64 0v490h111v-490h-111z" />
    <glyph glyph-name="upsilondieresis" unicode="&#x3cb;" horiz-adv-x="553" 
d="M345 595q-26 0 -45.5 19t-19.5 45q0 28 19.5 46t45.5 18q27 0 45.5 -18t18.5 -46q0 -26 -18.5 -45t-45.5 -19zM165 595q-26 0 -45 19t-19 45q0 28 19 46t45 18q28 0 46.5 -18t18.5 -46q0 -26 -18.5 -45t-46.5 -19zM276 -16q-47 0 -88 17t-71 47t-47.5 71.5t-17.5 91.5
v279h111v-255q0 -37 9.5 -64.5t25.5 -46t38 -28t46 -9.5q25 0 49 10t42.5 29.5t29.5 47.5t11 65q0 60 -21.5 121.5t-60.5 129.5h122q30 -56 50.5 -120t20.5 -133q0 -66 -21 -114t-56 -78.5t-79.5 -45.5t-92.5 -15z" />
    <glyph glyph-name="omicrontonos" unicode="&#x3cc;" horiz-adv-x="568" 
d="M234 588l47 132h126l-80 -132h-93zM284 506q56 0 103 -19.5t81 -54.5t53 -83t19 -104t-19 -104t-53 -83t-81 -54.5t-103 -19.5t-103 19.5t-81 54.5t-53 83t-19 104t19 104t53 83t81 54.5t103 19.5zM284 87q28 0 54 11t46.5 31t32.5 49.5t12 66.5t-12 66.5t-32.5 49.5
t-46.5 31t-54 11t-54 -11t-46.5 -31t-32.5 -49.5t-12 -66.5t12 -66.5t32.5 -49.5t46.5 -31t54 -11z" />
    <glyph glyph-name="upsilontonos" unicode="&#x3cd;" horiz-adv-x="553" 
d="M276 -16q-47 0 -88 17t-71 47t-47.5 71.5t-17.5 91.5v279h111v-255q0 -37 9.5 -64.5t25.5 -46t38 -28t46 -9.5q25 0 49 10t42.5 29.5t29.5 47.5t11 65q0 60 -21.5 121.5t-60.5 129.5h122q30 -56 50.5 -120t20.5 -133q0 -66 -21 -114t-56 -78.5t-79.5 -45.5t-92.5 -15z
M210 588l47 132h126l-80 -132h-93z" />
    <glyph glyph-name="omegatonos" unicode="&#x3ce;" horiz-adv-x="787" 
d="M349 588l47 132h126l-80 -132h-93zM544 -16q-101 0 -150 94q-25 -46 -62.5 -70t-88.5 -24q-42 0 -81 15.5t-69 46.5t-47.5 78.5t-17.5 112.5q0 70 20 134.5t49 118.5h126q-38 -65 -60 -125.5t-22 -125.5q0 -69 29 -109t75 -40q40 0 68 36t28 110v134h105v-134
q0 -74 28 -110t68 -36q46 0 75 40t29 109q0 65 -21.5 125.5t-59.5 125.5h126q29 -54 48.5 -118.5t19.5 -134.5q0 -65 -17.5 -112.5t-47.5 -78.5t-69 -46.5t-81 -15.5z" />
    <glyph glyph-name="uni03D1" unicode="&#x3d1;" horiz-adv-x="637" 
d="M289 -16q-54 0 -98 17.5t-74.5 48.5t-47.5 74t-17 95v271h108v-257q0 -74 36 -110.5t93 -36.5t92 36.5t35 110.5v43q-45 11 -84.5 37.5t-68.5 64t-46 84t-17 96.5q0 42 12.5 74.5t34.5 54.5t50.5 33.5t61.5 11.5q39 0 69.5 -13t52 -36t32.5 -54.5t11 -67.5v-192h89v-96
h-89v-54q0 -53 -16.5 -96t-47 -74t-74 -48t-97.5 -17zM416 568q0 29 -14.5 47.5t-41.5 18.5q-24 0 -39.5 -19t-15.5 -57q0 -29 7.5 -57t21.5 -52.5t34.5 -43.5t47.5 -29v192z" />
    <glyph glyph-name="uni03D2" unicode="&#x3d2;" horiz-adv-x="627" 
d="M544 724q23 0 44 -6.5t35 -14.5l-34 -92q-5 3 -13 5.5t-17 2.5q-18 0 -32.5 -12t-31.5 -44l-125 -248v-315h-113v315l-125 248q-16 32 -31 44t-33 12q-9 0 -17 -2.5t-13 -5.5l-34 92q14 8 35 14.5t44 6.5q19 0 37.5 -4t36 -15.5t34.5 -33t33 -55.5l86 -184h6l87 184
q16 34 33 55.5t34.5 33t35.5 15.5t38 4z" />
    <glyph glyph-name="uni03D3" unicode="&#x3d3;" horiz-adv-x="728" 
d="M645 724q23 0 44 -6.5t35 -14.5l-34 -92q-5 3 -13 5.5t-17 2.5q-18 0 -32.5 -12t-31.5 -44l-125 -248v-315h-113v315l-125 248q-16 32 -31 44t-33 12q-9 0 -17 -2.5t-13 -5.5l-34 92q14 8 35 14.5t44 6.5q19 0 37.5 -4t36 -15.5t34.5 -33t33 -55.5l86 -184h6l87 184
q16 34 33 55.5t34.5 33t35.5 15.5t38 4zM-79 588l47 132h126l-80 -132h-93z" />
    <glyph glyph-name="uni03D4" unicode="&#x3d4;" horiz-adv-x="627" 
d="M544 724q23 0 44 -6.5t35 -14.5l-34 -92q-5 3 -13 5.5t-17 2.5q-18 0 -32.5 -12t-31.5 -44l-125 -248v-315h-113v315l-125 248q-16 32 -31 44t-33 12q-9 0 -17 -2.5t-13 -5.5l-34 92q14 8 35 14.5t44 6.5q19 0 37.5 -4t36 -15.5t34.5 -33t33 -55.5l86 -184h6l87 184
q16 34 33 55.5t34.5 33t35.5 15.5t38 4zM404 779q-26 0 -45.5 19t-19.5 45q0 28 19.5 46t45.5 18q27 0 45.5 -18t18.5 -46q0 -26 -18.5 -45t-45.5 -19zM224 779q-26 0 -45 19t-19 45q0 28 19 46t45 18q28 0 46.5 -18t18.5 -46q0 -26 -18.5 -45t-46.5 -19z" />
    <glyph glyph-name="uni03D6" unicode="&#x3d6;" horiz-adv-x="901" 
d="M300 -16q-42 0 -81 15.5t-69 46.5t-47.5 78.5t-17.5 112.5q0 44 8.5 84t22.5 77h-76v92h821v-92h-76q14 -37 22.5 -77t8.5 -84q0 -65 -17.5 -112.5t-47.5 -78.5t-69 -46.5t-81 -15.5q-51 0 -88.5 24.5t-61.5 69.5q-25 -45 -62.5 -69.5t-88.5 -24.5zM398 322h105v-86
q0 -74 28 -110t68 -36q46 0 75 40t29 109q0 43 -10.5 81.5t-27.5 77.5h-429q-17 -39 -27.5 -77.5t-10.5 -81.5q0 -69 29 -109t75 -40q40 0 68 36t28 109v87z" />
    <glyph glyph-name="uni0400" unicode="&#x400;" horiz-adv-x="560" 
d="M185 608v-197h291v-106h-291v-197h323v-108h-436v716h436v-108h-323zM251 772l-81 132h126l47 -132h-92z" />
    <glyph glyph-name="uni0401" unicode="&#x401;" horiz-adv-x="560" 
d="M376 779q-26 0 -45.5 19t-19.5 45q0 28 19.5 46t45.5 18q27 0 45.5 -18t18.5 -46q0 -26 -18.5 -45t-45.5 -19zM196 779q-26 0 -45 19t-19 45q0 28 19 46t45 18q28 0 46.5 -18t18.5 -46q0 -26 -18.5 -45t-46.5 -19zM185 608v-197h291v-106h-291v-197h323v-108h-436v716
h436v-108h-323z" />
    <glyph glyph-name="uni0402" unicode="&#x402;" horiz-adv-x="770" 
d="M738 217q0 -54 -17.5 -94.5t-48 -67.5t-71 -41t-86.5 -14h-30v103h25q54 0 83.5 33t29.5 79q0 51 -36.5 84.5t-99.5 33.5q-52 0 -93.5 -21.5t-65.5 -55.5v-256h-113v608h-191v108h499v-108h-195v-169l-6 -71h6q31 30 75 50t107 20q44 0 85 -15.5t73 -44t51 -69.5t19 -92z
" />
    <glyph glyph-name="uni0403" unicode="&#x403;" horiz-adv-x="529" 
d="M72 716h433v-108h-320v-608h-113v716zM237 772l47 132h126l-80 -132h-93z" />
    <glyph glyph-name="uni0404" unicode="&#x404;" horiz-adv-x="729" 
d="M407 -16q-80 0 -147.5 28.5t-117 79t-77.5 118.5t-28 148q0 79 28 147.5t77.5 119t117 79t147.5 28.5q82 0 149 -30.5t117 -86.5l-79 -78q-35 42 -81.5 64.5t-106.5 22.5q-48 0 -90.5 -15t-76.5 -42.5t-56.5 -67.5t-30.5 -90h323v-102h-323q8 -50 30.5 -90t56.5 -68
t76.5 -42.5t90.5 -14.5q64 0 116.5 26.5t90.5 72.5l80 -78q-51 -60 -124 -94.5t-162 -34.5z" />
    <glyph glyph-name="uni0405" unicode="&#x405;" horiz-adv-x="564" 
d="M283 -16q-43 0 -83.5 12.5t-75 37.5t-60.5 62t-40 86l108 44q7 -28 20.5 -52.5t33 -42.5t44 -28.5t54.5 -10.5q25 0 48 6.5t40 19.5t27.5 32t10.5 44q0 22 -8 40t-25 33t-45 28.5t-67 27.5l-45 16q-29 10 -59.5 26.5t-55 40t-40 55.5t-15.5 75q0 40 16.5 75.5t46.5 62.5
t71.5 42.5t91.5 15.5q52 0 91.5 -14.5t66.5 -36.5t43.5 -48.5t24.5 -49.5l-102 -43q-5 15 -14.5 30.5t-24.5 27.5t-35.5 20t-47.5 8q-24 0 -45 -6.5t-36.5 -18.5t-24.5 -28t-9 -35q0 -38 31.5 -61.5t92.5 -44.5l45 -16q42 -14 77 -33t61 -45.5t40.5 -61.5t14.5 -81
q0 -56 -22.5 -95.5t-57.5 -65.5t-78 -38t-84 -12z" />
    <glyph glyph-name="uni0406" unicode="&#x406;" horiz-adv-x="257" 
d="M72 716h113v-716h-113v716z" />
    <glyph glyph-name="uni0407" unicode="&#x407;" horiz-adv-x="257" 
d="M211 792q-23 0 -41 18t-18 42q0 25 18 42t41 17q26 0 43 -17t17 -42q0 -24 -17 -42t-43 -18zM46 792q-24 0 -42 18t-18 42q0 25 18 42t42 17q26 0 43 -17t17 -42q0 -24 -17 -42t-43 -18zM72 716h113v-716h-113v716z" />
    <glyph glyph-name="uni0408" unicode="&#x408;" horiz-adv-x="540" 
d="M254 -16q-82 0 -143.5 44.5t-86.5 125.5l105 43q17 -56 49 -80.5t76 -24.5q52 0 82.5 35t30.5 93v496h113v-491q0 -59 -17.5 -104t-47.5 -75.5t-71.5 -46t-89.5 -15.5z" />
    <glyph glyph-name="uni0409" unicode="&#x409;" horiz-adv-x="1080" 
d="M57 98q38 0 62 24q20 21 27 69t7 136v389h492v-293h169q47 0 89.5 -14.5t74.5 -41.5t51 -66.5t19 -89.5t-19 -89t-51 -66t-74.5 -41.5t-89.5 -14.5h-282v608h-266v-326q0 -50 -4.5 -88.5t-12.5 -67.5t-21 -50.5t-29 -37.5q-25 -25 -59 -35.5t-77 -10.5q-8 0 -19.5 1
t-19.5 3v108q7 -3 16 -4.5t17 -1.5zM645 317v-211h174q26 0 46.5 9t35 23.5t22 33.5t7.5 39t-7.5 39t-22 34t-35 24t-46.5 9h-174z" />
    <glyph glyph-name="uni040A" unicode="&#x40a;" horiz-adv-x="1037" 
d="M72 0v716h113v-293h304v293h113v-293h169q47 0 89.5 -14.5t74.5 -41.5t51 -66.5t19 -89.5t-19 -89t-51 -66t-74.5 -41.5t-89.5 -14.5h-282v317h-304v-317h-113zM602 317v-211h174q26 0 46.5 9t35 23.5t22 33.5t7.5 39t-7.5 39t-22 34t-35 24t-46.5 9h-174z" />
    <glyph glyph-name="uni040B" unicode="&#x40b;" horiz-adv-x="764" 
d="M328 0h-113v608h-191v108h499v-108h-195v-169l-6 -71h6q29 30 72.5 50t103.5 20q42 0 80 -14t66.5 -41.5t45 -67t16.5 -90.5v-225h-111v203q0 62 -32.5 96t-95.5 34q-48 0 -84.5 -21.5t-60.5 -55.5v-256z" />
    <glyph glyph-name="uni040C" unicode="&#x40c;" horiz-adv-x="633" 
d="M616 710l-298 -357l315 -347v-6h-150l-292 327h-6v-327h-113v716h113v-346h6l282 346h143v-6zM271 772l47 132h126l-80 -132h-93z" />
    <glyph glyph-name="uni040D" unicode="&#x40d;" horiz-adv-x="701" 
d="M629 0h-112v399l6 138h-6l-321 -537h-124v716h113v-389l-6 -138h6l315 527h129v-716zM291 772l-81 132h126l47 -132h-92z" />
    <glyph glyph-name="uni040E" unicode="&#x40e;" horiz-adv-x="616" 
d="M331 114q-31 -69 -74 -99.5t-100 -30.5q-25 0 -45.5 5t-35.5 13l30 100q23 -13 48 -13q26 0 41.5 10.5t29.5 39.5l25 52l-238 525h127l166 -395h6l167 395h126zM309 767q-26 0 -50 10t-42.5 27t-29.5 41t-11 52h83q0 -20 13 -35.5t37 -15.5q23 0 36 15.5t13 35.5h82
q0 -28 -11 -52t-29 -41t-41.5 -27t-49.5 -10z" />
    <glyph glyph-name="uni040F" unicode="&#x40f;" horiz-adv-x="678" 
d="M285 -157v157h-213v716h113v-608h308v608h113v-716h-213v-157h-108z" />
    <glyph glyph-name="uni0410" unicode="&#x410;" horiz-adv-x="692" 
d="M281 716h130l269 -716h-125l-65 184h-288l-65 -184h-125zM452 287l-75 211l-28 84h-6l-28 -84l-75 -211h212z" />
    <glyph glyph-name="uni0411" unicode="&#x411;" horiz-adv-x="611" 
d="M348 424q46 0 88 -14.5t74 -41.5t50.5 -66.5t18.5 -88.5q0 -50 -18.5 -89.5t-50.5 -67t-74 -42t-88 -14.5h-276v716h434v-106h-321v-186h163zM353 106q26 0 46.5 9t35 24t22 34.5t7.5 39.5t-7 39.5t-21.5 34.5t-35 24t-47.5 9h-168v-214h168z" />
    <glyph glyph-name="uni0412" unicode="&#x412;" horiz-adv-x="611" 
d="M72 716h270q43 0 81.5 -14.5t68 -40t46.5 -60.5t17 -76q0 -55 -27.5 -93.5t-69.5 -57.5v-6q54 -19 87.5 -62t33.5 -104q0 -46 -18 -83t-49 -63.5t-71.5 -41t-86.5 -14.5h-282v716zM338 417q25 0 45 8.5t33.5 22t20.5 31t7 35.5t-7 35.5t-20 31t-32 22t-43 8.5h-157v-194
h153zM354 105q27 0 48 9t35 24t21.5 34t7.5 39t-7.5 38.5t-22.5 33t-36.5 23.5t-49.5 9h-165v-210h169z" />
    <glyph glyph-name="uni0413" unicode="&#x413;" horiz-adv-x="516" 
d="M72 716h420v-108h-307v-608h-113v716z" />
    <glyph glyph-name="uni0414" unicode="&#x414;" horiz-adv-x="787" 
d="M40 -152v260h80q21 30 36 73t24 94.5t13.5 109t4.5 114.5v217h470v-608h79v-260h-109v152h-489v-152h-109zM309 479q0 -110 -16.5 -206t-51.5 -165h314v500h-246v-129z" />
    <glyph glyph-name="uni0415" unicode="&#x415;" horiz-adv-x="560" 
d="M185 608v-197h291v-106h-291v-197h323v-108h-436v716h436v-108h-323z" />
    <glyph glyph-name="uni0416" unicode="&#x416;" horiz-adv-x="929" 
d="M521 0h-113v320h-6l-254 -320h-146v6l285 345l-271 359v6h137l249 -338h6v338h113v-338h6l249 338h137v-6l-271 -359l285 -345v-6h-146l-254 320h-6v-320z" />
    <glyph glyph-name="uni0417" unicode="&#x417;" horiz-adv-x="555" 
d="M277 -16q-37 0 -74 10.5t-70 32.5t-58.5 56.5t-38.5 82.5l104 42q14 -55 50.5 -87t86.5 -32q26 0 49.5 9t41 25t28 37.5t10.5 46.5t-11 46t-29.5 37t-44 25t-54.5 9h-60v99h53q51 0 87.5 28t36.5 79q0 45 -33 72t-81 27q-24 0 -43.5 -8t-33.5 -21t-24 -29t-15 -31
l-101 42q9 24 26.5 50.5t44.5 48.5t63.5 36.5t83.5 14.5q49 0 90.5 -15t71 -41t46 -62t16.5 -79q0 -31 -7.5 -54.5t-19.5 -42t-28 -32.5t-34 -24v-6q48 -21 80.5 -64.5t32.5 -109.5q0 -46 -18.5 -86t-50.5 -69t-76.5 -46t-96.5 -17z" />
    <glyph glyph-name="uni0418" unicode="&#x418;" horiz-adv-x="701" 
d="M629 0h-112v399l6 138h-6l-321 -537h-124v716h113v-389l-6 -138h6l315 527h129v-716z" />
    <glyph glyph-name="uni0419" unicode="&#x419;" horiz-adv-x="701" 
d="M629 0h-112v399l6 138h-6l-321 -537h-124v716h113v-389l-6 -138h6l315 527h129v-716zM348 767q-26 0 -50 10t-42.5 27t-29.5 41t-11 52h83q0 -20 13 -35.5t37 -15.5q23 0 36 15.5t13 35.5h82q0 -28 -11 -52t-29 -41t-41.5 -27t-49.5 -10z" />
    <glyph glyph-name="uni041A" unicode="&#x41a;" horiz-adv-x="633" 
d="M616 710l-298 -357l315 -347v-6h-150l-292 327h-6v-327h-113v716h113v-346h6l282 346h143v-6z" />
    <glyph glyph-name="uni041B" unicode="&#x41b;" horiz-adv-x="717" 
d="M57 98q38 0 62 24q20 21 27 69t7 136v389h492v-716h-113v608h-266v-326q0 -50 -4.5 -88.5t-12.5 -67.5t-21 -50.5t-29 -37.5q-25 -25 -59 -35.5t-77 -10.5q-8 0 -19.5 1t-19.5 3v108q7 -3 16 -4.5t17 -1.5z" />
    <glyph glyph-name="uni041C" unicode="&#x41c;" horiz-adv-x="867" 
d="M72 716h113l234 -407h6l234 407h112v-716h-112v389l6 120h-6l-204 -357h-67l-203 357h-6l6 -120v-389h-113v716z" />
    <glyph glyph-name="uni041D" unicode="&#x41d;" horiz-adv-x="701" 
d="M72 716h113v-297h331v297h113v-716h-113v313h-331v-313h-113v716z" />
    <glyph glyph-name="uni041E" unicode="&#x41e;" horiz-adv-x="823" 
d="M408 -16q-80 0 -147.5 29t-117.5 79.5t-78 119t-28 146.5t28 146t78 119t117.5 80t147.5 29q79 0 147 -29t118 -80t78 -119t28 -146t-28 -146.5t-78 -119t-118 -79.5t-147 -29zM408 92q53 0 100 19t81.5 54t54.5 84t20 109t-20 109t-54.5 84t-81.5 54t-100 19t-100 -19
t-81.5 -54t-54.5 -84t-20 -109t20 -109t54.5 -84t81.5 -54t100 -19z" />
    <glyph glyph-name="uni041F" unicode="&#x41f;" horiz-adv-x="678" 
d="M72 716h534v-716h-113v608h-308v-608h-113v716z" />
    <glyph glyph-name="uni0420" unicode="&#x420;" horiz-adv-x="578" 
d="M72 0v716h248q48 0 90.5 -16t74.5 -45t50.5 -69.5t18.5 -89.5q0 -48 -18.5 -88.5t-50.5 -69.5t-74.5 -45t-90.5 -16h-135v-277h-113zM323 385q28 0 50 9.5t37 25.5t23 36t8 40q0 21 -8 41t-23 35.5t-37 25.5t-50 10h-138v-223h138z" />
    <glyph glyph-name="uni0421" unicode="&#x421;" horiz-adv-x="732" 
d="M696 113q-51 -60 -123 -94.5t-162 -34.5q-80 0 -148 28.5t-118.5 79t-79 118.5t-28.5 148q0 79 28.5 147.5t79 119t118.5 79t148 28.5q83 0 149 -30.5t116 -86.5l-80 -78q-36 43 -80.5 65t-104.5 22q-53 0 -100.5 -18.5t-82.5 -53t-55.5 -84t-20.5 -110.5t20.5 -110.5
t55.5 -84t82.5 -53t100.5 -18.5q64 0 114 26.5t89 73.5z" />
    <glyph glyph-name="uni0422" unicode="&#x422;" horiz-adv-x="567" 
d="M224 0v608h-200v108h513v-108h-200v-608h-113z" />
    <glyph glyph-name="uni0423" unicode="&#x423;" horiz-adv-x="616" 
d="M331 114q-31 -69 -74 -99.5t-100 -30.5q-25 0 -45.5 5t-35.5 13l30 100q23 -13 48 -13q26 0 41.5 10.5t29.5 39.5l25 52l-238 525h127l166 -395h6l167 395h126z" />
    <glyph glyph-name="uni0424" unicode="&#x424;" horiz-adv-x="815" 
d="M351 -48v107q-70 7 -128 32.5t-99 64.5t-64 90.5t-23 111.5t23 111.5t64 90.5t99 64t128 33v107h113v-107q70 -8 128 -33t99 -64t64 -90.5t23 -111.5t-23 -111.5t-64 -90.5t-99 -64.5t-128 -32.5v-107h-113zM152 358q0 -79 53 -131t146 -65v392q-93 -13 -146 -65
t-53 -131zM663 358q0 79 -53 131t-146 65v-392q93 13 146 65t53 131z" />
    <glyph glyph-name="uni0425" unicode="&#x425;" horiz-adv-x="660" 
d="M253 372l-221 344h139l156 -254h6l156 254h139l-221 -344l237 -372h-138l-173 275h-6l-173 -275h-138z" />
    <glyph glyph-name="uni0426" unicode="&#x426;" horiz-adv-x="722" 
d="M571 -168v168h-499v716h113v-608h297v608h113v-608h87v-276h-111z" />
    <glyph glyph-name="uni0427" unicode="&#x427;" horiz-adv-x="598" 
d="M433 716h113v-716h-113v315q-29 -24 -68.5 -39.5t-93.5 -15.5q-48 0 -90.5 15t-73.5 43.5t-49 69.5t-18 93v235h115v-215q0 -66 37.5 -100.5t99.5 -34.5q46 0 80.5 18t60.5 49v283z" />
    <glyph glyph-name="uni0428" unicode="&#x428;" horiz-adv-x="915" 
d="M72 0v716h113v-608h216v608h113v-608h216v608h113v-716h-771z" />
    <glyph glyph-name="uni0429" unicode="&#x429;" horiz-adv-x="965" 
d="M813 -168v168h-741v716h113v-608h216v608h113v-608h216v608h113v-608h82v-276h-112z" />
    <glyph glyph-name="uni042A" unicode="&#x42a;" horiz-adv-x="760" 
d="M214 0v611h-190v105h303v-253h150q50 0 95.5 -15.5t80 -45.5t55 -73t20.5 -97q0 -55 -20.5 -98t-55 -73t-80 -45.5t-95.5 -15.5h-263zM327 358v-252h159q30 0 54 11t40 29t24.5 40.5t8.5 45.5t-8.5 45.5t-24.5 40.5t-40 29t-54 11h-159z" />
    <glyph glyph-name="uni042B" unicode="&#x42b;" horiz-adv-x="838" 
d="M72 0v716h113v-253h150q50 0 95.5 -15.5t80 -45.5t55 -73t20.5 -97q0 -55 -20.5 -98t-55 -73t-80 -45.5t-95.5 -15.5h-263zM185 358v-252h159q30 0 54 11t40 29t24.5 40.5t8.5 45.5t-8.5 45.5t-24.5 40.5t-40 29t-54 11h-159zM653 716h113v-716h-113v716z" />
    <glyph glyph-name="uni042C" unicode="&#x42c;" horiz-adv-x="618" 
d="M72 0v716h113v-253h150q50 0 95.5 -15.5t80 -45.5t55 -73t20.5 -97q0 -55 -20.5 -98t-55 -73t-80 -45.5t-95.5 -15.5h-263zM185 358v-252h159q30 0 54 11t40 29t24.5 40.5t8.5 45.5t-8.5 45.5t-24.5 40.5t-40 29t-54 11h-159z" />
    <glyph glyph-name="uni042D" unicode="&#x42d;" horiz-adv-x="729" 
d="M322 -16q-89 0 -162 34.5t-124 94.5l80 78q38 -46 90.5 -72.5t116.5 -26.5q47 0 89.5 14.5t76.5 42.5t57 68t31 90h-323v102h323q-8 50 -31 90t-57 67.5t-76.5 42.5t-89.5 15q-60 0 -106.5 -22.5t-81.5 -64.5l-79 78q50 56 117 86.5t149 30.5q80 0 147.5 -28.5t117 -79
t77.5 -119t28 -147.5q0 -80 -28 -148t-77.5 -118.5t-117 -79t-147.5 -28.5z" />
    <glyph glyph-name="uni042E" unicode="&#x42e;" horiz-adv-x="1081" 
d="M673 -16q-74 0 -138 25t-112.5 69.5t-79.5 104.5t-39 130h-119v-313h-113v716h113v-297h121q10 67 42 124t80.5 99t110.5 66t134 24q79 0 147 -29t118 -80t78 -119t28 -146t-28 -146.5t-78 -119t-118 -79.5t-147 -29zM673 92q53 0 100 19t81.5 54t54.5 84t20 109t-20 109
t-54.5 84t-81.5 54t-100 19t-100 -19t-81.5 -54t-54.5 -84t-20 -109t20 -109t54.5 -84t81.5 -54t100 -19z" />
    <glyph glyph-name="uni042F" unicode="&#x42f;" horiz-adv-x="622" 
d="M550.009 716h-252.969q-48.9941 0 -91.4893 -16t-73.4912 -45.5t-48.4941 -69.5q-17.4971 -40 -17.4971 -88q0 -37 12.498 -70t34.4961 -59.5q21.9971 -26.5 51.4932 -45.5q29.4971 -19 63.4922 -28l1 -5l-195.976 -283v-6h131.983l188.978 279h82.9893v-279h112.986v716
zM300.039 385q-24.9971 0 -46.4941 8.5t-37.4951 23.5t-25.4971 35.5t-9.49902 45.5q0 20 7.49902 40t21.9971 36q14.499 16 35.9961 26t49.4941 10h140.982v-225h-136.983z" />
    <glyph glyph-name="uni0430" unicode="&#x430;" horiz-adv-x="525" 
d="M366 60h-6q-22 -29 -57 -52.5t-89 -23.5q-39 0 -73 12.5t-59 35t-39.5 53t-14.5 67.5q0 39 15.5 70t43 52t65.5 32.5t82 11.5q49 0 82 -9.5t50 -17.5v19q0 22 -9.5 41t-26 32.5t-37.5 21t-44 7.5q-37 0 -66.5 -14.5t-52.5 -46.5l-88 58q35 48 87 72.5t118 24.5
q109 0 168.5 -54t59.5 -154v-298h-109v60zM366 204q-22 13 -49 21t-62 8q-52 0 -83 -24t-31 -58q0 -18 8 -31.5t20.5 -23.5t29 -15t33.5 -5q27 0 51.5 10.5t42.5 28t29 40.5t11 49z" />
    <glyph glyph-name="uni0431" unicode="&#x431;" horiz-adv-x="597" 
d="M357 606q-52 0 -80 -13t-47 -30q-24 -20 -40.5 -54.5t-21.5 -79.5h6q25 32 66 54.5t97 22.5q47 0 89 -20t74 -55.5t50.5 -83t18.5 -102.5q0 -58 -19 -106t-53 -82.5t-80.5 -53.5t-101.5 -19q-54 0 -101 19t-82 58t-55.5 99.5t-20.5 143.5q0 70 7.5 122.5t21 91.5t32 66
t40.5 47q36 33 83.5 51.5t107.5 18.5q28 0 45.5 2t27.5 6t15 10t8 14h102q-6 -38 -20.5 -62.5t-37.5 -38.5t-56 -20t-75 -6zM315 403q-28 0 -54 -11t-46 -31t-32 -49.5t-12 -66.5q0 -35 12 -64t32 -50t46 -32.5t54 -11.5t54 11t45.5 31.5t31.5 49.5t12 66t-12 66t-31.5 49.5
t-45.5 31.5t-54 11z" />
    <glyph glyph-name="uni0432" unicode="&#x432;" horiz-adv-x="503" 
d="M56 0v490h253q30 0 57.5 -10.5t48.5 -28.5t33.5 -43t12.5 -54q0 -38 -17.5 -62t-45.5 -38v-6q35 -15 58 -42t23 -66q0 -32 -13.5 -58t-35.5 -44t-50 -28t-57 -10h-267zM164 209v-116h146q26 0 44 16.5t18 41.5t-18 41.5t-44 16.5h-146zM164 399v-107h131q22 0 39.5 15
t17.5 38q0 24 -17.5 39t-39.5 15h-131z" />
    <glyph glyph-name="uni0433" unicode="&#x433;" horiz-adv-x="425" 
d="M56 490h345v-98h-234v-392h-111v490z" />
    <glyph glyph-name="uni0434" unicode="&#x434;" horiz-adv-x="648" 
d="M28 -152v250h59q10 14 19 38.5t15.5 55t10 65t3.5 69.5v164h408v-392h77v-250h-103v152h-386v-152h-103zM243 317q0 -59 -11.5 -116.5t-31.5 -102.5h234v294h-191v-75z" />
    <glyph glyph-name="uni0435" unicode="&#x435;" horiz-adv-x="546" 
d="M510 117q-31 -57 -88 -95t-140 -38q-55 0 -101.5 19.5t-80.5 54.5t-53 82.5t-19 104.5q0 53 18 100.5t50.5 83t78.5 56.5t102 21q57 0 101.5 -19t75.5 -53t47.5 -82t16.5 -105v-9q-1 -5 -1 -9q-1 -4 -1 -8h-377q3 -35 17 -61t34.5 -43t45.5 -25t49 -8q48 0 79 23t51 57z
M407 306q-2 15 -9.5 33.5t-23 34t-40 26.5t-59.5 11q-48 0 -82.5 -28.5t-46.5 -76.5h261z" />
    <glyph glyph-name="uni0436" unicode="&#x436;" horiz-adv-x="741" 
d="M315 0v235h-6l-180 -235h-133v6l200 254l-190 224v6h133l170 -209h6v209h111v-209h6l170 209h133v-6l-191 -224l201 -254v-6h-133l-180 235h-6v-235h-111z" />
    <glyph glyph-name="uni0437" unicode="&#x437;" horiz-adv-x="491" 
d="M244 506q39 0 73.5 -11t61 -30t42 -46t15.5 -58q0 -42 -17.5 -66.5t-46.5 -37.5v-6q36 -17 59.5 -46.5t23.5 -67.5q0 -72 -58 -112.5t-155 -40.5q-60 0 -112 23t-90 65l71 71q31 -31 61.5 -46t69.5 -15q48 0 75 17t27 45q0 25 -20.5 43.5t-62.5 18.5h-83v85h81
q31 0 51.5 17t20.5 44q0 24 -24 42t-63 18q-36 0 -63 -11.5t-56 -40.5l-69 67q41 41 86 60t102 19z" />
    <glyph glyph-name="uni0438" unicode="&#x438;" 
d="M502 0h-111v227l6 96h-6l-224 -323h-111v490h111v-227l-6 -96h6l224 323h111v-490z" />
    <glyph glyph-name="uni0439" unicode="&#x439;" 
d="M502 0h-111v227l6 96h-6l-224 -323h-111v490h111v-227l-6 -96h6l224 323h111v-490zM286 568q-26 0 -50 10t-42.5 27t-29.5 41t-11 52h83q0 -20 13 -35.5t37 -15.5q23 0 36 15.5t13 35.5h82q0 -28 -11 -52t-29 -41t-41.5 -27t-49.5 -10z" />
    <glyph glyph-name="uni043A" unicode="&#x43a;" horiz-adv-x="495" 
d="M173 240h-6v-240h-111v490h111v-215h6l179 215h136v-6l-196 -226l207 -252v-6h-134z" />
    <glyph glyph-name="uni043B" unicode="&#x43b;" horiz-adv-x="613" 
d="M95 -8q-15 0 -28.5 1.5t-24.5 6.5v100q10 -3 17.5 -4t14.5 -1q16 0 27 7.5t17.5 26t9.5 49t3 75.5v237h426v-490h-109v388h-210v-162q0 -68 -11 -113t-30.5 -72t-45.5 -38t-56 -11z" />
    <glyph glyph-name="uni043C" unicode="&#x43c;" horiz-adv-x="672" 
d="M511 0v227l6 96h-6l-137 -259h-77l-136 259h-6l6 -96v-227h-109v490h134l147 -285h5l147 285h135v-490h-109z" />
    <glyph glyph-name="uni043D" unicode="&#x43d;" horiz-adv-x="562" 
d="M395 0v196h-228v-196h-111v490h111v-191h228v191h111v-490h-111z" />
    <glyph glyph-name="uni043E" unicode="&#x43e;" horiz-adv-x="568" 
d="M284 506q56 0 103 -19.5t81 -54.5t53 -83t19 -104t-19 -104t-53 -83t-81 -54.5t-103 -19.5t-103 19.5t-81 54.5t-53 83t-19 104t19 104t53 83t81 54.5t103 19.5zM284 87q28 0 54 11t46.5 31t32.5 49.5t12 66.5t-12 66.5t-32.5 49.5t-46.5 31t-54 11t-54 -11t-46.5 -31
t-32.5 -49.5t-12 -66.5t12 -66.5t32.5 -49.5t46.5 -31t54 -11z" />
    <glyph glyph-name="uni043F" unicode="&#x43f;" horiz-adv-x="545" 
d="M56 490h433v-490h-111v387h-211v-387h-111v490z" />
    <glyph glyph-name="uni0440" unicode="&#x440;" horiz-adv-x="584" 
d="M52 490h105v-63h6q20 32 61 55.5t98 23.5q47 0 89.5 -19.5t74.5 -54.5t51 -82.5t19 -104.5t-19 -104.5t-51 -82.5t-74.5 -54.5t-89.5 -19.5q-57 0 -98 23.5t-61 55.5h-6l6 -68v-211h-111v706zM301 87q28 0 54.5 11t46 31.5t31.5 49.5t12 66t-12 66t-31.5 49.5t-46 31.5
t-54.5 11q-29 0 -55 -11t-45.5 -31t-31.5 -49.5t-12 -66.5t12 -66.5t31.5 -49.5t45.5 -31t55 -11z" />
    <glyph glyph-name="uni0441" unicode="&#x441;" horiz-adv-x="533" 
d="M509 125q-14 -29 -34.5 -54.5t-48 -45t-63.5 -30.5t-79 -11q-56 0 -103 19.5t-81 54.5t-53 83t-19 104t19 104t53 83t81 54.5t103 19.5q43 0 78.5 -11t63 -30.5t47.5 -45t32 -53.5l-102 -43q-17 38 -47 59t-76 21q-28 0 -53.5 -11.5t-45 -32t-31 -49.5t-11.5 -65
t11.5 -65t31 -49.5t45 -32t53.5 -11.5q46 0 78.5 21.5t50.5 59.5z" />
    <glyph glyph-name="uni0442" unicode="&#x442;" horiz-adv-x="443" 
d="M24 490h419v-103h-154v-387h-111v387h-154v103z" />
    <glyph glyph-name="uni0443" unicode="&#x443;" horiz-adv-x="526" 
d="M208 28l-204 462h124l135 -325h5l131 325h123l-307 -706h-118z" />
    <glyph glyph-name="uni0444" unicode="&#x444;" horiz-adv-x="751" 
d="M320 -13q-63 6 -115 26t-89.5 53t-58 78t-20.5 101t20.5 101t58 78t89.5 53t115 26v213h111v-213q63 -6 115 -26t89.5 -53t58 -78t20.5 -101t-20.5 -101t-58 -78t-89.5 -53t-115 -26v-203h-111v203zM607 245q0 66 -46 106.5t-130 51.5v-316q84 10 130 50.5t46 107.5z
M144 245q0 -67 46 -107.5t130 -50.5v316q-84 -11 -130 -51.5t-46 -106.5z" />
    <glyph glyph-name="uni0445" unicode="&#x445;" horiz-adv-x="493" 
d="M180 249l-169 241h129l106 -155h3l99 155h134l-171 -241l174 -249h-132l-106 160h-3l-105 -160h-131z" />
    <glyph glyph-name="uni0446" unicode="&#x446;" horiz-adv-x="593" 
d="M463 -152v152h-407v490h111v-388h211v388h111v-388h76v-254h-102z" />
    <glyph glyph-name="uni0447" unicode="&#x447;" horiz-adv-x="514" 
d="M249 260q28 0 53 5.5t45 18.5v206h111v-490h-111v179q-47 -21 -118 -21q-44 0 -80 13.5t-62 38.5t-40.5 60t-14.5 78v142h113v-137q0 -45 27 -69t77 -24z" />
    <glyph glyph-name="uni0448" unicode="&#x448;" horiz-adv-x="779" 
d="M56 0v490h111v-388h157v388h111v-388h157v388h111v-490h-647z" />
    <glyph glyph-name="uni0449" unicode="&#x449;" horiz-adv-x="827" 
d="M677 -152v152h-621v490h111v-388h157v388h111v-388h157v388h111v-388h76v-254h-102z" />
    <glyph glyph-name="uni044A" unicode="&#x44a;" horiz-adv-x="593" 
d="M24 490h225v-161h141q36 0 68.5 -12t57 -33.5t39 -52t14.5 -67.5t-14.5 -67.5t-39 -52t-57 -33t-68.5 -11.5h-249v397h-117v93zM386 93q30 0 53 19.5t23 51.5t-23 51.5t-53 19.5h-137v-142h137z" />
    <glyph glyph-name="uni044B" unicode="&#x44b;" horiz-adv-x="711" 
d="M547 0v490h108v-490h-108zM56 0v490h108v-161h141q36 0 69 -12t57.5 -33.5t39 -52t14.5 -67.5t-14.5 -67.5t-39 -52t-57.5 -33t-69 -11.5h-249zM301 93q31 0 54 19.5t23 51.5t-23 51.5t-54 19.5h-137v-142h137z" />
    <glyph glyph-name="uni044C" unicode="&#x44c;" horiz-adv-x="509" 
d="M56 0v490h108v-161h141q36 0 69 -12t57.5 -33.5t39 -52t14.5 -67.5t-14.5 -67.5t-39 -52t-57.5 -33t-69 -11.5h-249zM301 93q31 0 54 19.5t23 51.5t-23 51.5t-54 19.5h-137v-142h137z" />
    <glyph glyph-name="uni044D" unicode="&#x44d;" horiz-adv-x="527" 
d="M248 -16q-44 0 -79.5 11t-63.5 30.5t-48.5 45t-32.5 54.5l93 41q18 -40 51 -63t85 -23q49 0 89 31.5t52 90.5h-208v85h208q-12 59 -52 91t-89 32q-50 0 -82 -22.5t-49 -61.5l-94 39q12 29 32 54.5t47.5 45t62.5 30.5t78 11q56 0 102 -19.5t79 -54.5t51.5 -83t18.5 -104
t-18.5 -104t-51.5 -83t-79 -54.5t-102 -19.5z" />
    <glyph glyph-name="uni044E" unicode="&#x44e;" horiz-adv-x="790" 
d="M506 506q56 0 103 -19.5t81 -54.5t53 -83t19 -104t-19 -104t-53 -83t-81 -54.5t-103 -19.5q-50 0 -92.5 15.5t-75.5 44t-54.5 67t-29.5 85.5h-79v-196h-111v490h111v-191h80q8 46 30 84t54.5 65.5t75 42.5t91.5 15zM506 87q28 0 54 11t46.5 31t32.5 49.5t12 66.5
t-12 66.5t-32.5 49.5t-46.5 31t-54 11t-54 -11t-46 -31t-32 -49.5t-12 -66.5t12 -66.5t32 -49.5t46 -31t54 -11z" />
    <glyph glyph-name="uni044F" unicode="&#x44f;" horiz-adv-x="492" 
d="M0 0v7l131 167l-2 3q-48 17 -80 55.5t-32 94.5q0 36 14.5 66t39.5 51.5t57 33.5t68 12h240v-490h-108v167h-82l-124 -167h-122zM126 327q0 -32 23.5 -50.5t53.5 -18.5h125v139h-125q-30 0 -53.5 -19t-23.5 -51z" />
    <glyph glyph-name="uni0450" unicode="&#x450;" horiz-adv-x="542" 
d="M510 117q-31 -57 -88 -95t-140 -38q-55 0 -101.5 19.5t-80.5 54.5t-53 82.5t-19 104.5q0 53 18 100.5t50.5 83t78.5 56.5t102 21q57 0 101.5 -19t75.5 -53t47.5 -82t16.5 -105v-9q-1 -5 -1 -9q-1 -4 -1 -8h-377q3 -35 17 -61t34.5 -43t45.5 -25t49 -8q48 0 79 23t51 57z
M407 306q-2 15 -9.5 33.5t-23 34t-40 26.5t-59.5 11q-48 0 -82.5 -28.5t-46.5 -76.5h261zM229 588l-81 132h126l47 -132h-92z" />
    <glyph glyph-name="uni0451" unicode="&#x451;" horiz-adv-x="542" 
d="M361 595q-26 0 -45.5 19t-19.5 45q0 28 19.5 46t45.5 18q27 0 45.5 -18t18.5 -46q0 -26 -18.5 -45t-45.5 -19zM181 595q-26 0 -45 19t-19 45q0 28 19 46t45 18q28 0 46.5 -18t18.5 -46q0 -26 -18.5 -45t-46.5 -19zM510 117q-31 -57 -88 -95t-140 -38q-55 0 -101.5 19.5
t-80.5 54.5t-53 82.5t-19 104.5q0 53 18 100.5t50.5 83t78.5 56.5t102 21q57 0 101.5 -19t75.5 -53t47.5 -82t16.5 -105v-9q-1 -5 -1 -9q-1 -4 -1 -8h-377q3 -35 17 -61t34.5 -43t45.5 -25t49 -8q48 0 79 23t51 57zM407 306q-2 15 -9.5 33.5t-23 34t-40 26.5t-59.5 11
q-48 0 -82.5 -28.5t-46.5 -76.5h261z" />
    <glyph glyph-name="uni0452" unicode="&#x452;" 
d="M167 567v-64l-6 -79h6q21 35 62 58.5t91 23.5q48 0 83 -14.5t58 -41.5t34 -64.5t11 -82.5v-361q0 -45 -11.5 -77t-32.5 -52t-49 -29.5t-61 -9.5q-20 0 -36.5 3.5t-31.5 8.5l29 97q14 -7 30 -7q28 0 40 17.5t12 49.5v345q0 61 -29.5 88t-74.5 27q-29 0 -51.5 -12.5
t-39 -33.5t-25 -48t-8.5 -56v-253h-111v567h-61v82h61v67h111v-67h140v-82h-140z" />
    <glyph glyph-name="uni0453" unicode="&#x453;" horiz-adv-x="405" 
d="M165 588l47 132h126l-80 -132h-93zM56 490h345v-98h-234v-392h-111v490z" />
    <glyph glyph-name="uni0454" unicode="&#x454;" horiz-adv-x="527" 
d="M133 202q12 -59 51.5 -90.5t89.5 -31.5q52 0 85 23t50 63l94 -41q-13 -29 -33 -54.5t-48 -45t-63.5 -30.5t-78.5 -11q-56 0 -102.5 19.5t-79.5 54.5t-51.5 83t-18.5 104t18.5 104t52 83t80 54.5t101.5 19.5q43 0 78 -11t62 -30.5t47 -45t32 -54.5l-95 -39
q-17 39 -48 61.5t-82 22.5q-25 0 -48 -8.5t-41.5 -24t-32 -38.5t-19.5 -52h208v-85h-208z" />
    <glyph glyph-name="uni0455" unicode="&#x455;" horiz-adv-x="469" 
d="M242 -16q-45 0 -81 12t-63 31.5t-45.5 44.5t-28.5 52l100 42q17 -43 49 -63.5t69 -20.5q42 0 66 17t24 38t-18 36.5t-68 27.5l-70 17q-23 5 -46.5 15.5t-43.5 27t-32.5 40t-12.5 55.5q0 36 15.5 64t42.5 47t62.5 29t75.5 10q33 0 63.5 -7t56.5 -21t46.5 -35.5t32.5 -50.5
l-98 -41q-14 32 -44 46.5t-61 14.5q-14 0 -28.5 -3.5t-26 -10t-19 -16.5t-7.5 -22q0 -20 17.5 -31.5t53.5 -20.5l75 -19q76 -19 111.5 -57.5t35.5 -90.5q0 -32 -14.5 -60t-41.5 -50t-64.5 -34.5t-82.5 -12.5z" />
    <glyph glyph-name="uni0456" unicode="&#x456;" horiz-adv-x="239" 
d="M120 577q-32 0 -53.5 22t-21.5 53t21.5 53t53.5 22q31 0 52.5 -22t21.5 -53t-21.5 -53t-52.5 -22zM64 0v490h111v-490h-111z" />
    <glyph glyph-name="uni0457" unicode="&#x457;" horiz-adv-x="239" 
d="M44 596q-26 0 -44.5 18.5t-18.5 44.5q0 27 18.5 45t44.5 18t44.5 -18t18.5 -45q0 -26 -18.5 -44.5t-44.5 -18.5zM196 596q-26 0 -44.5 18.5t-18.5 44.5q0 27 18.5 45t44.5 18t44.5 -18t18.5 -45q0 -26 -18.5 -44.5t-44.5 -18.5zM64 0v490h111v-490h-111z" />
    <glyph glyph-name="uni0458" unicode="&#x458;" horiz-adv-x="239" 
d="M-18 -117q14 -7 30 -7q29 0 40.5 17.5t11.5 49.5v547h111v-548q0 -45 -11.5 -77t-32.5 -52t-49 -29.5t-61 -9.5q-20 0 -36.5 3.5t-31.5 8.5zM120 577q-32 0 -53.5 22t-21.5 53t21.5 53t53.5 22q31 0 52.5 -22t21.5 -53t-21.5 -53t-52.5 -22z" />
    <glyph glyph-name="uni0459" unicode="&#x459;" horiz-adv-x="894" 
d="M95 -8q-15 0 -28.5 1.5t-24.5 6.5v99q10 -3 17.5 -4t14.5 -1q16 0 27 8t17.5 26.5t9.5 49t3 75.5v237h426v-171h137q36 0 68 -11.5t56 -32.5t38 -50t14 -65t-14 -65.5t-38 -50.5t-56 -32.5t-68 -11.5h-246v388h-210v-162q0 -68 -11 -113t-30.5 -72t-45.5 -38t-56 -11z
M557 226v-133h133q29 0 51 18.5t22 48.5q0 29 -22 47.5t-51 18.5h-133z" />
    <glyph glyph-name="uni045A" unicode="&#x45a;" horiz-adv-x="846" 
d="M382 0v226h-215v-226h-111v490h111v-171h215v171h111v-171h153q36 0 68 -11.5t56 -32.5t38 -50t14 -65t-14 -65.5t-38 -50.5t-56 -32.5t-68 -11.5h-264zM642 93q29 0 51 18.5t22 48.5q0 29 -22 47.5t-51 18.5h-149v-133h149z" />
    <glyph glyph-name="uni045B" unicode="&#x45b;" 
d="M56 567h-61v82h61v67h111v-67h140v-82h-140v-64l-6 -79h6q21 35 62 58.5t91 23.5q48 0 83 -14.5t58 -41.5t34 -64.5t11 -82.5v-303h-111v288q0 61 -29.5 88t-74.5 27q-29 0 -51.5 -12.5t-39 -33.5t-25 -48t-8.5 -56v-253h-111v567z" />
    <glyph glyph-name="uni045C" unicode="&#x45c;" horiz-adv-x="495" 
d="M203 588l47 132h126l-80 -132h-93zM173 240h-6v-240h-111v490h111v-215h6l179 215h136v-6l-196 -226l207 -252v-6h-134z" />
    <glyph glyph-name="uni045D" unicode="&#x45d;" 
d="M502 0h-111v227l6 96h-6l-224 -323h-111v490h111v-227l-6 -96h6l224 323h111v-490zM244 588l-81 132h126l47 -132h-92z" />
    <glyph glyph-name="uni045E" unicode="&#x45e;" horiz-adv-x="526" 
d="M208 28l-204 462h124l135 -325h5l131 325h123l-307 -706h-118zM266 583q-26 0 -50 10t-42.5 27t-29.5 41t-11 52h83q0 -20 13 -35.5t37 -15.5q23 0 36 15.5t13 35.5h82q0 -28 -11 -52t-29 -41t-41.5 -27t-49.5 -10z" />
    <glyph glyph-name="uni045F" unicode="&#x45f;" horiz-adv-x="559" 
d="M228 -152v152h-172v490h111v-387h225v387h111v-490h-172v-152h-103z" />
    <glyph glyph-name="uni0490" unicode="&#x490;" horiz-adv-x="529" 
d="M72 716h322v118h111v-226h-320v-608h-113v716z" />
    <glyph glyph-name="uni0491" unicode="&#x491;" horiz-adv-x="425" 
d="M56 490h245v103h100v-201h-234v-392h-111v490z" />
    <glyph glyph-name="uni04B0" unicode="&#x4b0;" horiz-adv-x="615" 
d="M253 269h-174v86h160l-227 361h135l160 -264h6l155 264h135l-224 -361h161v-86h-174v-269h-113v269z" />
    <glyph glyph-name="uni04B1" unicode="&#x4b1;" horiz-adv-x="519" 
d="M4 490h123l133 -357l134 357h121l-154 -376l-15 -34h112v-80h-144v-216h-111v216h-143v80h111l-15 34z" />
    <glyph glyph-name="Wgrave" unicode="&#x1e80;" horiz-adv-x="938" 
d="M16 716h119l123 -460l17 -69h6l20 69l119 364h106l119 -364l20 -68h6l15 68l117 460h119l-190 -716h-112l-123 377l-21 71h-6l-20 -71l-124 -377h-112zM422 772l-81 132h126l47 -132h-92z" />
    <glyph glyph-name="wgrave" unicode="&#x1e81;" horiz-adv-x="779" 
d="M4 490h121l95 -339h4l110 339h115l109 -339h4l94 339h119l-157 -490h-117l-111 343h-4l-108 -343h-117zM341 588l-81 132h126l47 -132h-92z" />
    <glyph glyph-name="Wacute" unicode="&#x1e82;" horiz-adv-x="938" 
d="M432 772l47 132h126l-80 -132h-93zM16 716h119l123 -460l17 -69h6l20 69l119 364h106l119 -364l20 -68h6l15 68l117 460h119l-190 -716h-112l-123 377l-21 71h-6l-20 -71l-124 -377h-112z" />
    <glyph glyph-name="wacute" unicode="&#x1e83;" horiz-adv-x="779" 
d="M348 588l47 132h126l-80 -132h-93zM4 490h121l95 -339h4l110 339h115l109 -339h4l94 339h119l-157 -490h-117l-111 343h-4l-108 -343h-117z" />
    <glyph glyph-name="Wdieresis" unicode="&#x1e84;" horiz-adv-x="938" 
d="M563 779q-26 0 -45.5 19t-19.5 45q0 28 19.5 46t45.5 18q27 0 45.5 -18t18.5 -46q0 -26 -18.5 -45t-45.5 -19zM383 779q-26 0 -45 19t-19 45q0 28 19 46t45 18q28 0 46.5 -18t18.5 -46q0 -26 -18.5 -45t-46.5 -19zM16 716h119l123 -460l17 -69h6l20 69l119 364h106
l119 -364l20 -68h6l15 68l117 460h119l-190 -716h-112l-123 377l-21 71h-6l-20 -71l-124 -377h-112z" />
    <glyph glyph-name="wdieresis" unicode="&#x1e85;" horiz-adv-x="779" 
d="M479 595q-26 0 -45.5 19t-19.5 45q0 28 19.5 46t45.5 18q27 0 45.5 -18t18.5 -46q0 -26 -18.5 -45t-45.5 -19zM299 595q-26 0 -45 19t-19 45q0 28 19 46t45 18q28 0 46.5 -18t18.5 -46q0 -26 -18.5 -45t-46.5 -19zM4 490h121l95 -339h4l110 339h115l109 -339h4l94 339
h119l-157 -490h-117l-111 343h-4l-108 -343h-117z" />
    <glyph glyph-name="Ygrave" unicode="&#x1ef2;" horiz-adv-x="615" 
d="M253 333l-241 383h135l160 -264h6l155 264h135l-237 -383v-333h-113v333zM266 772l-81 132h126l47 -132h-92z" />
    <glyph glyph-name="ygrave" unicode="&#x1ef3;" horiz-adv-x="526" 
d="M208 28l-204 462h124l135 -325h5l131 325h123l-307 -706h-118zM219 588l-81 132h126l47 -132h-92z" />
    <glyph glyph-name="endash" unicode="&#x2013;" horiz-adv-x="601" 
d="M56 358h489v-96h-489v96z" />
    <glyph glyph-name="emdash" unicode="&#x2014;" horiz-adv-x="905" 
d="M56 358h793v-96h-793v96z" />
    <glyph glyph-name="quoteleft" unicode="&#x2018;" horiz-adv-x="251" 
d="M202 699l-51 -77q20 -6 36 -24.5t16 -46.5q0 -32 -23 -54.5t-55 -22.5t-54.5 22.5t-22.5 54.5q0 20 8 36.5t20 34.5l75 110z" />
    <glyph glyph-name="quoteright" unicode="&#x2019;" horiz-adv-x="251" 
d="M49 507l51 77q-20 6 -36 24.5t-16 46.5q0 32 22.5 54.5t54.5 22.5t55 -22.5t23 -54.5q0 -20 -8 -36.5t-20 -34.5l-75 -110z" />
    <glyph glyph-name="quotesinglbase" unicode="&#x201a;" horiz-adv-x="251" 
d="M49 -77l51 77q-20 6 -36 24.5t-16 46.5q0 32 22.5 54.5t54.5 22.5t55 -22.5t23 -54.5q0 -20 -8 -36.5t-20 -34.5l-75 -110z" />
    <glyph glyph-name="quotedblleft" unicode="&#x201c;" horiz-adv-x="448" 
d="M202 699l-51 -77q20 -6 36 -24.5t16 -46.5q0 -32 -23 -54.5t-55 -22.5t-54.5 22.5t-22.5 54.5q0 20 8 36.5t20 34.5l75 110zM399 699l-51 -77q20 -6 36 -24.5t16 -46.5q0 -32 -23 -54.5t-55 -22.5t-54.5 22.5t-22.5 54.5q0 20 8 36.5t20 34.5l75 110z" />
    <glyph glyph-name="quotedblright" unicode="&#x201d;" horiz-adv-x="448" 
d="M49 507l51 77q-20 6 -36 24.5t-16 46.5q0 32 22.5 54.5t54.5 22.5t55 -22.5t23 -54.5q0 -20 -8 -36.5t-20 -34.5l-75 -110zM246 507l51 77q-20 6 -36 24.5t-16 46.5q0 32 22.5 54.5t54.5 22.5t55 -22.5t23 -54.5q0 -20 -8 -36.5t-20 -34.5l-75 -110z" />
    <glyph glyph-name="quotedblbase" unicode="&#x201e;" horiz-adv-x="443" 
d="M49 -76l51 77q-20 6 -36 24.5t-16 46.5q0 32 22.5 54.5t54.5 22.5t55 -22.5t23 -54.5q0 -20 -8 -36.5t-20 -34.5l-75 -110zM242 -76l51 77q-20 6 -36 24.5t-16 46.5q0 32 22.5 54.5t54.5 22.5t55 -22.5t23 -54.5q0 -20 -8 -36.5t-20 -34.5l-75 -110z" />
    <glyph glyph-name="bullet" unicode="&#x2022;" horiz-adv-x="411" 
d="M205 199q-26 0 -48.5 10t-39.5 27t-27 39.5t-10 48.5t10 48.5t27 39.5t39.5 27t48.5 10t49 -10t40 -27t27 -39.5t10 -48.5t-10 -48.5t-27 -39.5t-40 -27t-49 -10z" />
    <glyph glyph-name="ellipsis" unicode="&#x2026;" horiz-adv-x="728" 
d="M125 -6q-32 0 -54.5 22.5t-22.5 54.5t22.5 55t54.5 23t55 -23t23 -55t-23 -54.5t-55 -22.5zM364 -6q-32 0 -54.5 22.5t-22.5 54.5t22.5 55t54.5 23t55 -23t23 -55t-23 -54.5t-55 -22.5zM602 -6q-32 0 -54.5 22.5t-22.5 54.5t22.5 55t54.5 23t55 -23t23 -55t-23 -54.5
t-55 -22.5z" />
    <glyph glyph-name="guilsinglleft" unicode="&#x2039;" horiz-adv-x="371" 
d="M311 106l-64 -59l-207 224l207 224l64 -59l-156 -165z" />
    <glyph glyph-name="guilsinglright" unicode="&#x203a;" horiz-adv-x="371" 
d="M216 271l-156 165l64 59l207 -224l-207 -224l-64 59z" />
    <glyph glyph-name="fraction" unicode="&#x2044;" horiz-adv-x="181" 
d="M-176 33l466 695l67 -46l-465 -694z" />
    <glyph glyph-name="uni2074" unicode="&#x2074;" horiz-adv-x="353" 
d="M200 350v69h-172v56l172 241h78v-231h47v-66h-47v-69h-78zM200 485v120h-6l-86 -120h92z" />
    <glyph glyph-name="uni20A3" unicode="&#x20a3;" horiz-adv-x="560" 
d="M97 0v114h-73v76h73v494h427v-102h-320v-198h288v-100h-288v-94h131v-76h-131v-114h-107z" />
    <glyph glyph-name="uni20A4" unicode="&#x20a4;" horiz-adv-x="533" 
d="M370 514q-5 15 -13 30t-21 27t-30.5 19.5t-40.5 7.5q-25 0 -44 -8.5t-32 -22.5t-20 -32t-7 -37q0 -26 7.5 -49.5t18.5 -46.5h160v-76h-126q6 -17 10 -34.5t6 -37.5h110v-76h-120q-16 -43 -46 -71l4 -5h164q33 0 51 15t28 43l88 -38q-18 -55 -58 -88.5t-108 -33.5h-314v93
q33 14 55.5 36.5t34.5 48.5h-95v76h106q-2 20 -7.5 37.5t-13.5 34.5h-85v76h47q-11 22 -18 46t-7 52q0 40 15 76.5t43 64t67 43.5t86 16q45 0 80 -13t59.5 -34t40.5 -47t24 -51z" />
    <glyph glyph-name="uni20A9" unicode="&#x20a9;" horiz-adv-x="988" 
d="M850 326l-86 -326h-115l-95 326h-116l-99 -326h-111l-87 326h-109v76h88l-75 282h122l68 -282h118l87 282h115l84 -282h115l68 282h122l-74 -282h83v-76h-103zM308 257l21 69h-76l17 -69l14 -71h5zM719 257l16 69h-74l21 -69l17 -70h6zM461 402h71l-15 51l-16 70h-6
l-18 -70z" />
    <glyph glyph-name="uni20AB" unicode="&#x20ab;" horiz-adv-x="578" 
d="M261 -16q-46 0 -88 18.5t-74.5 51.5t-51.5 79.5t-19 103.5t19 103.5t51.5 79.5t74.5 51.5t88 18.5q57 0 94.5 -23.5t57.5 -55.5h6l-6 68v60h-140v74h140v71h111v-71h62v-74h-62v-539h-105v63h-6q-20 -32 -57.5 -55.5t-94.5 -23.5zM65 -84h459v-86h-459v86zM282 87
q28 0 53 9.5t43.5 28.5t29.5 47t11 65t-11 65t-29.5 47t-43.5 28.5t-53 9.5q-29 0 -54.5 -10t-45.5 -29t-31.5 -47t-11.5 -64t11.5 -64t31.5 -47t45.5 -29t54.5 -10z" />
    <glyph glyph-name="Euro" unicode="&#x20ac;" horiz-adv-x="641" 
d="M24 465h98q17 53 48.5 96.5t74 74t94 47.5t109.5 17q41 0 80 -10.5t74 -32.5l-52 -90q-26 14 -50.5 20t-50.5 6q-67 0 -123 -32.5t-85 -95.5h214v-86h-237q-1 -9 -1.5 -18t-0.5 -19t0.5 -19t1.5 -18h237v-86h-214q29 -63 85 -95.5t123 -32.5q35 0 64 8.5t55 23.5l49 -96
q-38 -23 -81 -33t-88 -10q-58 0 -109.5 16.5t-94 47.5t-74 74t-48.5 97h-98v86h81q-1 8 -1.5 17.5t-0.5 19.5q0 9 0.5 19t1.5 18h-81v86z" />
    <glyph glyph-name="uni20AE" unicode="&#x20ae;" horiz-adv-x="541" 
d="M217 116l-120 -75h-4v101l124 77v77l-124 -77v103l124 77v183h-193v102h493v-102h-193v-121l120 76h4v-102l-124 -77v-77l124 79v-103l-124 -79v-178h-107v116z" />
    <glyph glyph-name="uni20B1" unicode="&#x20b1;" horiz-adv-x="645" 
d="M100 0v437h-76v76h76v171h241q43 0 81 -11.5t68 -33.5t50 -54t27 -72h62v-76h-62q-7 -40 -27 -71.5t-50 -53.5t-68 -33.5t-81 -11.5h-134v-267h-107zM207 513h249q-11 29 -39.5 49t-70.5 20h-139v-69zM346 369q42 0 70.5 19.5t39.5 48.5h-249v-68h139z" />
    <glyph glyph-name="uni20B8" unicode="&#x20b8;" horiz-adv-x="541" 
d="M217 0v424h-193v94h493v-94h-193v-424h-107zM24 590v94h493v-94h-493z" />
    <glyph glyph-name="uni20B9" unicode="&#x20b9;" horiz-adv-x="569" 
d="M109 369h152q38 0 67.5 19.5t41.5 52.5h-346v77h346q-11 29 -37.5 50.5t-67.5 21.5h-241v94h521v-76h-111q17 -19 29.5 -41.5t17.5 -48.5h64v-77h-64q-7 -38 -26 -69t-46.5 -53.5t-62 -35.5t-71.5 -14h-12l-2 -5l254 -258v-6h-151l-255 264v105z" />
    <glyph glyph-name="uni20BA" unicode="&#x20ba;" horiz-adv-x="543" 
d="M24 392l122 76v216h108v-153l125 78v-104l-125 -78v-86l125 79v-104l-125 -78v-139q36 3 65.5 17t51 36t33 50t11.5 59h104q0 -55 -20.5 -102.5t-57 -83t-86 -55.5t-108.5 -20h-101v175l-122 -76v103l122 76v86l-122 -76v104z" />
    <glyph glyph-name="uni20BD" unicode="&#x20bd;" horiz-adv-x="594" 
d="M100 0v114h-76v76h76v77h-76v94h76v323h241q48 0 89.5 -14.5t72.5 -41.5t49 -65.5t18 -87.5q0 -48 -18 -86.5t-49 -65.5t-72.5 -41.5t-89.5 -14.5h-134v-77h133v-76h-133v-114h-107zM346 369q28 0 49.5 9t36.5 23.5t23 33.5t8 40t-8 40.5t-23 34t-36.5 23.5t-49.5 9h-139
v-213h139z" />
    <glyph glyph-name="uni2116" unicode="&#x2116;" horiz-adv-x="1086" 
d="M72 716h135l318 -519h6l-6 138v381h112v-716h-118l-334 545h-6l6 -138v-407h-113v716zM882 390q-36 0 -67.5 13.5t-54.5 37t-36.5 54.5t-13.5 66t13.5 66t36.5 54.5t54.5 37t67.5 13.5t67.5 -13.5t54.5 -37t36.5 -54.5t13.5 -66t-13.5 -66t-36.5 -54.5t-54.5 -37
t-67.5 -13.5zM882 467q37 0 62.5 26t25.5 68t-25.5 68t-62.5 26q-36 0 -62 -26t-26 -68t26 -68t62 -26zM742 317h280v-79h-280v79z" />
    <glyph glyph-name="minus" unicode="&#x2212;" horiz-adv-x="559" 
d="M56 223v96h447v-96h-447z" />
    <glyph glyph-name="uni2215" unicode="&#x2215;" horiz-adv-x="458" 
d="M27 0l297 716h107l-297 -716h-107z" />
    <glyph glyph-name="uniF8FF" horiz-adv-x="1000" 
d="M891 451q4 -21 5.5 -42t1.5 -44q0 -89 -28.5 -163.5t-81 -128.5t-126 -84t-163.5 -30q-86 0 -162 32.5t-132.5 89t-89 132.5t-32.5 162t32.5 162t89 132.5t132.5 89t162 32.5q85 0 154.5 -28.5t123.5 -79.5l-119 -120q-65 62 -159 62q-51 0 -96 -20t-78 -54t-52.5 -79.5
t-19.5 -96.5t19.5 -96.5t52.5 -80t78 -54.5t96 -20q46 0 84 12.5t67 34.5t47.5 52.5t25.5 66.5h-224v161h392z" />
    <glyph glyph-name="one.numerator" horiz-adv-x="257" 
d="M118 350v274l-66 -27l-28 64l118 55h55v-366h-79z" />
    <glyph glyph-name="two.denominator" horiz-adv-x="311" 
d="M27 0v62l131 131q15 16 28 32.5t13 36.5q0 17 -13 29t-33 12t-35.5 -13t-20.5 -42l-73 30q11 45 46.5 70.5t81.5 25.5q26 0 49.5 -7.5t41 -22t28 -34.5t10.5 -44q0 -18 -7 -34.5t-16.5 -30.5t-20.5 -26t-20 -21l-83 -83h149v-71h-256z" />
    <glyph glyph-name="two.numerator" horiz-adv-x="311" 
d="M27 350v62l131 131q15 16 28 32.5t13 36.5q0 17 -13 29t-33 12t-35.5 -13t-20.5 -42l-73 30q11 45 46.5 70.5t81.5 25.5q26 0 49.5 -7.5t41 -22t28 -34.5t10.5 -44q0 -18 -7 -34.5t-16.5 -30.5t-20.5 -26t-20 -21l-83 -83h149v-71h-256z" />
    <glyph glyph-name="three.numerator" horiz-adv-x="329" 
d="M162 342q-48 0 -86.5 24t-51.5 76l74 27q7 -32 25.5 -44t38.5 -12q21 0 37.5 13t16.5 36q0 21 -16.5 33t-41.5 12h-40v66h36q23 0 37 11t14 31q0 18 -13.5 28t-31.5 10q-25 0 -37 -13t-17 -27l-70 29q13 36 44 59t81 23q56 0 90 -30t34 -74q0 -47 -44 -77q24 -14 40 -35
t16 -49t-11.5 -49.5t-30 -36.5t-43 -23t-50.5 -8z" />
    <glyph glyph-name="four.denominator" horiz-adv-x="353" 
d="M200 0v69h-172v56l172 241h78v-231h47v-66h-47v-69h-78zM200 135v120h-6l-86 -120h92z" />
    <glyph glyph-name="four.numerator" horiz-adv-x="353" 
d="M200 350v69h-172v56l172 241h78v-231h47v-66h-47v-69h-78zM200 485v120h-6l-86 -120h92z" />
    <glyph glyph-name="r.alt" horiz-adv-x="380" 
d="M161 416h6q20 42 60.5 65t89.5 23q16 0 23.5 -1t15.5 -3v-112q-11 4 -21.5 5.5t-27.5 1.5q-63 0 -101.5 -38.5t-38.5 -101.5v-255h-111v490h105v-74z" />
    <glyph glyph-name="uni03BC" 
d="M397 0v61h-6q-21 -33 -55 -55t-84 -22q-26 0 -48 9t-41 23h-6l6 -60v-172h-111v706h111v-282q0 -64 29.5 -92.5t77.5 -28.5q28 0 50.5 12t38.5 32.5t24 47.5t8 56v255h111v-490h-105z" />
    <glyph glyph-name="uni2103" horiz-adv-x="971" 
d="M662 -16q-76 0 -141.5 27.5t-113.5 75.5t-75.5 113.5t-27.5 141.5t27.5 141.5t75.5 113.5t113.5 75.5t141.5 27.5q80 0 143 -30t111 -83l-77 -76q-66 83 -177 83q-51 0 -95.5 -17.5t-77.5 -50.5t-52.5 -79.5t-19.5 -104.5t19.5 -104.5t52.5 -79.5t77.5 -50.5t95.5 -17.5
q63 0 111 25.5t84 69.5l78 -76q-48 -57 -116.5 -91t-156.5 -34zM163 442q-27 0 -51 10t-41.5 27.5t-28 41t-10.5 50.5t10.5 50.5t28 41t41.5 27.5t51 10t50.5 -10t41 -27.5t28 -41t10.5 -50.5t-10.5 -50.5t-28 -41t-41 -27.5t-50.5 -10zM163 513q24 0 40 17.5t16 40.5
q0 24 -16 41t-40 17t-40.5 -17t-16.5 -41q0 -23 16.5 -40.5t40.5 -17.5z" />
    <glyph glyph-name="uni2109" horiz-adv-x="823" 
d="M371 0v684h420v-106h-307v-192h276v-103h-276v-283h-113zM163 442q-27 0 -51 10t-41.5 27.5t-28 41t-10.5 50.5t10.5 50.5t28 41t41.5 27.5t51 10t50.5 -10t41 -27.5t28 -41t10.5 -50.5t-10.5 -50.5t-28 -41t-41 -27.5t-50.5 -10zM163 513q24 0 40 17.5t16 40.5
q0 24 -16 41t-40 17t-40.5 -17t-16.5 -41q0 -23 16.5 -40.5t40.5 -17.5z" />
    <glyph glyph-name="uni2190" horiz-adv-x="1102" 
d="M267 260v-169l-219 219l219 219v-169h779v-100h-779z" />
    <glyph glyph-name="uni2191" horiz-adv-x="517" 
d="M309 -133h-100v742h-169l219 218l218 -218h-168v-742z" />
    <glyph glyph-name="uni2192" horiz-adv-x="1102" 
d="M56 260v100h780v169l218 -219l-218 -219v169h-780z" />
    <glyph glyph-name="uni2193" horiz-adv-x="517" 
d="M309 61h168l-218 -219l-219 219h169v741h100v-741z" />
    <glyph glyph-name="uni2196" horiz-adv-x="782" 
d="M782 53l-71 -71l-552 551l-119 -120v310h309l-119 -120z" />
    <glyph glyph-name="uni2197" horiz-adv-x="782" 
d="M552 603l-119 120h309v-310l-119 120l-552 -551l-71 71z" />
    <glyph glyph-name="uni2198" horiz-adv-x="782" 
d="M230 113l119 -120h-309v310l119 -120l552 551l71 -71z" />
    <glyph glyph-name="uni2199" horiz-adv-x="782" 
d="M0 663l71 71l552 -551l119 120v-310h-309l119 120z" />
    <glyph glyph-name="uni2639" horiz-adv-x="836" 
d="M287 395q-23 0 -39.5 16.5t-16.5 40.5q0 23 16.5 39t39.5 16t39.5 -16t16.5 -39q0 -24 -16.5 -40.5t-39.5 -16.5zM549 395q-23 0 -39.5 16.5t-16.5 40.5q0 23 16.5 39t39.5 16t39.5 -16t16.5 -39q0 -24 -16.5 -40.5t-39.5 -16.5zM418 -16q-77 0 -145 29.5t-119 80.5
t-80.5 119t-29.5 145t29.5 145t80.5 119t119 80.5t145 29.5t145 -29.5t119 -80.5t80.5 -119t29.5 -145t-29.5 -145t-80.5 -119t-119 -80.5t-145 -29.5zM418 48q64 0 120.5 24.5t98.5 67t66.5 99t24.5 119.5q0 64 -24.5 120.5t-66.5 98.5t-98.5 66.5t-120.5 24.5
q-63 0 -119.5 -24.5t-99 -66.5t-67 -98.5t-24.5 -120.5q0 -63 24.5 -119.5t67 -99t99 -67t119.5 -24.5zM418 301q63 0 113 -32.5t74 -86.5l-67 -31q-17 35 -49.5 55t-70.5 20t-70.5 -20t-48.5 -55l-68 31q24 54 74 86.5t113 32.5z" />
    <glyph glyph-name="uni263A" horiz-adv-x="836" 
d="M549 395q-23 0 -39.5 16.5t-16.5 40.5q0 23 16.5 39t39.5 16t39.5 -16t16.5 -39q0 -24 -16.5 -40.5t-39.5 -16.5zM287 395q-23 0 -39.5 16.5t-16.5 40.5q0 23 16.5 39t39.5 16t39.5 -16t16.5 -39q0 -24 -16.5 -40.5t-39.5 -16.5zM418 152q-63 0 -113 32.5t-74 86.5l68 31
q16 -35 48.5 -55t70.5 -20t70.5 20t49.5 55l67 -31q-24 -54 -74 -86.5t-113 -32.5zM418 -16q-77 0 -145 29.5t-119 80.5t-80.5 119t-29.5 145t29.5 145t80.5 119t119 80.5t145 29.5t145 -29.5t119 -80.5t80.5 -119t29.5 -145t-29.5 -145t-80.5 -119t-119 -80.5t-145 -29.5z
M418 48q64 0 120.5 24.5t98.5 67t66.5 99t24.5 119.5q0 64 -24.5 120.5t-66.5 98.5t-98.5 66.5t-120.5 24.5q-63 0 -119.5 -24.5t-99 -66.5t-67 -98.5t-24.5 -120.5q0 -63 24.5 -119.5t67 -99t99 -67t119.5 -24.5z" />
    <glyph glyph-name="uni2780" horiz-adv-x="836" 
d="M418 -16q-77 0 -145 29.5t-119 80.5t-80.5 119t-29.5 145t29.5 145t80.5 119t119 80.5t145 29.5t145 -29.5t119 -80.5t80.5 -119t29.5 -145t-29.5 -145t-80.5 -119t-119 -80.5t-145 -29.5zM418 59q62 0 116.5 23.5t95 64.5t64 95t23.5 116t-23.5 116.5t-64 95t-95 64
t-116.5 23.5t-116 -23.5t-95 -64t-64.5 -95t-23.5 -116.5t23.5 -116t64.5 -95t95 -64.5t116 -23.5zM391 177v274l-66 -27l-28 64l118 55h55v-366h-79z" />
    <glyph glyph-name="uni2781" horiz-adv-x="836" 
d="M418 -16q-77 0 -145 29.5t-119 80.5t-80.5 119t-29.5 145t29.5 145t80.5 119t119 80.5t145 29.5t145 -29.5t119 -80.5t80.5 -119t29.5 -145t-29.5 -145t-80.5 -119t-119 -80.5t-145 -29.5zM418 59q62 0 116.5 23.5t95 64.5t64 95t23.5 116t-23.5 116.5t-64 95t-95 64
t-116.5 23.5t-116 -23.5t-95 -64t-64.5 -95t-23.5 -116.5t23.5 -116t64.5 -95t95 -64.5t116 -23.5zM290 177v62l131 131q15 16 28 32.5t13 36.5q0 17 -13 29t-33 12t-35.5 -13t-20.5 -42l-73 30q11 45 46.5 70.5t81.5 25.5q26 0 49.5 -7.5t41 -22t28 -34.5t10.5 -44
q0 -18 -7 -34.5t-16.5 -30.5t-20.5 -26t-20 -21l-83 -83h149v-71h-256z" />
    <glyph glyph-name="uni2782" horiz-adv-x="836" 
d="M418 -16q-77 0 -145 29.5t-119 80.5t-80.5 119t-29.5 145t29.5 145t80.5 119t119 80.5t145 29.5t145 -29.5t119 -80.5t80.5 -119t29.5 -145t-29.5 -145t-80.5 -119t-119 -80.5t-145 -29.5zM418 59q62 0 116.5 23.5t95 64.5t64 95t23.5 116t-23.5 116.5t-64 95t-95 64
t-116.5 23.5t-116 -23.5t-95 -64t-64.5 -95t-23.5 -116.5t23.5 -116t64.5 -95t95 -64.5t116 -23.5zM416 169q-48 0 -86.5 24t-51.5 76l74 27q7 -32 25.5 -44t38.5 -12q21 0 37.5 13t16.5 36q0 21 -16.5 33t-41.5 12h-40v66h36q23 0 37 11t14 31q0 18 -13.5 28t-31.5 10
q-25 0 -37 -13t-17 -27l-70 29q13 36 44 59t81 23q56 0 90 -30t34 -74q0 -47 -44 -77q24 -14 40 -35t16 -49t-11.5 -49.5t-30 -36.5t-43 -23t-50.5 -8z" />
    <glyph glyph-name="uni2783" horiz-adv-x="836" 
d="M418 -16q-77 0 -145 29.5t-119 80.5t-80.5 119t-29.5 145t29.5 145t80.5 119t119 80.5t145 29.5t145 -29.5t119 -80.5t80.5 -119t29.5 -145t-29.5 -145t-80.5 -119t-119 -80.5t-145 -29.5zM418 59q62 0 116.5 23.5t95 64.5t64 95t23.5 116t-23.5 116.5t-64 95t-95 64
t-116.5 23.5t-116 -23.5t-95 -64t-64.5 -95t-23.5 -116.5t23.5 -116t64.5 -95t95 -64.5t116 -23.5zM422 177v69h-172v56l172 241h78v-231h47v-66h-47v-69h-78zM422 312v120h-6l-86 -120h92z" />
    <glyph glyph-name="uni2784" horiz-adv-x="836" 
d="M418 -16q-77 0 -145 29.5t-119 80.5t-80.5 119t-29.5 145t29.5 145t80.5 119t119 80.5t145 29.5t145 -29.5t119 -80.5t80.5 -119t29.5 -145t-29.5 -145t-80.5 -119t-119 -80.5t-145 -29.5zM418 59q62 0 116.5 23.5t95 64.5t64 95t23.5 116t-23.5 116.5t-64 95t-95 64
t-116.5 23.5t-116 -23.5t-95 -64t-64.5 -95t-23.5 -116.5t23.5 -116t64.5 -95t95 -64.5t116 -23.5zM418 169q-21 0 -42 5t-39.5 16t-32.5 28t-21 42l72 28q5 -23 22 -35.5t40 -12.5q24 0 40 16.5t16 41.5t-16 41.5t-39 16.5q-36 0 -57 -32l-67 29l24 189h214v-66h-151
l-12 -74q12 10 28 14.5t33 4.5q25 0 47 -8.5t39 -25t27 -39.5t10 -52q0 -28 -11 -51.5t-30 -40t-43 -26t-51 -9.5z" />
    <glyph glyph-name="uni2785" horiz-adv-x="836" 
d="M418 -16q-77 0 -145 29.5t-119 80.5t-80.5 119t-29.5 145t29.5 145t80.5 119t119 80.5t145 29.5t145 -29.5t119 -80.5t80.5 -119t29.5 -145t-29.5 -145t-80.5 -119t-119 -80.5t-145 -29.5zM418 59q62 0 116.5 23.5t95 64.5t64 95t23.5 116t-23.5 116.5t-64 95t-95 64
t-116.5 23.5t-116 -23.5t-95 -64t-64.5 -95t-23.5 -116.5t23.5 -116t64.5 -95t95 -64.5t116 -23.5zM414 169q-29 0 -54 10t-43 27.5t-28.5 40.5t-10.5 49q0 32 12.5 59.5t31.5 53.5q10 14 28 39l36 50q21 29 44 61l61 -43l-81 -101q10 4 21 4q24 0 45 -10t37.5 -27t26 -39.5
t9.5 -47.5q0 -26 -11 -49t-29.5 -40t-43 -27t-51.5 -10zM413 239q25 0 40.5 17t15.5 40t-15.5 40t-40.5 17t-40.5 -17t-15.5 -40t15 -40t41 -17z" />
    <glyph glyph-name="uni2786" horiz-adv-x="836" 
d="M418 -16q-77 0 -145 29.5t-119 80.5t-80.5 119t-29.5 145t29.5 145t80.5 119t119 80.5t145 29.5t145 -29.5t119 -80.5t80.5 -119t29.5 -145t-29.5 -145t-80.5 -119t-119 -80.5t-145 -29.5zM418 59q62 0 116.5 23.5t95 64.5t64 95t23.5 116t-23.5 116.5t-64 95t-95 64
t-116.5 23.5t-116 -23.5t-95 -64t-64.5 -95t-23.5 -116.5t23.5 -116t64.5 -95t95 -64.5t116 -23.5zM310 198l156 273h-168v72h255v-68l-172 -313z" />
    <glyph glyph-name="uni2787" horiz-adv-x="836" 
d="M418 -16q-77 0 -145 29.5t-119 80.5t-80.5 119t-29.5 145t29.5 145t80.5 119t119 80.5t145 29.5t145 -29.5t119 -80.5t80.5 -119t29.5 -145t-29.5 -145t-80.5 -119t-119 -80.5t-145 -29.5zM418 59q62 0 116.5 23.5t95 64.5t64 95t23.5 116t-23.5 116.5t-64 95t-95 64
t-116.5 23.5t-116 -23.5t-95 -64t-64.5 -95t-23.5 -116.5t23.5 -116t64.5 -95t95 -64.5t116 -23.5zM418 169q-26 0 -50 7.5t-43.5 22.5t-31 36t-11.5 48t14 49.5t37 37.5q-18 11 -28.5 31t-10.5 41q0 25 10 45t27 34.5t39.5 22t47.5 7.5q24 0 46.5 -7.5t40 -22t27.5 -34.5
t10 -45q0 -20 -11 -40t-28 -32q23 -15 37 -37.5t14 -49.5t-11.5 -48.5t-31 -36t-44 -22t-49.5 -7.5zM418 400q17 0 31 11.5t14 29.5q0 17 -13 29t-32 12q-20 0 -32.5 -12t-12.5 -29q0 -19 14 -30t31 -11zM418 238q20 0 38 14t18 36q0 21 -18 34.5t-38 13.5q-21 0 -38.5 -13
t-17.5 -35q0 -23 17 -36.5t39 -13.5z" />
    <glyph glyph-name="uni2788" horiz-adv-x="836" 
d="M418 -16q-77 0 -145 29.5t-119 80.5t-80.5 119t-29.5 145t29.5 145t80.5 119t119 80.5t145 29.5t145 -29.5t119 -80.5t80.5 -119t29.5 -145t-29.5 -145t-80.5 -119t-119 -80.5t-145 -29.5zM418 59q62 0 116.5 23.5t95 64.5t64 95t23.5 116t-23.5 116.5t-64 95t-95 64
t-116.5 23.5t-116 -23.5t-95 -64t-64.5 -95t-23.5 -116.5t23.5 -116t64.5 -95t95 -64.5t116 -23.5zM415 551q29 0 54 -10t43 -27.5t28.5 -40.5t10.5 -49q0 -32 -12.5 -59.5t-31.5 -53.5q-10 -14 -28 -39l-36 -50q-21 -29 -44 -61l-61 43l80 101q-8 -4 -20 -4q-24 0 -45 10
t-37.5 27t-26 39.5t-9.5 47.5q0 26 10.5 49t29 40t43 27t52.5 10zM416 481q-25 0 -40.5 -17t-15.5 -40t15.5 -40t40.5 -17t40 17t15 40t-15 40t-40 17z" />
    <glyph glyph-name="uni278A" horiz-adv-x="836" 
d="M470 543h-55l-118 -55l29 -64l65 27v-274h79v366zM418 -16q-77 0 -145 29.5t-119 80.5t-80.5 119t-29.5 145t29.5 145t80.5 119t119 80.5t145 29.5t145 -29.5t119 -80.5t80.5 -119t29.5 -145t-29.5 -145t-80.5 -119t-119 -80.5t-145 -29.5z" />
    <glyph glyph-name="uni278B" horiz-adv-x="836" 
d="M545 248h-148l83 83q9 9 19.5 21t20.5 26t16.5 30.5t6.5 34.5q0 24 -10.5 44t-28 34.5t-40.5 22t-49 7.5q-46 0 -82 -25.5t-46 -70.5l72 -30q5 29 20.5 42t36.5 13q20 0 33 -12t13 -29q0 -20 -13 -36.5t-28 -32.5l-8.5 -8.5l-16 -16l-21 -21l-23.5 -23.5l-62 -62v-62h255
v71zM418 -16q-77 0 -145 29.5t-119 80.5t-80.5 119t-29.5 145t29.5 145t80.5 119t119 80.5t145 29.5t145 -29.5t119 -80.5t80.5 -119t29.5 -145t-29.5 -145t-80.5 -119t-119 -80.5t-145 -29.5z" />
    <glyph glyph-name="uni278C" horiz-adv-x="836" 
d="M416 166q26 0 50.5 8t43 23t30 36.5t11.5 49.5q0 29 -16.5 50t-44.5 34q23 13 36 32t13 46q0 45 -34 74t-89 29q-51 0 -81.5 -23t-43.5 -59l69 -28q5 14 17.5 27t37.5 13q17 0 30.5 -10.5t13.5 -28.5q0 -20 -14 -31t-37 -11h-35v-65h39q25 0 42 -12t17 -33
q0 -23 -17 -36.5t-38 -13.5q-20 0 -38 12.5t-26 44.5l-74 -27q14 -53 52 -77t86 -24zM418 -16q-77 0 -145 29.5t-119 80.5t-80.5 119t-29.5 145t29.5 145t80.5 119t119 80.5t145 29.5t145 -29.5t119 -80.5t80.5 -119t29.5 -145t-29.5 -145t-80.5 -119t-119 -80.5t-145 -29.5
z" />
    <glyph glyph-name="uni278D" horiz-adv-x="836" 
d="M499 246h47v66h-47v231h-78l-172 -241v-56h172v-69h78v69zM329 312l86 120h6v-120h-92zM418 -16q-77 0 -145 29.5t-119 80.5t-80.5 119t-29.5 145t29.5 145t80.5 119t119 80.5t145 29.5t145 -29.5t119 -80.5t80.5 -119t29.5 -145t-29.5 -145t-80.5 -119t-119 -80.5
t-145 -29.5z" />
    <glyph glyph-name="uni278E" horiz-adv-x="836" 
d="M418 -16q-77 0 -145 29.5t-119 80.5t-80.5 119t-29.5 145t29.5 145t80.5 119t119 80.5t145 29.5t145 -29.5t119 -80.5t80.5 -119t29.5 -145t-29.5 -145t-80.5 -119t-119 -80.5t-145 -29.5zM418 169q27 0 51.5 9.5t43 26t29.5 40t11 51.5q0 29 -10 52t-26.5 39.5t-38.5 25
t-47 8.5q-18 0 -35 -6.5t-27 -18.5l12 80h151v66h-214l-24 -189l67 -29q21 32 57 32q23 0 39.5 -16.5t16.5 -41.5t-16.5 -41.5t-40.5 -16.5q-23 0 -39.5 12.5t-22.5 35.5l-72 -28q7 -25 21.5 -42t32.5 -28t39 -16t42 -5z" />
    <glyph glyph-name="uni278F" horiz-adv-x="836" 
d="M418 -16q-77 0 -145 29.5t-119 80.5t-80.5 119t-29.5 145t29.5 145t80.5 119t119 80.5t145 29.5t145 -29.5t119 -80.5t80.5 -119t29.5 -145t-29.5 -145t-80.5 -119t-119 -80.5t-145 -29.5zM414 169q28 0 52.5 10t43 27t29 40t10.5 49q0 25 -9.5 47.5t-26 39.5t-37.5 27
t-45 10q-12 0 -20 -4l80 101l-61 43q-23 -32 -44 -61l-36 -50t-28 -39q-19 -26 -31.5 -53.5t-12.5 -59.5q0 -26 10.5 -49t28.5 -40.5t43 -27.5t54 -10zM413 239q-25 0 -40 17t-15 40t15 40t40 17t40.5 -17t15.5 -40t-15.5 -40t-40.5 -17z" />
    <glyph glyph-name="uni2790" horiz-adv-x="836" 
d="M418 -16q-77 0 -145 29.5t-119 80.5t-80.5 119t-29.5 145t29.5 145t80.5 119t119 80.5t145 29.5t145 -29.5t119 -80.5t80.5 -119t29.5 -145t-29.5 -145t-80.5 -119t-119 -80.5t-145 -29.5zM381 162l173 313v68h-256v-72h165l-152 -273z" />
    <glyph glyph-name="uni2791" horiz-adv-x="836" 
d="M418 -16q-77 0 -145 29.5t-119 80.5t-80.5 119t-29.5 145t29.5 145t80.5 119t119 80.5t145 29.5t145 -29.5t119 -80.5t80.5 -119t29.5 -145t-29.5 -145t-80.5 -119t-119 -80.5t-145 -29.5zM418 169q25 0 49.5 7.5t44 22t31 36t11.5 48.5t-14 49.5t-39 37.5q18 12 29.5 32
t11.5 40q0 25 -10 45t-27.5 34.5t-40 22t-46.5 7.5q-25 0 -47.5 -7.5t-39.5 -22t-27 -34.5t-10 -45q0 -21 11 -41t30 -31q-25 -15 -39 -37.5t-14 -49.5t11.5 -48t31 -36t43.5 -22.5t50 -7.5zM418 400q-17 0 -31 11t-14 30q0 17 12.5 29t32.5 12q19 0 32 -12t13 -29
q0 -18 -14 -29.5t-31 -11.5zM418 238q-22 0 -39 13.5t-17 36.5q0 22 17.5 35t38.5 13q20 0 38 -13.5t18 -34.5q0 -22 -18 -36t-38 -14z" />
    <glyph glyph-name="uni2792" horiz-adv-x="836" 
d="M418 -16q-77 0 -145 29.5t-119 80.5t-80.5 119t-29.5 145t29.5 145t80.5 119t119 80.5t145 29.5t145 -29.5t119 -80.5t80.5 -119t29.5 -145t-29.5 -145t-80.5 -119t-119 -80.5t-145 -29.5zM415 551q-28 0 -52.5 -10t-43 -27t-29 -40t-10.5 -49q0 -25 9.5 -47.5t26 -39.5
t37.5 -27t45 -10q12 0 20 4l-80 -101l61 -43q23 32 44 61l36 50t28 39q19 26 31.5 53.5t12.5 59.5q0 26 -10.5 49t-28.5 40.5t-43 27.5t-54 10zM416 481q25 0 40 -17t15 -40t-15 -40t-40 -17t-40.5 17t-15.5 40t15.5 40t40.5 17z" />
    <glyph glyph-name="Google.logo" horiz-adv-x="3284" 
d="M460 -16q-85 0 -160.5 32.5t-132.5 88t-90 130t-33 159.5t33 159.5t90 130t132.5 88t160.5 32.5q94 0 162.5 -32.5t118.5 -80.5l-79 -79q-36 34 -85.5 57t-116.5 23q-62 0 -115.5 -23.5t-93.5 -64t-62.5 -94.5t-22.5 -116t22.5 -116t62.5 -94.5t93.5 -64t115.5 -23.5
q40 0 72 7.5t57 19t44 26t34 29.5q49 49 61 141h-268v112h377q6 -30 6 -70q0 -32 -5 -66t-16 -68.5t-29.5 -67t-46.5 -60.5q-54 -57 -124 -86t-162 -29zM1148 -16q-55 0 -103 20t-84 55t-57 83.5t-21 105.5t21 105.5t57 84t84 55t103 19.5t103 -19.5t84 -55t57 -84
t21 -105.5t-21 -105.5t-57 -83.5t-84 -55t-103 -20zM1148 88q30 0 57 12t47.5 33t32.5 50.5t12 64.5q0 36 -12 65.5t-32.5 50.5t-47.5 32.5t-57 11.5t-57 -11.5t-47.5 -32.5t-32.5 -50.5t-12 -65.5q0 -35 12 -64.5t32.5 -50.5t47.5 -33t57 -12zM1726 -16q-55 0 -103 20
t-84 55t-57 83.5t-21 105.5t21 105.5t57 84t84 55t103 19.5t103 -19.5t84 -55t57 -84t21 -105.5t-21 -105.5t-57 -83.5t-84 -55t-103 -20zM1726 88q30 0 57 12t47.5 33t32.5 50.5t12 64.5q0 36 -12 65.5t-32.5 50.5t-47.5 32.5t-57 11.5t-57 -11.5t-47.5 -32.5t-32.5 -50.5
t-12 -65.5q0 -35 12 -64.5t32.5 -50.5t47.5 -33t57 -12zM2294 -253q-48 0 -86.5 14.5t-67.5 37t-49 50.5t-31 54l101 42q7 -16 18.5 -33t28 -30.5t38 -22t48.5 -8.5q66 0 103.5 39.5t37.5 115.5v38h-4q-20 -24 -55.5 -42t-83.5 -18q-50 0 -95.5 20.5t-80.5 55.5t-56 83
t-21 104t21 104.5t56 84t80.5 56t95.5 20.5q48 0 83.5 -18t55.5 -41h4v43h110v-474q0 -73 -20 -125t-54.5 -85.5t-80 -49t-96.5 -15.5zM2302 88q30 0 55.5 12t44.5 33t30 50t11 64t-11 64.5t-30 51t-44.5 33.5t-55.5 12t-56.5 -12t-47 -33.5t-32 -51t-11.5 -64.5t11.5 -64
t32 -50t47 -33t56.5 -12zM2741 0h-116v776h116v-776zM3059 -16q-56 0 -104 20.5t-83 56t-55 83.5t-20 104q0 59 20 107.5t53.5 83.5t79 54t96.5 19t90 -18t66.5 -44t44.5 -55t25 -51l12 -30l-353 -146q41 -80 128 -80q45 0 76 20t54 53l90 -60q-11 -16 -29.5 -36.5
t-46 -38.5t-63.5 -30t-81 -12zM3148 354q-10 25 -36.5 40.5t-61.5 15.5q-22 0 -47 -9.5t-45.5 -29t-33.5 -48.5t-12 -67z" />
    <glyph glyph-name="G.logo" horiz-adv-x="861" 
d="M460 -16q-85 0 -160.5 32.5t-132.5 88t-90 130t-33 159.5t33 159.5t90 130t132.5 88t160.5 32.5q94 0 162.5 -32.5t118.5 -80.5l-79 -79q-36 34 -85.5 57t-116.5 23q-62 0 -115.5 -23.5t-93.5 -64t-62.5 -94.5t-22.5 -116t22.5 -116t62.5 -94.5t93.5 -64t115.5 -23.5
q40 0 72 7.5t57 19t44 26t34 29.5q49 49 61 141h-268v112h377q6 -30 6 -70q0 -32 -5 -66t-16 -68.5t-29.5 -67t-46.5 -60.5q-54 -57 -124 -86t-162 -29z" />
    <glyph glyph-name="o.logo" horiz-adv-x="578" 
d="M287 -16q-55 0 -103 20t-84 55t-57 83.5t-21 105.5t21 105.5t57 84t84 55t103 19.5t103 -19.5t84 -55t57 -84t21 -105.5t-21 -105.5t-57 -83.5t-84 -55t-103 -20zM287 88q30 0 57 12t47.5 33t32.5 50.5t12 64.5q0 36 -12 65.5t-32.5 50.5t-47.5 32.5t-57 11.5t-57 -11.5
t-47.5 -32.5t-32.5 -50.5t-12 -65.5q0 -35 12 -64.5t32.5 -50.5t47.5 -33t57 -12z" />
    <glyph glyph-name="g.logo" horiz-adv-x="566" 
d="M277 -253q-48 0 -86.5 14.5t-67.5 37t-49 50.5t-31 54l101 42q7 -16 18.5 -33t28 -30.5t38 -22t48.5 -8.5q66 0 103.5 39.5t37.5 115.5v38h-4q-20 -24 -55.5 -42t-83.5 -18q-50 0 -95.5 20.5t-80.5 55.5t-56 83t-21 104t21 104.5t56 84t80.5 56t95.5 20.5q48 0 83.5 -18
t55.5 -41h4v43h110v-474q0 -73 -20 -125t-54.5 -85.5t-80 -49t-96.5 -15.5zM285 88q30 0 55.5 12t44.5 33t30 50t11 64t-11 64.5t-30 51t-44.5 33.5t-55.5 12t-56.5 -12t-47 -33.5t-32 -51t-11.5 -64.5t11.5 -64t32 -50t47 -33t56.5 -12z" />
    <glyph glyph-name="l.logo" horiz-adv-x="187" 
d="M158 0h-116v776h116v-776z" />
    <glyph glyph-name="e.logo" horiz-adv-x="514" 
d="M289 -16q-56 0 -104 20.5t-83 56t-55 83.5t-20 104q0 59 20 107.5t53.5 83.5t79 54t96.5 19t90 -18t66.5 -44t44.5 -55t25 -51l12 -30l-353 -146q41 -80 128 -80q45 0 76 20t54 53l90 -60q-11 -16 -29.5 -36.5t-46 -38.5t-63.5 -30t-81 -12zM378 354q-10 25 -36.5 40.5
t-61.5 15.5q-22 0 -47 -9.5t-45.5 -29t-33.5 -48.5t-12 -67z" />
    <glyph glyph-name="caron.alt" horiz-adv-x="419" 
d="M150 501v215h119l-40 -215h-79z" />
    <glyph glyph-name="dotaccent.cap" horiz-adv-x="251" 
d="M125 795q-24 0 -42.5 18t-18.5 43q0 26 18.5 43.5t42.5 17.5q26 0 44 -17.5t18 -43.5q0 -25 -18 -43t-44 -18z" />
    <glyph glyph-name="uni00200326" horiz-adv-x="413" 
d="M139 -234l43 62q-20 5 -32 22t-12 38q0 25 18 44.5t47 19.5t47 -19.5t18 -46.5q0 -24 -13 -45l-71 -106z" />
    <glyph glyph-name="K.alt" horiz-adv-x="633" 
d="M616 710l-298 -357l315 -347v-6h-150l-292 327h-6v-327h-113v716h113v-346h6l282 346h143v-6z" />
    <glyph glyph-name="a.alt" horiz-adv-x="584" 
d="M262 -16q-47 0 -89.5 19.5t-74.5 54.5t-51 82.5t-19 104.5t19 104.5t51 82.5t74.5 54.5t89.5 19.5q57 0 98 -23.5t61 -55.5h6v63h105v-490h-105v63h-6q-20 -32 -61 -55.5t-98 -23.5zM283 87q28 0 54.5 11t46 31t31.5 49.5t12 66.5t-12 66.5t-31.5 49.5t-46 31t-54.5 11
q-29 0 -55 -11t-45.5 -31.5t-31.5 -49.5t-12 -66t12 -66t31.5 -49.5t45.5 -31.5t55 -11z" />
    <glyph glyph-name="quoteright.alt" horiz-adv-x="296" 
d="M119 716h137l-123 -215h-93z" />
    </font>
</defs>
</svg>
