<?xml version="1.0" standalone="no"?>
<!DOCTYPE svg PUBLIC "-//W3C//DTD SVG 1.1//EN" "http://www.w3.org/Graphics/SVG/1.1/DTD/svg11.dtd" >
<svg xmlns="http://www.w3.org/2000/svg" xmlns:xlink="http://www.w3.org/1999/xlink" version="1.1">
<metadata>
Created by FontForge 20170731 at Mon Sep  3 22:18:06 2018
 By Aleksey,,,
</metadata>
<defs>
<font id="ProductSans-BoldItalic" horiz-adv-x="574" >
  <font-face 
    font-family="Product Sans"
    font-weight="700"
    font-style="italic"
    font-stretch="normal"
    units-per-em="1000"
    panose-1="2 11 7 3 3 5 2 9 2 3"
    ascent="800"
    descent="-200"
    x-height="490"
    cap-height="716"
    bbox="-233 -286 3284 964"
    underline-thickness="50"
    underline-position="-275"
    slope="-10"
    unicode-range="U+000D-2215"
  />
<missing-glyph horiz-adv-x="570" 
d="M72 716h426v-716h-426v716zM136 60h298v596h-298v-596z" />
    <glyph glyph-name="f_i" unicode="fi" horiz-adv-x="623" 
d="M358 724q32 0 55 -9l-29 -122q-14 7 -33 7q-67 0 -79 -70l-7 -40h315l-86 -490h-131l66 378h-184l-66 -378h-131l66 378h-88l20 112h88l8 48q16 94 72 140t144 46zM541 561q-17 0 -32.5 6.5t-27 18t-18 26.5t-6.5 33t6.5 33t18 26.5t27 18t32.5 6.5q35 0 60 -24.5
t25 -59.5t-25 -59.5t-60 -24.5z" />
    <glyph glyph-name="f_l" unicode="fl" horiz-adv-x="615" 
d="M363 0l106 599h-115q-33 0 -55 -18.5t-28 -55.5l-6 -35h114l-19 -112h-115l-66 -378h-131l66 378h-88l20 112h88l7 36q19 97 73.5 145.5t159.5 48.5h247l-127 -720h-131z" />
    <glyph glyph-name="f_b" unicode="fb" horiz-adv-x="970" 
d="M655 -16q-54 0 -92.5 21.5t-58.5 53.5h-8l-10 -59h-123l106 599h-115q-33 0 -55 -18.5t-28 -55.5l-6 -35h114l-19 -112h-115l-66 -378h-131l66 378h-88l20 112h88l7 36q19 97 73.5 145.5t159.5 48.5h247l-39 -219l-20 -70h8q20 28 58 51.5t97 23.5q42 0 78.5 -16
t64 -45.5t43.5 -71.5t16 -95q0 -62 -21.5 -115.5t-58.5 -93.5t-86.5 -62.5t-105.5 -22.5zM643 105q31 0 59 12.5t48.5 34t32.5 50t12 61.5q0 55 -30.5 88.5t-84.5 33.5q-36 0 -64.5 -13.5t-48.5 -36t-30.5 -51.5t-10.5 -61q0 -29 9.5 -51t25.5 -37t37 -22.5t45 -7.5z" />
    <glyph glyph-name="f_f" unicode="ff" horiz-adv-x="712" 
d="M673 724q26 0 50 -7t41 -18l-53 -112q-9 6 -20 9.5t-25 3.5q-67 0 -79 -70l-7 -40h122l-20 -112h-122l-66 -378h-131l66 378h-184l-66 -378h-131l66 378h-88l20 112h88l8 48q16 94 72 140t144 46q32 0 55 -9l-29 -122q-14 7 -33 7q-67 0 -79 -70l-7 -40h184l8 48
q16 94 72 140t144 46z" />
    <glyph glyph-name="f_f_b" unicode="ffb" horiz-adv-x="1285" 
d="M970 -16q-54 0 -92.5 21.5t-58.5 53.5h-8l-10 -59h-123l106 599h-115q-34 0 -55.5 -18.5t-27.5 -55.5l-6 -35h114l-19 -112h-115l-66 -378h-131l66 378h-184l-66 -378h-131l66 378h-88l20 112h88l8 48q16 94 72 140t144 46q32 0 55 -9l-29 -122q-14 7 -33 7
q-67 0 -79 -70l-7 -40h184l7 36q19 97 73.5 145.5t159.5 48.5h247l-39 -219l-20 -70h8q20 28 58 51.5t97 23.5q42 0 78.5 -16t64 -45.5t43.5 -71.5t16 -95q0 -62 -21.5 -115.5t-58.5 -93.5t-86.5 -62.5t-105.5 -22.5zM958 105q31 0 59 12.5t48.5 34t32.5 50t12 61.5
q0 55 -30.5 88.5t-84.5 33.5q-36 0 -64.5 -13.5t-48.5 -36t-30.5 -51.5t-10.5 -61q0 -29 9.5 -51t25.5 -37t37 -22.5t45 -7.5z" />
    <glyph glyph-name="f_f_h" unicode="ffh" horiz-adv-x="1260" 
d="M900 515l-25 -89h8q27 38 69 59t93 21q40 0 69 -12.5t48.5 -33.5t29 -49t9.5 -59q0 -23 -6 -59l-52 -293h-131l50 281q3 18 3 29q0 32 -19 53.5t-56 21.5q-30 0 -53.5 -11.5t-41 -31t-28.5 -46t-16 -57.5l-42 -239h-131l106 599h-115q-33 0 -54.5 -18.5t-28.5 -55.5
l-6 -35h114l-19 -112h-115l-66 -378h-131l66 378h-184l-66 -378h-131l66 378h-88l20 112h88l8 48q16 94 72 140t144 46q32 0 55 -9l-29 -122q-14 7 -33 7q-67 0 -79 -70l-7 -40h184l7 36q19 97 73.5 145.5t159.5 48.5h247z" />
    <glyph glyph-name="f_f_i" unicode="ffi" horiz-adv-x="937" 
d="M673 724q32 0 55 -9l-29 -122q-14 7 -33 7q-67 0 -79 -70l-7 -40h315l-86 -490h-131l66 378h-184l-66 -378h-131l66 378h-184l-66 -378h-131l66 378h-88l20 112h88l8 48q16 94 72 140t144 46q32 0 55 -9l-29 -121q-14 7 -33 7q-32 0 -52.5 -18.5t-26.5 -52.5l-7 -40h184
l8 48q16 94 72 140t144 46zM856 561q-17 0 -32.5 6.5t-27 18t-18 26.5t-6.5 33t6.5 33t18 26.5t27 18t32.5 6.5q35 0 60 -24.5t25 -59.5t-25 -59.5t-60 -24.5z" />
    <glyph glyph-name="f_f_j" unicode="ffj" horiz-adv-x="937" 
d="M673 724q32 0 55 -9l-29 -122q-16 7 -33 7q-67 0 -79 -70l-7 -40h315l-96 -544q-9 -50 -25 -83t-39 -52.5t-52.5 -28t-65.5 -8.5q-20 0 -43 3.5t-39 10.5l47 116q15 -9 33 -9q22 0 35.5 12.5t18.5 41.5l75 429h-184l-66 -378h-131l66 378h-184l-66 -378h-131l66 378h-88
l20 112h88l8 48q16 94 72 140t144 46q32 0 55 -9l-29 -121q-14 7 -33 7q-32 0 -52.5 -18.5t-26.5 -52.5l-7 -40h184l8 48q16 94 72 140t144 46zM856 561q-35 0 -59.5 24.5t-24.5 59.5t24.5 59.5t59.5 24.5t59.5 -24.5t24.5 -59.5t-24.5 -59.5t-59.5 -24.5z" />
    <glyph glyph-name="f_f_k" unicode="ffk" horiz-adv-x="1215" 
d="M867 330h8l185 160h166l-1 -8l-216 -180l148 -294l-2 -8h-148l-102 216l-68 -57l-28 -159h-131l106 599h-115q-33 0 -55 -18.5t-28 -55.5l-6 -35h114l-19 -112h-115l-66 -378h-131l66 378h-184l-66 -378h-131l66 378h-88l20 112h88l8 48q16 94 72 140t144 46q32 0 55 -9
l-29 -122q-14 7 -33 7q-67 0 -79 -70l-7 -40h184l7 36q19 97 73.5 145.5t159.5 48.5h247z" />
    <glyph glyph-name="f_f_l" unicode="ffl" horiz-adv-x="929" 
d="M678 0l106 599h-115q-33 0 -55 -18.5t-28 -55.5l-6 -35h114l-19 -112h-115l-66 -378h-131l66 378h-184l-66 -378h-131l66 378h-88l20 112h88l8 48q16 94 72 140t144 46q32 0 55 -9l-29 -122q-14 7 -33 7q-67 0 -79 -70l-7 -40h184l7 36q19 97 73.5 145.5t159.5 48.5h247
l-127 -720h-131z" />
    <glyph glyph-name="f_f_t" unicode="fft" horiz-adv-x="1032" 
d="M851 -8q-64 0 -105 34t-41 104q0 11 1 23.5t4 29.5l34 195h-184l-66 -378h-131l66 378h-184l-66 -378h-131l66 378h-88l20 112h88l8 48q16 94 72 140t144 46q32 0 55 -9l-29 -121q-14 7 -33 7q-32 0 -52.5 -18.5t-26.5 -52.5l-7 -40h184l8 48q16 94 72 140t144 46
q32 0 55 -9l-29 -122q-14 7 -33 7q-67 0 -79 -70l-7 -40h184l27 150h131l-27 -150h120l-19 -112h-121l-33 -189q-2 -10 -2 -13v-10q0 -21 10.5 -35.5t36.5 -14.5q16 0 26.5 3.5t20.5 9.5l20 -119q-20 -9 -45 -13.5t-58 -4.5z" />
    <glyph glyph-name="f_h" unicode="fh" horiz-adv-x="946" 
d="M585 515l-25 -89h8q27 38 69 59t93 21q40 0 69 -12.5t48.5 -33.5t29 -49t9.5 -59q0 -23 -6 -59l-52 -293h-131l50 281q3 18 3 29q0 32 -19 53.5t-56 21.5q-30 0 -53.5 -11.5t-41 -31t-28.5 -46t-16 -57.5l-42 -239h-131l106 599h-115q-33 0 -54.5 -18.5t-28.5 -55.5
l-6 -35h114l-19 -112h-115l-66 -378h-131l66 378h-88l20 112h88l7 36q19 97 73.5 145.5t159.5 48.5h247z" />
    <glyph glyph-name="f_j" unicode="fj" horiz-adv-x="623" 
d="M179 0h-131l66 378h-88l20 112h88l8 48q16 94 72 140t144 46q32 0 55 -9l-29 -122q-14 7 -33 7q-67 0 -79 -70l-7 -40h315l-95 -544q-9 -50 -25 -83t-39 -52.5t-52.5 -28t-65.5 -8.5q-20 0 -43 3.5t-40 10.5l47 116q15 -9 34 -9q22 0 35 12.5t18 41.5l75 429h-184z
M541 561q-17 0 -32.5 6.5t-27 18t-18 26.5t-6.5 33t6.5 33t18 26.5t27 18t32.5 6.5q35 0 60 -24.5t25 -59.5t-25 -59.5t-60 -24.5z" />
    <glyph glyph-name="f_k" unicode="fk" horiz-adv-x="901" 
d="M552 330h8l185 160h167l-2 -8l-216 -180l148 -294l-2 -8h-148l-102 216l-68 -57l-28 -159h-131l106 599h-115q-33 0 -55 -18.5t-28 -55.5l-6 -35h114l-19 -112h-115l-66 -378h-131l66 378h-88l20 112h88l7 36q19 97 73.5 145.5t159.5 48.5h247z" />
    <glyph glyph-name="f_t" unicode="ft" horiz-adv-x="718" 
d="M358 724q32 0 55 -9l-29 -121q-14 7 -33 7q-32 0 -52.5 -18.5t-26.5 -52.5l-7 -40h184l27 150h131l-27 -150h120l-19 -112h-121l-33 -189q-2 -10 -2 -13v-10q0 -21 10.5 -35.5t36.5 -14.5q16 0 26.5 3.5t20.5 9.5l20 -119q-20 -9 -45 -13.5t-58 -4.5q-64 0 -105 34
t-41 104q0 11 1 23.5t4 29.5l34 195h-184l-66 -378h-131l66 378h-88l20 112h88l8 48q16 94 72 140t144 46z" />
    <glyph glyph-name="r_f" unicode="rf" horiz-adv-x="809" 
d="M190 422h8q24 37 64 59.5t94 22.5q17 0 27 -1.5t18 -3.5l-23 -130q-9 5 -22 8t-33 3q-63 0 -105 -39.5t-53 -104.5l-42 -236h-130l86 490h123zM770 724q26 0 50 -7t41 -18l-53 -112q-9 6 -20 9.5t-25 3.5q-67 0 -79 -70l-7 -40h122l-20 -112h-122l-66 -378h-131l66 378
h-88l20 112h88l8 48q16 94 72 140t144 46z" />
    <glyph glyph-name="r_f_f" unicode="rff" horiz-adv-x="1125" 
d="M1085 724q26 0 50 -7t41 -18l-53 -112q-9 6 -20 9.5t-25 3.5q-67 0 -79 -70l-7 -40h122l-20 -112h-122l-66 -378h-131l66 378h-184l-66 -378h-131l66 378h-88l20 112h88l8 48q16 94 72 140t144 46q32 0 55 -9l-29 -122q-14 7 -33 7q-67 0 -79 -70l-7 -40h184l8 48
q16 94 72 140t144 46zM190 422h8q24 37 64 59.5t94 22.5q17 0 27 -1.5t18 -3.5l-23 -130q-9 5 -22 8t-33 3q-63 0 -105 -39.5t-53 -104.5l-42 -236h-130l86 490h123z" />
    <glyph glyph-name="r_t" unicode="rt" horiz-adv-x="813" 
d="M190 422h8q24 37 64 59.5t94 22.5q17 0 27 -1.5t18 -3.5l-23 -130q-9 5 -22 8t-33 3q-63 0 -105 -39.5t-53 -104.5l-42 -236h-130l86 490h123zM632 -8q-64 0 -105 34t-41 104q0 11 1 23.5t4 29.5l34 195h-86l20 112h86l27 150h131l-27 -150h120l-19 -112h-121l-33 -189
q-2 -10 -2 -13v-10q0 -21 10.5 -35.5t36.5 -14.5q16 0 26.5 3.5t20.5 9.5l20 -119q-20 -9 -45 -13.5t-58 -4.5z" />
    <glyph glyph-name="t_f" unicode="tf" horiz-adv-x="712" 
d="M211 189q-2 -10 -2 -13v-10q0 -21 10.5 -35.5t36.5 -14.5q14 0 25 3t22 8l-12 -123q-15 -5 -33 -8.5t-38 -3.5q-64 0 -105 34t-41 104q0 11 1 23.5t4 29.5l34 195h-86l20 112h86l27 150h131l-27 -150h185l8 48q16 94 72 140t144 46q26 0 50 -7t41 -18l-53 -112
q-9 6 -20 9.5t-25 3.5q-67 0 -79 -70l-7 -40h122l-20 -112h-122l-66 -378h-131l66 378h-185z" />
    <glyph glyph-name="t_t" unicode="tt" horiz-adv-x="720" 
d="M539 -8q-64 0 -105 34t-41 104q0 11 1 23.5t4 29.5l34 195h-188l-33 -189q-2 -10 -2 -13v-10q0 -21 10.5 -35.5t36.5 -14.5q14 0 25 3t22 8l-12 -123q-15 -5 -33 -8.5t-38 -3.5q-64 0 -105 34t-41 104q0 11 1 23.5t4 29.5l34 195h-86l20 112h86l27 150h131l-27 -150h188
l27 150h131l-27 -150h120l-19 -112h-121l-33 -189q-2 -10 -2 -13v-10q0 -21 10.5 -35.5t36.5 -14.5q16 0 26.5 3.5t20.5 9.5l20 -119q-20 -9 -45 -13.5t-58 -4.5z" />
    <glyph glyph-name=".notdef" horiz-adv-x="570" 
d="M72 716h426v-716h-426v716zM136 60h298v596h-298v-596z" />
    <glyph glyph-name=".null" horiz-adv-x="0" 
 />
    <glyph glyph-name="uni000D" horiz-adv-x="0" 
d="M0 0z" />
    <glyph glyph-name="NULL" horiz-adv-x="0" 
d="M0 0z" />
    <glyph glyph-name="NULL" horiz-adv-x="0" 
d="M0 0z" />
    <glyph glyph-name="nonmarkingreturn" unicode="&#xd;" horiz-adv-x="333" 
 />
    <glyph glyph-name="space" unicode=" " horiz-adv-x="220" 
d="M0 0z" />
    <glyph glyph-name="exclam" unicode="!" horiz-adv-x="269" 
d="M86 -6q-36 0 -61 25.5t-25 61.5t25 61t61 25t61.5 -25t25.5 -61t-25.5 -61.5t-61.5 -25.5zM94 510l36 206h135l-36 -206l-60 -264h-109z" />
    <glyph glyph-name="quotedbl" unicode="&#x22;" horiz-adv-x="379" 
d="M239 490l40 226h119l-40 -226h-119zM67 490l40 226h119l-40 -226h-119z" />
    <glyph glyph-name="numbersign" unicode="#" horiz-adv-x="657" 
d="M100 0l34 192h-116l20 102h114l18 105h-117l19 102h115l33 183h111l-33 -183h112l33 183h110l-32 -183h115l-18 -102h-115l-18 -105h117l-18 -102h-117l-33 -192h-111l34 192h-112l-34 -192h-111zM260 292h116l19 109h-116z" />
    <glyph glyph-name="dollar" unicode="$" horiz-adv-x="559" 
d="M178 -11q-33 7 -63 22.5t-54.5 40t-41.5 56.5t-23 72l117 47q7 -38 28.5 -69.5t58.5 -44.5l33 191q-32 14 -60 32.5t-49 42.5t-33 54t-12 66q0 40 16 75t45.5 61t71 42.5t91.5 20.5l15 86h89l-16 -90q33 -8 58.5 -22.5t44 -34t31 -41.5t18.5 -43l-118 -45q-8 22 -21 39
t-34 27l-32 -182q77 -35 117.5 -79t40.5 -111q0 -48 -17 -86t-48 -65.5t-73 -43.5t-91 -21l-15 -86h-89zM203 504q0 -41 53 -73l26 149q-34 -6 -56.5 -24.5t-22.5 -51.5zM364 193q0 25 -12 42t-36 31l-28 -157q34 7 55 27.5t21 56.5z" />
    <glyph glyph-name="percent" unicode="%" horiz-adv-x="841" 
d="M105 39l561 662l67 -58l-561 -662zM221 358q-36 0 -65.5 11.5t-51 31.5t-33 47.5t-11.5 59.5q0 38 14.5 73t41 61.5t64 42t82.5 15.5q34 0 62.5 -11t49.5 -31.5t32.5 -48t11.5 -60.5q0 -40 -15.5 -75t-42 -60.5t-62.5 -40.5t-77 -15zM230 456q34 0 56.5 24.5t22.5 59.5
q0 28 -16.5 45t-41.5 17q-37 0 -59.5 -24t-22.5 -59q0 -29 18 -46t43 -17zM582 -16q-36 0 -66 11.5t-51.5 31.5t-33 47.5t-11.5 59.5q0 38 14.5 73t41.5 61.5t64.5 42t82.5 15.5q34 0 62.5 -11t49.5 -31.5t32.5 -48t11.5 -60.5q0 -40 -15.5 -75t-42 -60.5t-62.5 -40.5
t-77 -15zM590 82q34 0 57 24.5t23 59.5q0 28 -17 45t-42 17q-36 0 -59 -24t-23 -59q0 -29 18 -46t43 -17z" />
    <glyph glyph-name="ampersand" unicode="&#x26;" horiz-adv-x="647" 
d="M500 138l55 -89l-107 -65l-36 57q-38 -30 -80.5 -43.5t-97.5 -13.5q-47 0 -88 15.5t-71.5 44t-48.5 69.5t-18 91q0 78 39 139t114 102q-11 23 -18 46t-7 48q0 39 14 74t41 61.5t65 42t86 15.5q36 0 64.5 -9.5t49.5 -26t35 -39t23 -48.5l-117 -51q-5 24 -23.5 41.5
t-47.5 17.5t-48 -18.5t-19 -45.5q0 -17 5.5 -31t16.5 -31l162 -262l79 106l82 -62zM259 102q53 0 95 31l-137 219q-38 -23 -59.5 -54.5t-21.5 -74.5q0 -28 10 -50.5t27 -38t39 -24t47 -8.5z" />
    <glyph glyph-name="quotesingle" unicode="'" horiz-adv-x="207" 
d="M67 490l40 226h119l-40 -226h-119z" />
    <glyph glyph-name="parenleft" unicode="(" horiz-adv-x="359" 
d="M404 706q-104 -103 -161.5 -213t-57.5 -245q0 -50 6 -93.5t16.5 -81.5t25.5 -72.5t34 -67.5l-98 -69q-22 33 -43 73.5t-37 88.5t-25.5 103t-9.5 116q0 155 70 291.5t196 243.5z" />
    <glyph glyph-name="parenright" unicode=")" horiz-adv-x="359" 
d="M-45 -62q52 51 92.5 104t68.5 109t42.5 116.5t14.5 128.5q0 100 -22 175t-59 140l97 69q22 -33 43 -73.5t37 -88.5t25.5 -103t9.5 -116q0 -155 -69.5 -291.5t-196.5 -243.5z" />
    <glyph glyph-name="asterisk" unicode="*" horiz-adv-x="464" 
d="M116 638l102 -39l9 3l20 114h95l-21 -114l8 -3l104 35l26 -86l-116 -43l-5 -9l56 -97l-85 -52l-56 100h-8l-88 -100l-70 59l90 99l-2 9l-94 36z" />
    <glyph glyph-name="plus" unicode="+" horiz-adv-x="569" 
d="M337 329h170l-20 -116h-171l-30 -170h-116l30 170h-170l20 116h171l30 170h116z" />
    <glyph glyph-name="comma" unicode="," horiz-adv-x="271" 
d="M-31 -88l75 92q-16 11 -29 28.5t-13 48.5q0 18 7 33.5t19 27.5t27.5 18.5t33.5 6.5q36 0 61.5 -25t25.5 -61q0 -18 -8.5 -35t-25.5 -37l-118 -142z" />
    <glyph glyph-name="hyphen" unicode="-" horiz-adv-x="451" 
d="M57 368h339l-21 -116h-338z" />
    <glyph glyph-name="period" unicode="." horiz-adv-x="269" 
d="M86 -6q-36 0 -61.5 25.5t-25.5 61.5t25.5 61t61.5 25t61.5 -25t25.5 -61t-25.5 -61.5t-61.5 -25.5z" />
    <glyph glyph-name="slash" unicode="/" horiz-adv-x="480" 
d="M-38 0l423 716h132l-424 -716h-131z" />
    <glyph glyph-name="zero" unicode="0" horiz-adv-x="662" 
d="M279 -16q-54 0 -98.5 19.5t-77 57.5t-50.5 94t-18 129q0 84 25.5 159.5t71 132.5t109 90.5t140.5 33.5q53 0 98 -19.5t77.5 -57.5t50.5 -94t18 -129q0 -84 -25.5 -159.5t-71.5 -132.5t-109.5 -90.5t-139.5 -33.5zM292 107q46 0 83 26t63 67t40 90.5t14 96.5
q0 93 -34.5 141.5t-90.5 48.5q-46 0 -83 -26t-62.5 -67t-39.5 -90.5t-14 -96.5q0 -93 34.5 -141.5t89.5 -48.5z" />
    <glyph glyph-name="one" unicode="1" horiz-adv-x="424" 
d="M145 0l93 529l-116 -46l-42 107l218 94h99l-121 -684h-131z" />
    <glyph glyph-name="two" unicode="2" horiz-adv-x="545" 
d="M-15 0l20 119q68 58 127 108q25 21 51 43q25 22 48 41q22 19 40 34.5t28 24.5q19 17 34.5 31.5t27 29t17.5 30.5t6 36q0 33 -25 56.5t-64 23.5q-45 0 -71 -25t-39 -60l-116 50q12 30 31.5 58.5t48.5 50.5t68.5 35.5t91.5 13.5q46 0 85 -13.5t67 -37.5t43.5 -57.5
t15.5 -73.5q0 -36 -10.5 -67t-29.5 -59t-46 -54.5t-60 -54.5q-3 -2 -12 -10q-10 -9 -23.5 -21t-30.5 -26t-34 -29q-40 -34 -90 -76l2 -6h273l-20 -115h-454z" />
    <glyph glyph-name="three" unicode="3" horiz-adv-x="560" 
d="M228 -16q-42 0 -80 12t-68 34.5t-50 56t-27 77.5l128 48q5 -49 35 -74.5t76 -25.5q25 0 46.5 7t38 20t26 31.5t9.5 42.5q0 42 -29 63t-80 21h-59l21 119h54q51 0 86 23t35 70q0 32 -23.5 51t-58.5 19q-21 0 -37 -6.5t-28.5 -17.5t-22 -25t-16.5 -29l-116 52q12 28 32 55
t48.5 47t67 32.5t89.5 12.5q44 0 81 -13t63.5 -36t41.5 -53.5t15 -66.5q0 -32 -9 -58t-25 -46.5t-36.5 -35.5t-44.5 -25l-1 -8q34 -18 59.5 -53.5t25.5 -86.5q0 -54 -20 -97.5t-56 -74t-85 -46.5t-106 -16z" />
    <glyph glyph-name="four" unicode="4" horiz-adv-x="616" 
d="M292 0l22 126h-315l19 109l378 449h147l-76 -436h85l-22 -122h-85l-23 -126h-130zM378 489h-8l-201 -241h167z" />
    <glyph glyph-name="five" unicode="5" 
d="M233 -16q-39 0 -76.5 11.5t-68.5 34.5t-52.5 57.5t-27.5 81.5l125 46q5 -49 33.5 -79.5t76.5 -30.5q26 0 49.5 8.5t41.5 25t29 39.5t11 53q0 43 -26 71.5t-70 28.5q-31 0 -57.5 -13t-46.5 -33l-119 51l101 348h386l-20 -115h-277l-54 -160l7 -3q21 17 49.5 29.5
t66.5 12.5q40 0 75 -14t61 -40t41 -63.5t15 -85.5q0 -54 -19 -101.5t-54.5 -83t-86 -56t-113.5 -20.5z" />
    <glyph glyph-name="six" unicode="6" horiz-adv-x="568" 
d="M335 440q32 0 63 -14.5t55.5 -40.5t39.5 -63.5t15 -82.5q0 -54 -19.5 -100.5t-55 -81t-86 -54t-112.5 -19.5q-49 0 -89.5 17t-70 46t-45.5 68t-16 83q0 40 9.5 73t27 63.5t42 60.5t54.5 63l218 246l89 -70l-174 -198l5 -6q22 10 50 10zM249 105q27 0 51 9t41 25.5
t27 39.5t10 51q0 44 -29.5 72t-76.5 28q-28 0 -51.5 -9.5t-41 -27t-27 -41t-9.5 -50.5q0 -44 31 -70.5t75 -26.5z" />
    <glyph glyph-name="seven" unicode="7" horiz-adv-x="546" 
d="M21 54l369 500l-2 6h-311l23 124h464l-22 -129l-424 -571z" />
    <glyph glyph-name="eight" unicode="8" horiz-adv-x="576" 
d="M233 -16q-52 0 -93.5 15.5t-71 41.5t-45 60t-15.5 72q0 63 38 112t101 74l1 8q-24 18 -42 47.5t-18 71.5q0 46 20 85.5t54.5 68t81 44.5t98.5 16q44 0 81 -13t63.5 -35.5t41 -54t14.5 -67.5q0 -60 -31 -101.5t-79 -65.5l-1 -8q33 -20 56 -54.5t23 -87.5t-21.5 -95
t-58.5 -72t-88 -46t-109 -16zM306 414q48 0 79 26t31 66q0 34 -24.5 55.5t-65.5 21.5q-47 0 -79.5 -24.5t-32.5 -69.5q0 -35 26 -55t66 -20zM244 105q27 0 51 7t42.5 21.5t29.5 35.5t11 48q0 35 -28 58.5t-73 23.5q-26 0 -50 -7.5t-42.5 -21.5t-30 -34.5t-11.5 -46.5
q0 -39 27.5 -61.5t73.5 -22.5z" />
    <glyph glyph-name="nine" unicode="9" horiz-adv-x="568" 
d="M233 245q-30 0 -61.5 14t-57 40.5t-41.5 63.5t-16 82q0 54 19.5 100.5t55 81t86 54t112.5 19.5q49 0 89.5 -16.5t70 -46t45.5 -69.5t16 -86q0 -38 -9.5 -70.5t-27 -62.5t-42 -60t-53.5 -63l-219 -246l-89 70l174 198l-5 6q-20 -9 -47 -9zM317 580q-28 0 -51.5 -9.5
t-41 -26t-27.5 -39.5t-10 -51q0 -44 29.5 -71.5t77.5 -27.5q28 0 51.5 9.5t40.5 26t26.5 39.5t9.5 49q0 22 -8.5 41t-22.5 32t-33.5 20.5t-40.5 7.5z" />
    <glyph glyph-name="colon" unicode=":" horiz-adv-x="269" 
d="M86 -6q-36 0 -61.5 25.5t-25.5 61.5t25.5 61t61.5 25t61.5 -25t25.5 -61t-25.5 -61.5t-61.5 -25.5zM145 329q-36 0 -61.5 25.5t-25.5 61.5t25.5 61.5t61.5 25.5t61.5 -25.5t25.5 -61.5t-25.5 -61.5t-61.5 -25.5z" />
    <glyph glyph-name="semicolon" unicode=";" horiz-adv-x="271" 
d="M141 329q-36 0 -61.5 25.5t-25.5 61.5t25.5 61.5t61.5 25.5t61.5 -25.5t25.5 -61.5t-25.5 -61.5t-61.5 -25.5zM-31 -82l75 92q-16 11 -29 28.5t-13 48.5q0 18 7 34t19 27.5t27.5 18.5t33.5 7q36 0 61.5 -25.5t25.5 -61.5q0 -18 -8.5 -35t-25.5 -37l-118 -141z" />
    <glyph glyph-name="less" unicode="&#x3c;" horiz-adv-x="531" 
d="M31 222l18 104l449 188l-23 -133l-277 -109l-2 -8l239 -110l-22 -126z" />
    <glyph glyph-name="equal" unicode="=" horiz-adv-x="581" 
d="M77 477h468l-20 -116h-469zM41 277h469l-21 -116h-469z" />
    <glyph glyph-name="greater" unicode="&#x3e;" horiz-adv-x="531" 
d="M469 320l-19 -104l-449 -188l24 133l277 109l1 8l-238 110l22 126z" />
    <glyph glyph-name="question" unicode="?" horiz-adv-x="514" 
d="M167 246l6 33q4 24 11 44.5t20 39t34.5 37.5t54.5 42q29 20 52 43.5t23 54.5t-22 51t-59 20q-42 0 -69 -25t-39 -59l-106 48q10 31 30.5 59.5t49.5 50t67 34.5t83 13q43 0 79 -13t62.5 -35.5t41 -54t14.5 -68.5q0 -30 -9.5 -55.5t-26 -48t-38 -42.5t-46.5 -40
q-20 -16 -33 -28.5t-22 -24.5t-14.5 -26t-9.5 -33l-3 -17h-131zM202 -6q-36 0 -61.5 25.5t-25.5 61.5t25.5 61t61.5 25t61 -25t25 -61t-25 -61.5t-61 -25.5z" />
    <glyph glyph-name="at" unicode="@" horiz-adv-x="877" 
d="M488 690q69 0 132.5 -22.5t111.5 -64.5t76.5 -102.5t28.5 -136.5q0 -53 -13.5 -101.5t-38.5 -85.5t-61.5 -59t-81.5 -22q-42 0 -70.5 19t-38.5 53q-25 -36 -62.5 -54t-79.5 -18q-35 0 -67 13t-56 37t-38 57t-14 72q0 41 14 82t41.5 73.5t68.5 53t96 20.5q41 0 67.5 -15
t40.5 -37h8l7 38h98l-44 -246q-1 -5 -1.5 -9t-0.5 -9q0 -20 10.5 -31.5t30.5 -11.5q21 0 37.5 15t28.5 39t18 54.5t6 62.5q0 52 -18 97t-52.5 78t-85 51.5t-114.5 18.5q-73 0 -134.5 -25t-106.5 -69t-70 -105t-25 -133q0 -57 20.5 -104t55 -81.5t80.5 -53.5t96 -19
q41 0 75.5 8.5t64.5 24.5l31 -87q-40 -19 -84 -28t-92 -9q-80 0 -144.5 28t-109.5 75t-69.5 109.5t-24.5 131.5q0 96 34.5 175t95 135t143.5 87t180 31zM410 193q24 0 45 9t36.5 25.5t24 39t8.5 49.5q0 42 -25.5 66.5t-63.5 24.5q-27 0 -48.5 -10t-37 -27t-23.5 -39.5
t-8 -47.5q0 -44 28 -67t64 -23z" />
    <glyph glyph-name="A" unicode="A" horiz-adv-x="716" 
d="M339 716h158l143 -716h-144l-31 171h-273l-90 -171h-153zM442 295l-33 180l-10 86h-8l-40 -86l-95 -180h186z" />
    <glyph glyph-name="B" unicode="B" horiz-adv-x="629" 
d="M135 716h254q52 0 92 -14.5t67 -38.5t41 -56t14 -67t-10.5 -62.5t-27.5 -48t-40 -34t-47 -20.5l-2 -8q39 -18 67 -54t28 -91q0 -51 -21 -92t-58 -70t-86.5 -44.5t-107.5 -15.5h-290zM354 424q51 0 82.5 23.5t31.5 68.5q0 35 -22 57t-62 22h-136l-30 -171h136zM315 123
q24 0 46 6.5t38.5 19t26 31t9.5 42.5q0 38 -24 62t-71 24h-143l-32 -185h150z" />
    <glyph glyph-name="C" unicode="C" horiz-adv-x="734" 
d="M664 113q-34 -35 -68 -59t-71 -40t-79 -23t-91 -7q-68 0 -127 23t-103 66t-69.5 104.5t-25.5 138.5q0 84 32 159.5t89 132.5t136 90.5t174 33.5q91 0 156 -33t104 -90l-108 -88q-29 39 -69 61t-101 22q-57 0 -107 -22t-88 -60t-60 -89t-22 -110q0 -48 15.5 -87
t42.5 -66.5t64 -42.5t81 -15q64 0 114 26.5t95 71.5z" />
    <glyph glyph-name="D" unicode="D" horiz-adv-x="719" 
d="M135 716h228q79 0 140 -23.5t102 -65t62 -99t21 -126.5q0 -80 -29.5 -152.5t-85 -128t-134.5 -88.5t-179 -33h-252zM267 128q64 0 117 20t90.5 55t58 82t20.5 102q0 97 -50.5 149t-153.5 52h-102l-82 -460h102z" />
    <glyph glyph-name="E" unicode="E" horiz-adv-x="578" 
d="M247 588l-29 -166h287l-23 -128h-287l-30 -166h320l-23 -128h-454l127 716h454l-23 -128h-319z" />
    <glyph glyph-name="F" unicode="F" horiz-adv-x="558" 
d="M135 716h454l-23 -128h-319l-31 -174h287l-22 -128h-287l-51 -286h-135z" />
    <glyph glyph-name="G" unicode="G" horiz-adv-x="810" 
d="M418 393h351v-30q0 -86 -33.5 -158t-87.5 -121q-53 -48 -122.5 -74t-148.5 -26q-77 0 -140.5 25t-109 70t-71 107.5t-25.5 137.5q0 81 31 155t88 130t136.5 89.5t177.5 33.5q90 0 158 -31.5t110 -85.5l-107 -91q-25 35 -70 57.5t-106 22.5q-58 0 -109.5 -19.5
t-89.5 -55.5t-60.5 -86.5t-22.5 -112.5q0 -51 16.5 -91.5t46 -68.5t69 -43t85.5 -15q102 0 167 57q24 20 40 47.5t27 61.5h-220z" />
    <glyph glyph-name="H" unicode="H" horiz-adv-x="715" 
d="M135 716h135l-51 -286h302l51 286h134l-127 -716h-134l53 302h-302l-53 -302h-135z" />
    <glyph glyph-name="I" unicode="I" horiz-adv-x="279" 
d="M135 716h135l-127 -716h-135z" />
    <glyph glyph-name="J" unicode="J" horiz-adv-x="555" 
d="M208 -16q-42 0 -79 12.5t-66.5 35.5t-48.5 54.5t-24 70.5l130 50q5 -47 33 -71t69 -24q47 0 77 30t40 84l86 490h134l-86 -489q-11 -65 -35.5 -111t-59.5 -75t-78 -43t-92 -14z" />
    <glyph glyph-name="K" unicode="K" horiz-adv-x="669" 
d="M701 708l-312 -298l213 -402l-2 -8h-158l-161 307l-101 -97l-37 -210h-135l127 716h135l-54 -303h8l312 303h167z" />
    <glyph glyph-name="L" unicode="L" horiz-adv-x="534" 
d="M135 716h135l-105 -588h304l-23 -128h-438z" />
    <glyph glyph-name="M" unicode="M" horiz-adv-x="857" 
d="M135 716h129l152 -379h8l284 379h140l-127 -716h-134l63 353l29 120h-8l-239 -321h-78l-129 321h-8l-13 -120l-63 -353h-133z" />
    <glyph glyph-name="N" unicode="N" horiz-adv-x="723" 
d="M135 716h150l210 -480h8l17 138l60 342h134l-127 -716h-134l-222 507h-8l-16 -138l-66 -369h-133z" />
    <glyph glyph-name="O" unicode="O" horiz-adv-x="822" 
d="M366 -16q-72 0 -133.5 24t-106.5 67.5t-70.5 105t-25.5 136.5q0 84 31 159.5t87 132t134.5 90t173.5 33.5q75 0 137 -25t106 -69.5t68.5 -105.5t24.5 -133q0 -84 -31 -159t-87 -132t-134.5 -90.5t-173.5 -33.5zM380 112q57 0 107 22.5t87.5 60.5t59.5 88t22 106
q0 49 -16.5 88.5t-45.5 67.5t-68 43.5t-84 15.5q-59 0 -109 -23t-87.5 -61.5t-58.5 -88.5t-21 -104q0 -49 16.5 -88.5t45.5 -67.5t68 -43.5t84 -15.5z" />
    <glyph glyph-name="P" unicode="P" horiz-adv-x="592" 
d="M8 0l127 716h240q48 0 88 -15t69.5 -42t46 -65t16.5 -84q0 -59 -20.5 -105t-57.5 -77.5t-88.5 -48t-112.5 -16.5h-127l-46 -263h-135zM334 391q54 0 90 26.5t36 82.5q0 39 -23.5 63.5t-68.5 24.5h-121l-35 -197h122z" />
    <glyph glyph-name="Q" unicode="Q" horiz-adv-x="822" 
d="M366 -16q-72 0 -133.5 24t-106.5 67.5t-70.5 105t-25.5 136.5q0 84 31 159.5t87 132t134.5 90t173.5 33.5q75 0 137 -25t106 -69.5t68.5 -105.5t24.5 -133q0 -100 -42.5 -186t-119.5 -144l38 -76l-119 -61l-37 75q-34 -11 -70.5 -17t-75.5 -6zM380 112q41 0 75 10
l-59 121l119 62l56 -115q39 38 62 89.5t23 109.5q0 49 -16.5 88.5t-45.5 67.5t-68 43.5t-84 15.5q-59 0 -109 -23t-87.5 -61.5t-58.5 -88.5t-21 -104q0 -49 16.5 -88.5t45.5 -67.5t68 -43.5t84 -15.5z" />
    <glyph glyph-name="R" unicode="R" horiz-adv-x="620" 
d="M135 716h236q51 0 93 -15.5t72 -42.5t46 -63t16 -78q0 -46 -15 -84.5t-40.5 -68.5t-59.5 -50t-73 -29l-2 -7l140 -270l-2 -8h-147l-138 269h-70l-48 -269h-135zM338 393q54 0 89 27.5t35 83.5q0 38 -25.5 63t-70.5 25h-119l-35 -199h126z" />
    <glyph glyph-name="S" unicode="S" horiz-adv-x="575" 
d="M237 -16q-45 0 -85 12.5t-72 38t-54 63.5t-30 89l129 52q2 -27 11 -50t25 -40t38.5 -27t51.5 -10q52 0 88 25.5t36 69.5q0 37 -26 62t-90 50l-35 14q-29 11 -55.5 27.5t-46.5 39.5t-32 53.5t-12 69.5q0 45 19.5 83.5t53.5 66t80.5 43.5t100.5 16q55 0 94 -15t64.5 -38
t39.5 -49.5t19 -50.5l-124 -47q-7 32 -32.5 54t-74.5 22q-20 0 -39 -5.5t-34 -15.5t-24 -25t-9 -34q0 -33 24.5 -54.5t75.5 -40.5l42 -15q72 -27 114.5 -73t42.5 -123q0 -52 -20 -95.5t-56 -75t-86.5 -49.5t-111.5 -18z" />
    <glyph glyph-name="T" unicode="T" horiz-adv-x="583" 
d="M160 0l104 588h-200l23 128h535l-23 -128h-200l-104 -588h-135z" />
    <glyph glyph-name="U" unicode="U" horiz-adv-x="669" 
d="M278 -16q-53 0 -97 17t-75.5 48t-49 74.5t-17.5 96.5q0 15 1.5 35.5t6.5 48.5l73 412h135l-77 -435q-2 -14 -3.5 -25t-1.5 -22q0 -55 30 -88.5t93 -33.5q68 0 112 45t57 120l77 439h135l-79 -447q-26 -146 -109 -215.5t-211 -69.5z" />
    <glyph glyph-name="V" unicode="V" horiz-adv-x="680" 
d="M75 716h144l71 -432l11 -91h8l43 91l230 432h149l-386 -716h-142z" />
    <glyph glyph-name="W" unicode="W" horiz-adv-x="954" 
d="M686 0h-131l-52 346l-7 78h-8l-34 -78l-172 -346h-132l-71 716h141l36 -418l3 -77h8l35 77l157 322h128l47 -322l7 -76h8l28 76l179 418h145z" />
    <glyph glyph-name="X" unicode="X" horiz-adv-x="688" 
d="M259 377l-171 339h169l104 -231h8l182 231h174l-291 -351l183 -365h-165l-121 251h-8l-202 -251h-174z" />
    <glyph glyph-name="Y" unicode="Y" horiz-adv-x="637" 
d="M189 0l59 333l-173 383h156l101 -237h8l181 237h167l-305 -383l-59 -333h-135z" />
    <glyph glyph-name="Z" unicode="Z" horiz-adv-x="596" 
d="M-7 136l436 452h-341l23 128h504l-24 -136l-433 -452h357l-23 -128h-523z" />
    <glyph glyph-name="bracketleft" unicode="[" horiz-adv-x="352" 
d="M152 792h248l-19 -108h-120l-123 -700h120l-19 -108h-247z" />
    <glyph glyph-name="backslash" unicode="\" horiz-adv-x="480" 
d="M262 0l-170 716h124l170 -716h-124z" />
    <glyph glyph-name="bracketright" unicode="]" horiz-adv-x="352" 
d="M199 -124h-248l19 108h120l123 700h-120l19 108h247z" />
    <glyph glyph-name="asciicircum" unicode="^" horiz-adv-x="515" 
d="M380 410l-74 182h-8l-135 -182h-142l245 306h109l137 -306h-132z" />
    <glyph glyph-name="underscore" unicode="_" horiz-adv-x="499" 
d="M-61 -100h497l-20 -116h-498z" />
    <glyph glyph-name="grave" unicode="`" horiz-adv-x="443" 
d="M226 588l-65 136h148l19 -136h-102z" />
    <glyph glyph-name="a" unicode="a" horiz-adv-x="535" 
d="M290 506q101 0 154 -48t53 -126q0 -12 -1.5 -24.5t-3.5 -26.5l-50 -281h-129l9 52h-8q-23 -29 -57.5 -48.5t-83.5 -19.5q-37 0 -67.5 11.5t-52 32t-33.5 49t-12 61.5q0 42 16.5 75t47 56.5t73 36t93.5 12.5q37 0 67.5 -6.5t58.5 -16.5l4 15q2 10 2 16q0 32 -26.5 53
t-69.5 21q-38 0 -67 -14.5t-52 -41.5l-88 64q40 51 98 74.5t125 23.5zM216 86q25 0 47.5 9.5t40 25t29 36t15.5 42.5q-15 7 -42.5 15.5t-63.5 8.5q-42 0 -72 -18.5t-30 -56.5q0 -31 22.5 -46.5t53.5 -15.5z" />
    <glyph glyph-name="b" unicode="b" horiz-adv-x="600" 
d="M285 -16q-54 0 -92.5 21.5t-58.5 53.5h-8l-10 -59h-123l126 716h131l-38 -215l-20 -70h8q20 28 58 51.5t97 23.5q42 0 78.5 -16t64 -45.5t43.5 -71.5t16 -95q0 -62 -21.5 -115.5t-58.5 -93.5t-86.5 -62.5t-105.5 -22.5zM273 105q31 0 59 12.5t48.5 34t32.5 50t12 61.5
q0 55 -30.5 88.5t-84.5 33.5q-36 0 -64.5 -13.5t-48.5 -36t-30.5 -51.5t-10.5 -61q0 -29 9.5 -51t25.5 -37t37 -22.5t45 -7.5z" />
    <glyph glyph-name="c" unicode="c" horiz-adv-x="545" 
d="M243 -16q-52 0 -96 17t-75.5 47.5t-49 73t-17.5 93.5q0 58 21 110.5t60 92.5t95 64t126 24q85 0 140 -39.5t75 -103.5l-126 -49q-25 71 -107 71q-33 0 -61.5 -12.5t-48.5 -34t-31.5 -50t-11.5 -60.5q0 -27 9 -50t24.5 -39t36.5 -25t45 -9q44 0 74.5 19.5t51.5 54.5
l112 -54q-48 -76 -107.5 -108.5t-138.5 -32.5z" />
    <glyph glyph-name="d" unicode="d" horiz-adv-x="600" 
d="M207 -16q-44 0 -81 17t-64 48t-42 73.5t-15 92.5q0 58 20 110.5t57 92.5t87.5 64t112.5 24q49 0 89.5 -21.5t57.5 -53.5h8l3 70l38 215h130l-126 -716h-122l10 59h-8q-20 -29 -57.5 -52t-97.5 -23zM286 385q-33 0 -60.5 -13t-47.5 -35t-31 -51t-11 -61q0 -55 33 -87.5
t87 -32.5q29 0 56 12t47.5 33t33 51t12.5 66q0 54 -33 86t-86 32z" />
    <glyph glyph-name="e" unicode="e" horiz-adv-x="556" 
d="M482 120q-43 -64 -101 -100t-145 -36q-54 0 -96.5 18t-72.5 49.5t-46 74t-16 90.5q0 57 21 109t59 92.5t92 64.5t120 24q54 0 94.5 -16.5t68 -44.5t41.5 -65t14 -78q0 -47 -14 -87h-369v-10q2 -54 35.5 -79.5t78.5 -25.5q48 0 81 18.5t56 53.5zM393 308v4
q0 34 -26.5 60.5t-80.5 26.5q-49 0 -85.5 -26.5t-50.5 -64.5h243z" />
    <glyph glyph-name="f" unicode="f" horiz-adv-x="397" 
d="M358 724q26 0 50 -7t41 -18l-53 -112q-9 6 -20 9.5t-25 3.5q-67 0 -79 -70l-7 -40h122l-20 -112h-122l-66 -378h-131l66 378h-88l20 112h88l8 48q16 94 72 140t144 46z" />
    <glyph glyph-name="g" unicode="g" horiz-adv-x="597" 
d="M209 -232q-49 0 -87 13t-65.5 34t-44.5 48t-24 54l128 47q8 -39 35.5 -59.5t67.5 -20.5q132 0 158 139l7 41h-8q-22 -33 -61 -51t-88 -18q-43 0 -80 16t-64 45t-42.5 70.5t-15.5 92.5q0 52 18.5 103.5t53.5 92.5t85.5 66t115.5 25q50 0 87 -18.5t57 -50.5h8l9 53h126
l-85 -481q-21 -119 -94.5 -180t-196.5 -61zM269 113q30 0 57 12t47.5 34t33 51.5t12.5 65.5q0 27 -9.5 48t-25 35t-36 21t-41.5 7q-33 0 -61 -13.5t-48 -35.5t-31 -50.5t-11 -59.5q0 -57 33 -86t80 -29z" />
    <glyph glyph-name="h" unicode="h" 
d="M214 515l-24 -89h8q27 38 69 59t93 21q40 0 69 -12.5t48.5 -33.5t29 -49t9.5 -59q0 -23 -6 -59l-52 -293h-131l50 281q3 18 3 29q0 32 -19 53.5t-56 21.5q-30 0 -53.5 -11.5t-41 -31t-28.5 -46t-16 -57.5l-42 -239h-131l126 716h131z" />
    <glyph glyph-name="i" unicode="i" horiz-adv-x="259" 
d="M0 0l86 490h131l-86 -490h-131zM178 561q-35 0 -59.5 24.5t-24.5 59.5t24.5 59.5t59.5 24.5t59.5 -24.5t24.5 -59.5t-24.5 -59.5t-59.5 -24.5z" />
    <glyph glyph-name="j" unicode="j" horiz-adv-x="259" 
d="M-61 -226q-20 0 -43 3.5t-39 10.5l47 116q15 -9 33 -9q22 0 35.5 12.5t18.5 41.5l95 541h131l-96 -544q-9 -50 -25 -83t-39 -52.5t-52.5 -28t-65.5 -8.5zM178 561q-35 0 -59.5 24.5t-24.5 59.5t24.5 59.5t59.5 24.5t59.5 -24.5t24.5 -59.5t-24.5 -59.5t-59.5 -24.5z" />
    <glyph glyph-name="k" unicode="k" horiz-adv-x="530" 
d="M183 333h8l182 157h169l-2 -8l-216 -180l148 -294l-2 -8h-148l-102 216l-68 -57l-28 -159h-131l126 716h131z" />
    <glyph glyph-name="l" unicode="l" horiz-adv-x="243" 
d="M-7 0l126 716h131l-126 -716h-131z" />
    <glyph glyph-name="m" unicode="m" horiz-adv-x="880" 
d="M79 490h123l-12 -64h8q28 38 66 59t92 21q56 0 90 -26t47 -64q26 38 68.5 64t108.5 26q37 0 66 -11.5t48 -31.5t29 -47.5t10 -59.5q0 -13 -1 -25.5t-4 -28.5l-54 -302h-130l50 285q3 16 3 32q0 31 -17 49.5t-53 18.5q-25 0 -46.5 -11.5t-38.5 -31t-28.5 -46.5t-17.5 -58
l-42 -238h-131l50 285q3 15 3 31q0 33 -19 51t-53 18q-25 0 -46 -11.5t-37.5 -31t-27.5 -46.5t-17 -58l-42 -238h-131z" />
    <glyph glyph-name="n" unicode="n" 
d="M190 426h8q26 38 68 59t93 21q38 0 67 -12.5t49 -33.5t30 -49.5t10 -60.5q0 -14 -1 -29t-4 -32l-52 -289h-130l50 281q1 5 1.5 13.5t0.5 16.5q0 32 -19 53t-57 21q-30 0 -53 -11t-40 -30.5t-28 -46t-17 -57.5l-42 -240h-131l86 490h123z" />
    <glyph glyph-name="o" unicode="o" horiz-adv-x="576" 
d="M303 506q53 0 96.5 -18t74 -49t47 -72.5t16.5 -88.5q0 -62 -22 -116t-61.5 -93.5t-94.5 -62t-120 -22.5q-53 0 -96.5 18t-74 49t-47 72.5t-16.5 89.5q0 62 22 115.5t61.5 93t94.5 62t120 22.5zM252 105q33 0 61 12.5t49 34.5t32.5 50.5t11.5 61.5q0 26 -9 48.5
t-24.5 38.5t-37 25t-45.5 9q-33 0 -61 -12.5t-49 -34.5t-32.5 -50.5t-11.5 -61.5q0 -26 9 -48.5t25 -38.5t37 -25t45 -9z" />
    <glyph glyph-name="p" unicode="p" horiz-adv-x="596" 
d="M367 506q44 0 81 -17.5t64 -48t42 -73t15 -92.5q0 -58 -20 -110.5t-57 -92.5t-88 -64t-112 -24q-49 0 -89.5 21.5t-57.5 53.5h-8l-3 -70l-36 -205h-131l125 706h122l-10 -59h8q20 29 57.5 52t97.5 23zM288 105q33 0 60.5 13t47.5 35t31 51t11 61q0 55 -33 87.5t-87 32.5
q-29 0 -56 -12t-47.5 -33t-33 -51t-12.5 -66q0 -54 33 -86t86 -32z" />
    <glyph glyph-name="q" unicode="q" horiz-adv-x="596" 
d="M314 -216l36 205l20 70h-8q-20 -28 -58 -51.5t-97 -23.5q-42 0 -78.5 16t-64 45.5t-43.5 71.5t-16 95q0 62 21.5 115.5t58.5 93.5t86.5 62.5t105.5 22.5q54 0 92.5 -21.5t58.5 -53.5h8l10 59h122l-123 -706h-131zM289 385q-32 0 -59.5 -12.5t-48.5 -34t-33 -50t-12 -61.5
q0 -55 31 -88.5t84 -33.5q36 0 64.5 13.5t49 36t31 51.5t10.5 61q0 28 -9.5 50t-25.5 37t-37 23t-45 8z" />
    <glyph glyph-name="r" unicode="r" horiz-adv-x="407" 
d="M-7 0l86 490h123l-12 -68h8q24 35 62 58.5t89 23.5q26 0 42.5 -5t28.5 -13l-49 -119q-11 5 -25.5 9t-35.5 4q-57 0 -95.5 -39.5t-49.5 -103.5l-41 -237h-131z" />
    <glyph glyph-name="s" unicode="s" horiz-adv-x="483" 
d="M200 -16q-45 0 -81 11t-62.5 30t-44 44.5t-26.5 54.5l121 49q8 -38 36.5 -56t66.5 -18q34 0 57.5 12.5t23.5 35.5q0 20 -16 32.5t-51 21.5l-53 13q-23 6 -46 17t-41 28t-29.5 40t-11.5 52q0 37 16.5 65.5t45.5 48.5t68 30.5t85 10.5q147 0 195 -118l-120 -44
q-8 27 -32 41.5t-54 14.5q-35 0 -54 -11.5t-19 -30.5q0 -32 55 -46l69 -18q63 -16 94.5 -52t31.5 -83q0 -41 -17 -73.5t-47 -55t-71 -34.5t-89 -12z" />
    <glyph glyph-name="t" unicode="t" horiz-adv-x="401" 
d="M220 -8q-64 0 -105 34t-41 104q0 11 1 23.5t4 29.5l34 195h-86l20 112h86l27 150h131l-27 -150h120l-19 -112h-121l-33 -189q-2 -10 -2 -13v-10q0 -21 10.5 -35.5t36.5 -14.5q16 0 26.5 3.5t20.5 9.5l20 -119q-20 -9 -45 -13.5t-58 -4.5z" />
    <glyph glyph-name="u" unicode="u" 
d="M345 64h-8q-26 -38 -68 -59t-93 -21q-38 0 -67 12.5t-49 33.5t-30 49.5t-10 60.5q0 14 1 28t4 33l52 289h130l-50 -281q-1 -6 -1.5 -12.5t-0.5 -17.5q0 -32 19 -53t57 -21q30 0 53 11t40 30.5t28 46t17 57.5l42 240h131l-86 -490h-123z" />
    <glyph glyph-name="v" unicode="v" horiz-adv-x="557" 
d="M30 490h148l61 -312h8l178 312h151l-297 -490h-130z" />
    <glyph glyph-name="w" unicode="w" horiz-adv-x="805" 
d="M442 0l-44 309h-6l-153 -309h-139l-72 490h140l31 -307h7l152 307h136l45 -307h7l132 307h146l-241 -490h-141z" />
    <glyph glyph-name="x" unicode="x" horiz-adv-x="514" 
d="M291 0l-67 143h-6l-113 -143h-161l215 257l-126 233h155l63 -136h7l108 136h161l-212 -242l128 -248h-152z" />
    <glyph glyph-name="y" unicode="y" horiz-adv-x="553" 
d="M8 -216l151 245l-122 461h146l71 -298h8l173 298h148l-432 -706h-143z" />
    <glyph glyph-name="z" unicode="z" horiz-adv-x="479" 
d="M-12 108l293 270h-238l20 112h403l-19 -108l-295 -270h250l-19 -112h-414z" />
    <glyph glyph-name="braceleft" unicode="{" horiz-adv-x="337" 
d="M190 -124q-34 0 -62.5 10t-48.5 28.5t-31.5 45t-11.5 59.5q0 19 3 40l27 154q1 5 1 9v8q0 49 -53 49l19 110q26 0 48 15.5t28 50.5l29 163q14 80 65 127t141 47h41l-19 -108h-16q-36 0 -58 -21t-29 -59l-26 -146q-9 -51 -29 -80t-62 -40l-2 -8q29 -8 41.5 -27.5
t12.5 -49.5q0 -11 -1 -21t-3 -22l-26 -146q-1 -7 -1.5 -11.5t-0.5 -11.5q0 -29 17.5 -43t43.5 -14h16l-19 -108h-34z" />
    <glyph glyph-name="bar" unicode="|" horiz-adv-x="264" 
d="M152 792h120l-160 -912h-120z" />
    <glyph glyph-name="braceright" unicode="}" horiz-adv-x="337" 
d="M147 792q34 0 62 -10t48.5 -28.5t32 -45t11.5 -59.5q0 -11 -1 -18.5t-3 -21.5l-27 -154q-1 -5 -1 -8v-9q0 -49 54 -49l-20 -110q-25 0 -47.5 -15.5t-28.5 -50.5l-28 -163q-14 -80 -65.5 -127t-141.5 -47h-41l19 108h17q35 0 57 21t29 59l26 146q9 51 29.5 80t62.5 40l1 8
q-54 16 -54 77q0 11 1.5 21t3.5 22l25 146q2 8 2.5 12.5t0.5 10.5q0 29 -17.5 43t-43.5 14h-17l19 108h35z" />
    <glyph glyph-name="asciitilde" unicode="~" horiz-adv-x="554" 
d="M350 223q-33 0 -58 9t-46 21q-22 11 -42 20t-42 9q-23 0 -37.5 -12.5t-19.5 -30.5h-106q11 70 52.5 112t120.5 42q34 0 59 -9t46 -20q21 -12 40.5 -21t42.5 -9t37 12.5t20 30.5h106q-12 -70 -53 -112t-120 -42z" />
    <glyph glyph-name="uni00A0" unicode="&#xa0;" horiz-adv-x="220" 
d="M0 0z" />
    <glyph glyph-name="exclamdown" unicode="&#xa1;" horiz-adv-x="269" 
d="M161 506q36 0 61.5 -25.5t25.5 -61.5t-25.5 -61t-61.5 -25t-61.5 25t-25.5 61t25.5 61.5t61.5 25.5zM153 -10l-36 -206h-135l36 206l60 264h109z" />
    <glyph glyph-name="cent" unicode="&#xa2;" horiz-adv-x="539" 
d="M189 88q-38 8 -68.5 27.5t-52.5 48t-34 65.5t-12 79q0 57 18.5 107t52.5 88.5t81.5 63t105.5 31.5l15 86h90l-16 -87q64 -11 101.5 -46.5t55.5 -86.5l-114 -46q-17 51 -62 67l-51 -289q34 8 55 26t41 48l95 -45q-38 -63 -87.5 -98t-123.5 -43l-15 -84h-90zM143 322
q0 -44 17.5 -75t48.5 -45l51 283q-27 -8 -48.5 -23.5t-36.5 -37t-23.5 -48t-8.5 -54.5z" />
    <glyph glyph-name="sterling" unicode="&#xa3;" horiz-adv-x="538" 
d="M367 505q-5 32 -24.5 55.5t-63.5 23.5t-72.5 -30t-28.5 -75q0 -38 12 -71.5t24 -65.5h135l-17 -100h-105q-6 -36 -25.5 -66t-48.5 -53l4 -7h148q33 0 51.5 15t31.5 44l94 -44q-26 -64 -69.5 -97.5t-121.5 -33.5h-321l18 106q21 8 41 21t36.5 30.5t27.5 39t13 45.5h-91
l17 100h55q-12 31 -22.5 65t-10.5 77q0 45 17 84.5t48.5 69t76 46t99.5 16.5q46 0 80 -12.5t57.5 -33.5t37.5 -47.5t20 -54.5z" />
    <glyph glyph-name="currency" unicode="&#xa4;" horiz-adv-x="609" 
d="M304 106q-34 0 -65 9.5t-57 26.5l-58 -57l-64 65l58 57q-16 26 -25 55.5t-9 62.5t9 63t25 55l-58 58l64 64l58 -57q26 17 57 26.5t65 9.5q35 0 66 -9.5t57 -26.5l58 57l64 -64l-58 -58q16 -25 24.5 -55t8.5 -63q0 -65 -33 -118l58 -57l-64 -65l-58 57q-26 -17 -57 -26.5
t-66 -9.5zM304 209q24 0 44.5 9t35.5 24.5t23.5 37t8.5 45.5t-8.5 45.5t-23.5 37t-35.5 24.5t-44.5 9t-44.5 -9t-35.5 -24.5t-23.5 -37t-8.5 -45.5t8.5 -45.5t23.5 -37t35.5 -24.5t44.5 -9z" />
    <glyph glyph-name="yen" unicode="&#xa5;" horiz-adv-x="632" 
d="M377 312l-11 -63h161l-20 -116h-162l-24 -133h-134l23 133h-165l20 116h166l11 63h-166l21 116h91l-119 256h157l80 -189l18 -67h8l40 67l142 189h163l-207 -256h89l-21 -116h-161z" />
    <glyph glyph-name="brokenbar" unicode="&#xa6;" horiz-adv-x="264" 
d="M80 376l67 380h120l-67 -380h-120zM-7 -120l72 412h120l-72 -412h-120z" />
    <glyph glyph-name="section" unicode="&#xa7;" horiz-adv-x="560" 
d="M201 -232q-49 0 -90 15t-71 41.5t-47.5 62t-20.5 77.5l117 43q7 -53 37.5 -85.5t84.5 -32.5q21 0 40.5 5.5t34.5 16t24 26.5t9 36q0 40 -27.5 61t-87.5 42l-30 11q-58 20 -96.5 63.5t-38.5 100.5q0 54 29 95t75 67q-23 23 -37.5 53.5t-14.5 65.5q0 45 19 81.5t52 63
t77 41t94 14.5q46 0 81 -12.5t60 -33.5t40.5 -48.5t23.5 -57.5l-128 -47q-3 14 -9.5 28t-17.5 25t-27.5 18t-39.5 7q-18 0 -34.5 -4.5t-29 -13t-20.5 -20.5t-8 -28q0 -30 23 -50t79 -40l29 -10q74 -27 112 -70t38 -108q0 -59 -28 -99.5t-66 -66.5q19 -21 29.5 -49t10.5 -64
q0 -45 -20 -85t-54 -70t-79.5 -47.5t-96.5 -17.5zM261 182l12 -4t19 -7t19 -7q8 -4 11 -5q20 14 35 35t15 48q0 38 -25 62.5t-84 45.5l-26 9q-28 -12 -49.5 -33.5t-21.5 -50.5q0 -32 24.5 -54t70.5 -39z" />
    <glyph glyph-name="dieresis" unicode="&#xa8;" horiz-adv-x="452" 
d="M372 587q-29 0 -50 21.5t-21 50.5q0 30 21 51t50 21q31 0 51.5 -21t20.5 -51q0 -29 -20.5 -50.5t-51.5 -21.5zM182 587q-30 0 -51 21.5t-21 50.5q0 30 21 51t51 21t50.5 -21t20.5 -51q0 -29 -20.5 -50.5t-50.5 -21.5z" />
    <glyph glyph-name="copyright" unicode="&#xa9;" horiz-adv-x="532" 
d="M266 272q-48 0 -89.5 18t-73 49.5t-49.5 73t-18 89.5q0 47 18 89t49.5 73.5t73 49.5t89.5 18q47 0 89 -18t73.5 -49.5t49.5 -73.5t18 -89q0 -48 -18 -89.5t-49.5 -73t-73.5 -49.5t-89 -18zM266 320q38 0 71 14.5t58 39.5t39 58t14 70q0 38 -14 71t-39 58t-58 39t-71 14
q-37 0 -70 -14t-58 -39t-39.5 -58t-14.5 -71q0 -37 14.5 -70t39.5 -58t58 -39.5t70 -14.5zM270 383q-26 0 -47.5 9.5t-37.5 25.5t-25 38t-9 46q0 25 9 46.5t25 37.5t37.5 25.5t47.5 9.5q31 0 50.5 -11t36.5 -28l-32 -29q-11 11 -22 17.5t-33 6.5q-29 0 -51 -21.5t-22 -53.5
t22 -53.5t51 -21.5q21 0 35 8.5t25 22.5l34 -27q-16 -21 -39 -34.5t-55 -13.5z" />
    <glyph glyph-name="ordfeminine" unicode="&#xaa;" horiz-adv-x="495" 
d="M193 272q-32 0 -59 10t-46.5 27.5t-30.5 41.5t-11 53q0 37 15.5 67t42.5 51t63.5 32.5t78.5 11.5q39 0 69.5 -7t53.5 -18l2 13q1 5 1 8v6q0 32 -23.5 51t-63.5 19q-30 0 -58 -12.5t-46 -37.5l-78 54q30 43 81.5 66.5t113.5 23.5q89 0 140 -41t51 -112q0 -17 -3 -35
l-46 -258h-117l8 46h-8q-23 -26 -55.5 -43t-74.5 -17zM236 363q21 0 41 8t36 21.5t27 31t14 36.5q-13 6 -38.5 14t-57.5 8q-17 0 -33.5 -3.5t-29.5 -12t-21 -21t-8 -30.5q0 -26 20.5 -39t49.5 -13z" />
    <glyph glyph-name="guillemotleft" unicode="&#xab;" horiz-adv-x="610" 
d="M278 107l-84 -66l-171 230l252 230l67 -74l-181 -163zM501 107l-84 -66l-171 230l252 230l67 -74l-181 -163z" />
    <glyph glyph-name="logicalnot" unicode="&#xac;" horiz-adv-x="594" 
d="M54 404h466l-52 -299h-115l33 185h-352z" />
    <glyph glyph-name="uni00AD" unicode="&#xad;" horiz-adv-x="451" 
d="M57 368h339l-21 -116h-338z" />
    <glyph glyph-name="registered" unicode="&#xae;" horiz-adv-x="532" 
d="M266 272q-48 0 -89.5 18t-73 49.5t-49.5 73t-18 89.5q0 47 18 89t49.5 73.5t73 49.5t89.5 18q47 0 89 -18t73.5 -49.5t49.5 -73.5t18 -89q0 -48 -18 -89.5t-49.5 -73t-73.5 -49.5t-89 -18zM266 320q38 0 71 14.5t58 39.5t39 58t14 70q0 38 -14 71t-39 58t-58 39t-71 14
q-37 0 -70 -14t-58 -39t-39.5 -58t-14.5 -71q0 -37 14.5 -70t39.5 -58t58 -39.5t70 -14.5zM189 389v226h96q29 0 51 -20.5t22 -51.5q0 -23 -14.5 -41.5t-35.5 -24.5l-2 -2l60 -84v-2h-52l-55 84h-24v-84h-46zM281 515q12 0 21.5 7.5t9.5 20.5q0 10 -8 19t-22 9h-47v-56h46z
" />
    <glyph glyph-name="macron" unicode="&#xaf;" horiz-adv-x="416" 
d="M104 609l18 100h296l-18 -100h-296z" />
    <glyph glyph-name="degree" unicode="&#xb0;" horiz-adv-x="325" 
d="M186 442q-24 0 -45.5 8t-38 23t-26 36t-9.5 47q0 32 11 58.5t30.5 45.5t46 29.5t58.5 10.5q24 0 45.5 -8.5t38 -23.5t26 -36t9.5 -46q0 -32 -11 -58.5t-30.5 -45.5t-46.5 -29.5t-58 -10.5zM194 519q23 0 40 16.5t17 41.5q0 20 -12.5 33t-32.5 13q-24 0 -41 -16.5
t-17 -41.5q0 -21 13 -33.5t33 -12.5z" />
    <glyph glyph-name="plusminus" unicode="&#xb1;" horiz-adv-x="569" 
d="M354 424h170l-19 -108h-170l-26 -141h-116l26 141h-171l19 108h171l24 141h116zM-7 0l20 116h456l-20 -116h-456z" />
    <glyph glyph-name="twosuperior" unicode="&#xb2;" horiz-adv-x="317" 
d="M25 350l12 63q38 33 70 60q13 12 27 23q13 11 24 20.5t19 16.5q7 7 10 9q7 6 16 13t16.5 16t12.5 18.5t5 19.5q0 17 -11.5 26.5t-28.5 9.5q-39 0 -54 -48l-75 29q14 46 51.5 72t91.5 26q55 0 87 -28.5t32 -72.5q0 -38 -20 -63t-56 -57q-9 -8 -24 -20q-15 -13 -29 -25
q-17 -14 -35 -29h135l-15 -79h-261z" />
    <glyph glyph-name="threesuperior" unicode="&#xb3;" horiz-adv-x="335" 
d="M168 342q-47 0 -84 25.5t-46 75.5l77 28q8 -28 23.5 -40t37.5 -12q21 0 38.5 12t17.5 35q0 19 -14.5 29t-39.5 10h-35l13 70h34q23 0 40 10t17 30q0 15 -12 23.5t-26 8.5q-23 0 -36 -11t-20 -25l-72 32q17 36 52 58.5t89 22.5q51 0 83 -26.5t32 -66.5q0 -32 -17.5 -53.5
t-43.5 -34.5q20 -11 32 -30t12 -43q0 -28 -11 -51.5t-31.5 -40.5t-48.5 -26.5t-61 -9.5z" />
    <glyph glyph-name="acute" unicode="&#xb4;" horiz-adv-x="443" 
d="M190 588l66 136h154l-114 -136h-106z" />
    <glyph glyph-name="mu" unicode="&#xb5;" 
d="M333 0l12 64h-8q-26 -38 -61 -59t-86 -21q-20 0 -39 6.5t-31 17.5h-8l-2 -65l-28 -159h-130l125 706h130l-50 -281q-1 -6 -1.5 -12.5t-0.5 -17.5q0 -32 19 -53t57 -21q30 0 53 11t40 30.5t28 46t17 57.5l42 240h131l-86 -490h-123z" />
    <glyph glyph-name="paragraph" unicode="&#xb6;" horiz-adv-x="643" 
d="M273 -216v512h-25q-45 0 -85.5 14.5t-71 41.5t-49 66t-18.5 88t18.5 88t49 66t71 41.5t85.5 14.5h315v-932h-110v825h-70v-825h-110z" />
    <glyph glyph-name="periodcentered" unicode="&#xb7;" horiz-adv-x="213" 
d="M103 237q-36 0 -61.5 25.5t-25.5 61.5t25.5 61.5t61.5 25.5t61 -25.5t25 -61.5t-25 -61.5t-61 -25.5z" />
    <glyph glyph-name="cedilla" unicode="&#xb8;" horiz-adv-x="411" 
d="M94 -237q-35 0 -62.5 19t-34.5 47l68 27q2 -12 11 -20t23 -8t25 9t11 26q0 14 -8 22.5t-22 8.5q-9 0 -16 -4.5t-12 -9.5l-55 28l51 92h68l-29 -47q5 1 9 1h9q35 0 57 -24.5t22 -61.5q0 -49 -32.5 -77t-82.5 -28z" />
    <glyph glyph-name="onesuperior" unicode="&#xb9;" horiz-adv-x="272" 
d="M121 350l47 262l-65 -26l-29 72l136 58h65l-65 -366h-89z" />
    <glyph glyph-name="ordmasculine" unicode="&#xba;" horiz-adv-x="535" 
d="M259 272q-45 0 -82.5 14t-64.5 39.5t-42 62.5t-15 84q0 51 19.5 98t54.5 83t84.5 57.5t108.5 21.5q45 0 82.5 -13.5t64.5 -39.5t42 -63t15 -83q0 -53 -20 -100t-56 -83t-85 -57t-106 -21zM269 381q27 0 52 10.5t44 29.5t30 45t11 56q0 45 -27 73t-69 28q-28 0 -52.5 -11
t-43 -30.5t-29.5 -45t-11 -54.5q0 -45 26.5 -73t68.5 -28z" />
    <glyph glyph-name="guillemotright" unicode="&#xbb;" horiz-adv-x="610" 
d="M76 435l83 66l172 -230l-253 -230l-66 74l180 163zM299 435l83 66l172 -230l-253 -230l-66 74l180 163z" />
    <glyph glyph-name="onequarter" unicode="&#xbc;" horiz-adv-x="771" 
d="M516 0l12 65h-173l12 64l212 237h88l-40 -227h47l-13 -74h-47l-12 -65h-86zM541 139l18 104h-8l-90 -104h80zM66 39l588 692l70 -54l-587 -693zM145 350l47 262l-65 -26l-29 72l136 58h65l-65 -366h-89z" />
    <glyph glyph-name="onehalf" unicode="&#xbd;" horiz-adv-x="808" 
d="M436 0l12 63q38 33 70 60q13 12 27 23q13 11 24 20.5t19 16.5q7 7 10 9q7 6 16 13t16.5 16t12.5 18.5t5 19.5q0 17 -11 26.5t-29 9.5q-40 0 -53 -48l-76 29q14 46 51.5 72t91.5 26q56 0 87.5 -28.5t31.5 -72.5q0 -38 -20 -63t-56 -57q-9 -8 -23.5 -20.5t-28.5 -24.5
q-17 -14 -35 -29h134l-15 -79h-261zM61 39l588 692l70 -54l-587 -693zM145 350l47 262l-65 -26l-29 72l136 58h65l-65 -366h-89z" />
    <glyph glyph-name="threequarters" unicode="&#xbe;" horiz-adv-x="843" 
d="M192 342q-47 0 -84 25.5t-46 75.5l77 28q8 -28 23.5 -40t37.5 -12q21 0 38.5 12t17.5 35q0 19 -14.5 29t-39.5 10h-35l13 70h34q23 0 40 10t17 30q0 15 -12 23.5t-26 8.5q-23 0 -36 -11t-20 -25l-72 32q17 36 52 58.5t89 22.5q51 0 83 -26.5t32 -66.5q0 -32 -17.5 -53.5
t-43.5 -34.5q20 -11 32 -30t12 -43q0 -28 -11 -51.5t-31.5 -40.5t-48.5 -26.5t-61 -9.5zM587 0l12 65h-173l12 64l212 237h88l-40 -227h47l-13 -74h-47l-12 -65h-86zM612 139l18 104h-8l-90 -104h80zM122 39l588 692l70 -54l-587 -693z" />
    <glyph glyph-name="questiondown" unicode="&#xbf;" horiz-adv-x="503" 
d="M316 254l-6 -33q-4 -24 -11 -44.5t-20 -39t-34.5 -38t-54.5 -41.5q-28 -20 -51.5 -43.5t-23.5 -54.5t22 -51t59 -20q42 0 69 25t39 59l107 -48q-11 -31 -31.5 -59.5t-49.5 -50t-67 -34.5t-83 -13q-43 0 -79 13t-62 35.5t-40.5 54t-14.5 68.5q0 30 9.5 55.5t25.5 48
t37.5 42.5t46.5 40q20 16 33.5 28.5t22.5 24.5t14 26t9 33l3 17h131zM282 506q36 0 61 -25.5t25 -61.5t-25 -61t-61 -25t-61.5 25t-25.5 61t25.5 61.5t61.5 25.5z" />
    <glyph glyph-name="Agrave" unicode="&#xc0;" horiz-adv-x="716" 
d="M339 716h158l143 -716h-144l-31 171h-273l-90 -171h-153zM442 295l-33 180l-10 86h-8l-40 -86l-95 -180h186zM382 772l-65 136h148l19 -136h-102z" />
    <glyph glyph-name="Aacute" unicode="&#xc1;" horiz-adv-x="716" 
d="M339 716h158l143 -716h-144l-31 171h-273l-90 -171h-153zM442 295l-33 180l-10 86h-8l-40 -86l-95 -180h186zM360 772l66 136h154l-114 -136h-106z" />
    <glyph glyph-name="Acircumflex" unicode="&#xc2;" horiz-adv-x="716" 
d="M339 716h158l143 -716h-144l-31 171h-273l-90 -171h-153zM442 295l-33 180l-10 86h-8l-40 -86l-95 -180h186zM242 774l132 126h119l91 -126l-1 -8h-121l-31 59h-12l-49 -59h-129z" />
    <glyph glyph-name="Atilde" unicode="&#xc3;" horiz-adv-x="716" 
d="M339 716h158l143 -716h-144l-31 171h-273l-90 -171h-153zM442 295l-33 180l-10 86h-8l-40 -86l-95 -180h186zM488 771q-21 0 -38 6.5t-31 15.5q-15 8 -28 14.5t-25 6.5q-26 0 -33 -29h-92q8 65 42.5 96.5t85.5 31.5q21 0 38 -6.5t32 -14.5q14 -9 27 -15.5t25 -6.5
q26 0 33 29h92q-8 -65 -42.5 -96.5t-85.5 -31.5z" />
    <glyph glyph-name="Adieresis" unicode="&#xc4;" horiz-adv-x="716" 
d="M339 716h158l143 -716h-144l-31 171h-273l-90 -171h-153zM442 295l-33 180l-10 86h-8l-40 -86l-95 -180h186zM524 771q-29 0 -50 21.5t-21 50.5q0 30 21 51t50 21q31 0 51.5 -21t20.5 -51q0 -29 -20.5 -50.5t-51.5 -21.5zM334 771q-30 0 -51 21.5t-21 50.5q0 30 21 51
t51 21t50.5 -21t20.5 -51q0 -29 -20.5 -50.5t-50.5 -21.5z" />
    <glyph glyph-name="Aring" unicode="&#xc5;" horiz-adv-x="716" 
d="M319 679q-25 34 -25 77q0 27 10 50.5t28 41.5t41.5 28t50.5 10t50.5 -10t41 -28t28 -41.5t10.5 -50.5q0 -29 -12.5 -55t-33.5 -44l132 -657h-144l-31 171h-273l-90 -171h-153zM442 295l-33 180l-10 86h-8l-40 -86l-95 -180h186zM424 716q17 0 28.5 11.5t11.5 28.5
t-11.5 28.5t-28.5 11.5t-28.5 -11.5t-11.5 -28.5t11.5 -28.5t28.5 -11.5z" />
    <glyph glyph-name="AE" unicode="&#xc6;" horiz-adv-x="1005" 
d="M-62 0l542 716h536l-23 -128h-319l-30 -166h288l-23 -128h-288l-29 -166h319l-22 -128h-454l30 173h-232l-128 -173h-167zM324 301h164l51 287h-10l-43 -70z" />
    <glyph glyph-name="Ccedilla" unicode="&#xc7;" horiz-adv-x="734" 
d="M319 -237q-35 0 -63 19t-34 47l68 27q2 -12 11 -20t22 -8q15 0 25.5 9t10.5 26q0 14 -8 22.5t-22 8.5q-8 0 -15 -4.5t-12 -9.5l-56 28l46 82q-56 9 -104 35.5t-83 68.5t-55 98t-20 124q0 84 32 159.5t89 132.5t136 90.5t174 33.5q91 0 156 -33t104 -90l-108 -88
q-29 39 -69 61t-101 22q-57 0 -107 -22t-88 -60t-60 -89t-22 -110q0 -48 15.5 -87t42.5 -66.5t64 -42.5t81 -15q64 0 114 26.5t95 71.5l86 -97q-34 -35 -68 -59t-71 -40t-78.5 -23t-90.5 -7l-19 -31q5 1 9 1h9q35 0 57 -24.5t22 -61.5q0 -49 -32.5 -77t-82.5 -28z" />
    <glyph glyph-name="Egrave" unicode="&#xc8;" horiz-adv-x="578" 
d="M247 588l-29 -166h287l-23 -128h-287l-30 -166h320l-23 -128h-454l127 716h454l-23 -128h-319zM314 772l-65 136h148l19 -136h-102z" />
    <glyph glyph-name="Eacute" unicode="&#xc9;" horiz-adv-x="578" 
d="M301 772l66 136h154l-114 -136h-106zM247 588l-29 -166h287l-23 -128h-287l-30 -166h320l-23 -128h-454l127 716h454l-23 -128h-319z" />
    <glyph glyph-name="Ecircumflex" unicode="&#xca;" horiz-adv-x="578" 
d="M190 774l132 126h119l91 -126l-1 -8h-121l-31 59h-12l-49 -59h-129zM247 588l-29 -166h287l-23 -128h-287l-30 -166h320l-23 -128h-454l127 716h454l-23 -128h-319z" />
    <glyph glyph-name="Edieresis" unicode="&#xcb;" horiz-adv-x="578" 
d="M459 771q-29 0 -50 21.5t-21 50.5q0 30 21 51t50 21q31 0 51.5 -21t20.5 -51q0 -29 -20.5 -50.5t-51.5 -21.5zM269 771q-30 0 -51 21.5t-21 50.5q0 30 21 51t51 21t50.5 -21t20.5 -51q0 -29 -20.5 -50.5t-50.5 -21.5zM247 588l-29 -166h287l-23 -128h-287l-30 -166h320
l-23 -128h-454l127 716h454l-23 -128h-319z" />
    <glyph glyph-name="Igrave" unicode="&#xcc;" horiz-adv-x="279" 
d="M135 716h135l-127 -716h-135zM172 772l-65 136h148l19 -136h-102z" />
    <glyph glyph-name="Iacute" unicode="&#xcd;" horiz-adv-x="279" 
d="M135 716h135l-127 -716h-135zM146 772l66 136h154l-114 -136h-106z" />
    <glyph glyph-name="Icircumflex" unicode="&#xce;" horiz-adv-x="279" 
d="M135 716h135l-127 -716h-135zM31 774l132 126h119l91 -126l-1 -8h-121l-31 59h-12l-49 -59h-129z" />
    <glyph glyph-name="Idieresis" unicode="&#xcf;" horiz-adv-x="279" 
d="M136 774q-29 0 -49 20.5t-20 48.5q0 29 20 49t49 20t49 -20t20 -49q0 -28 -20 -48.5t-49 -20.5zM309 774q-28 0 -48.5 20.5t-20.5 48.5q0 29 20.5 49t48.5 20q29 0 49 -20t20 -49q0 -28 -20 -48.5t-49 -20.5zM135 716h135l-127 -716h-135z" />
    <glyph glyph-name="Eth" unicode="&#xd0;" horiz-adv-x="779" 
d="M121 302h-75l19 110h76l54 304h228q79 0 140 -23.5t102 -65t62 -99t21 -126.5q0 -80 -29.5 -152.5t-85 -128t-134.5 -88.5t-179 -33h-252zM327 128q64 0 117 20t90.5 55t58 82t20.5 102q0 97 -50.5 149t-153.5 52h-102l-31 -176h184l-20 -110h-184l-31 -174h102z" />
    <glyph glyph-name="Ntilde" unicode="&#xd1;" horiz-adv-x="723" 
d="M135 716h150l210 -480h8l17 138l60 342h134l-127 -716h-134l-222 507h-8l-16 -138l-66 -369h-133zM516 771q-21 0 -38 6.5t-31 15.5q-15 8 -28 14.5t-25 6.5q-26 0 -33 -29h-92q8 65 42.5 96.5t85.5 31.5q21 0 38 -6.5t32 -14.5q14 -9 27 -15.5t25 -6.5q26 0 33 29h92
q-8 -65 -42.5 -96.5t-85.5 -31.5z" />
    <glyph glyph-name="Ograve" unicode="&#xd2;" horiz-adv-x="822" 
d="M366 -16q-72 0 -133.5 24t-106.5 67.5t-70.5 105t-25.5 136.5q0 84 31 159.5t87 132t134.5 90t173.5 33.5q75 0 137 -25t106 -69.5t68.5 -105.5t24.5 -133q0 -84 -31 -159t-87 -132t-134.5 -90.5t-173.5 -33.5zM380 112q57 0 107 22.5t87.5 60.5t59.5 88t22 106
q0 49 -16.5 88.5t-45.5 67.5t-68 43.5t-84 15.5q-59 0 -109 -23t-87.5 -61.5t-58.5 -88.5t-21 -104q0 -49 16.5 -88.5t45.5 -67.5t68 -43.5t84 -15.5zM418 772l-65 136h148l19 -136h-102z" />
    <glyph glyph-name="Oacute" unicode="&#xd3;" horiz-adv-x="822" 
d="M417 772l66 136h154l-114 -136h-106zM366 -16q-72 0 -133.5 24t-106.5 67.5t-70.5 105t-25.5 136.5q0 84 31 159.5t87 132t134.5 90t173.5 33.5q75 0 137 -25t106 -69.5t68.5 -105.5t24.5 -133q0 -84 -31 -159t-87 -132t-134.5 -90.5t-173.5 -33.5zM380 112
q57 0 107 22.5t87.5 60.5t59.5 88t22 106q0 49 -16.5 88.5t-45.5 67.5t-68 43.5t-84 15.5q-59 0 -109 -23t-87.5 -61.5t-58.5 -88.5t-21 -104q0 -49 16.5 -88.5t45.5 -67.5t68 -43.5t84 -15.5z" />
    <glyph glyph-name="Ocircumflex" unicode="&#xd4;" horiz-adv-x="822" 
d="M306 775l132 126h119l91 -126l-1 -8h-121l-31 59h-12l-49 -59h-129zM366 -16q-72 0 -133.5 24t-106.5 67.5t-70.5 105t-25.5 136.5q0 84 31 159.5t87 132t134.5 90t173.5 33.5q75 0 137 -25t106 -69.5t68.5 -105.5t24.5 -133q0 -84 -31 -159t-87 -132t-134.5 -90.5
t-173.5 -33.5zM380 112q57 0 107 22.5t87.5 60.5t59.5 88t22 106q0 49 -16.5 88.5t-45.5 67.5t-68 43.5t-84 15.5q-59 0 -109 -23t-87.5 -61.5t-58.5 -88.5t-21 -104q0 -49 16.5 -88.5t45.5 -67.5t68 -43.5t84 -15.5z" />
    <glyph glyph-name="Otilde" unicode="&#xd5;" horiz-adv-x="822" 
d="M366 -16q-72 0 -133.5 24t-106.5 67.5t-70.5 105t-25.5 136.5q0 84 31 159.5t87 132t134.5 90t173.5 33.5q75 0 137 -25t106 -69.5t68.5 -105.5t24.5 -133q0 -84 -31 -159t-87 -132t-134.5 -90.5t-173.5 -33.5zM380 112q57 0 107 22.5t87.5 60.5t59.5 88t22 106
q0 49 -16.5 88.5t-45.5 67.5t-68 43.5t-84 15.5q-59 0 -109 -23t-87.5 -61.5t-58.5 -88.5t-21 -104q0 -49 16.5 -88.5t45.5 -67.5t68 -43.5t84 -15.5zM540 771q-21 0 -38 6.5t-31 15.5q-15 8 -28 14.5t-25 6.5q-26 0 -33 -29h-92q8 65 42.5 96.5t85.5 31.5q21 0 38 -6.5
t32 -14.5q14 -9 27 -15.5t25 -6.5q26 0 33 29h92q-8 -65 -42.5 -96.5t-85.5 -31.5z" />
    <glyph glyph-name="Odieresis" unicode="&#xd6;" horiz-adv-x="822" 
d="M575 771q-29 0 -50 21.5t-21 50.5q0 30 21 51t50 21q31 0 51.5 -21t20.5 -51q0 -29 -20.5 -50.5t-51.5 -21.5zM385 771q-30 0 -51 21.5t-21 50.5q0 30 21 51t51 21t50.5 -21t20.5 -51q0 -29 -20.5 -50.5t-50.5 -21.5zM366 -16q-72 0 -133.5 24t-106.5 67.5t-70.5 105
t-25.5 136.5q0 84 31 159.5t87 132t134.5 90t173.5 33.5q75 0 137 -25t106 -69.5t68.5 -105.5t24.5 -133q0 -84 -31 -159t-87 -132t-134.5 -90.5t-173.5 -33.5zM380 112q57 0 107 22.5t87.5 60.5t59.5 88t22 106q0 49 -16.5 88.5t-45.5 67.5t-68 43.5t-84 15.5
q-59 0 -109 -23t-87.5 -61.5t-58.5 -88.5t-21 -104q0 -49 16.5 -88.5t45.5 -67.5t68 -43.5t84 -15.5z" />
    <glyph glyph-name="multiply" unicode="&#xd7;" horiz-adv-x="611" 
d="M207 275l-133 154l91 78l135 -156l194 159l71 -85l-192 -158l133 -154l-91 -78l-135 156l-194 -159l-71 85z" />
    <glyph glyph-name="Oslash" unicode="&#xd8;" horiz-adv-x="822" 
d="M67 15l53 66q-43 44 -66.5 103.5t-23.5 132.5q0 84 31 159.5t87 132t134.5 90t173.5 33.5q86 0 157 -34l56 69l84 -68l-52 -65q44 -45 67.5 -104.5t23.5 -130.5q0 -84 -31 -159t-87 -132t-134.5 -90.5t-173.5 -33.5q-85 0 -158 34l-56 -70zM380 112q57 0 107 22.5
t87.5 60.5t59.5 88t22 106q0 40 -11.5 74t-31.5 61l-317 -397q37 -15 84 -15zM166 327q0 -41 11.5 -74.5t31.5 -60.5l317 396q-20 8 -40.5 12t-43.5 4q-59 0 -109 -23t-87.5 -61.5t-58.5 -88.5t-21 -104z" />
    <glyph glyph-name="Ugrave" unicode="&#xd9;" horiz-adv-x="669" 
d="M278 -16q-53 0 -97 17t-75.5 48t-49 74.5t-17.5 96.5q0 15 1.5 35.5t6.5 48.5l73 412h135l-77 -435q-2 -14 -3.5 -25t-1.5 -22q0 -55 30 -88.5t93 -33.5q68 0 112 45t57 120l77 439h135l-79 -447q-26 -146 -109 -215.5t-211 -69.5zM356 772l-65 136h148l19 -136h-102z
" />
    <glyph glyph-name="Uacute" unicode="&#xda;" horiz-adv-x="669" 
d="M345 772l66 136h154l-114 -136h-106zM278 -16q-53 0 -97 17t-75.5 48t-49 74.5t-17.5 96.5q0 15 1.5 35.5t6.5 48.5l73 412h135l-77 -435q-2 -14 -3.5 -25t-1.5 -22q0 -55 30 -88.5t93 -33.5q68 0 112 45t57 120l77 439h135l-79 -447q-26 -146 -109 -215.5t-211 -69.5z
" />
    <glyph glyph-name="Ucircumflex" unicode="&#xdb;" horiz-adv-x="669" 
d="M230 774l132 126h119l91 -126l-1 -8h-121l-31 59h-12l-49 -59h-129zM278 -16q-53 0 -97 17t-75.5 48t-49 74.5t-17.5 96.5q0 15 1.5 35.5t6.5 48.5l73 412h135l-77 -435q-2 -14 -3.5 -25t-1.5 -22q0 -55 30 -88.5t93 -33.5q68 0 112 45t57 120l77 439h135l-79 -447
q-26 -146 -109 -215.5t-211 -69.5z" />
    <glyph glyph-name="Udieresis" unicode="&#xdc;" horiz-adv-x="669" 
d="M499 771q-29 0 -50 21.5t-21 50.5q0 30 21 51t50 21q31 0 51.5 -21t20.5 -51q0 -29 -20.5 -50.5t-51.5 -21.5zM309 771q-30 0 -51 21.5t-21 50.5q0 30 21 51t51 21t50.5 -21t20.5 -51q0 -29 -20.5 -50.5t-50.5 -21.5zM278 -16q-53 0 -97 17t-75.5 48t-49 74.5t-17.5 96.5
q0 15 1.5 35.5t6.5 48.5l73 412h135l-77 -435q-2 -14 -3.5 -25t-1.5 -22q0 -55 30 -88.5t93 -33.5q68 0 112 45t57 120l77 439h135l-79 -447q-26 -146 -109 -215.5t-211 -69.5z" />
    <glyph glyph-name="Yacute" unicode="&#xdd;" horiz-adv-x="637" 
d="M189 0l59 333l-173 383h156l101 -237h8l181 237h167l-305 -383l-59 -333h-135zM320 772l66 136h154l-114 -136h-106z" />
    <glyph glyph-name="Thorn" unicode="&#xde;" horiz-adv-x="592" 
d="M8 0l127 716h135l-20 -108h106q48 0 88 -15t69.5 -42.5t46 -65.5t16.5 -84q0 -59 -20.5 -105t-57.5 -77.5t-88.5 -47.5t-112.5 -16h-127l-27 -155h-135zM315 283q54 0 90 26.5t36 81.5q0 40 -23.5 64.5t-68.5 24.5h-121l-35 -197h122z" />
    <glyph glyph-name="germandbls" unicode="&#xdf;" horiz-adv-x="585" 
d="M442 383q38 -18 62.5 -57t24.5 -97q0 -53 -19.5 -96.5t-55 -74.5t-84 -48.5t-105.5 -17.5q-23 0 -38 1t-29 3l21 121q12 -2 24 -3t27 -1q25 0 48.5 7.5t41 22t28 36t10.5 49.5q0 44 -27 70t-79 26h-25l20 115h20q24 0 45 6.5t36.5 18.5t25 29.5t9.5 40.5q0 35 -22.5 56
t-62.5 21q-45 0 -73.5 -30t-36.5 -76l-89 -505h-131l89 507q9 48 28.5 89.5t51.5 71.5t76.5 47t102.5 17q46 0 82.5 -14.5t62 -38.5t39 -56t13.5 -67q0 -33 -9 -59.5t-24 -47t-35 -35t-42 -23.5z" />
    <glyph glyph-name="agrave" unicode="&#xe0;" horiz-adv-x="535" 
d="M290 506q101 0 154 -48t53 -126q0 -12 -1.5 -24.5t-3.5 -26.5l-50 -281h-129l9 52h-8q-23 -29 -57.5 -48.5t-83.5 -19.5q-37 0 -67.5 11.5t-52 32t-33.5 49t-12 61.5q0 42 16.5 75t47 56.5t73 36t93.5 12.5q37 0 67.5 -6.5t58.5 -16.5l4 15q2 10 2 16q0 32 -26.5 53
t-69.5 21q-38 0 -67 -14.5t-52 -41.5l-88 64q40 51 98 74.5t125 23.5zM216 86q25 0 47.5 9.5t40 25t29 36t15.5 42.5q-15 7 -42.5 15.5t-63.5 8.5q-42 0 -72 -18.5t-30 -56.5q0 -31 22.5 -46.5t53.5 -15.5zM263 588l-65 136h148l19 -136h-102z" />
    <glyph glyph-name="aacute" unicode="&#xe1;" horiz-adv-x="535" 
d="M290 506q101 0 154 -48t53 -126q0 -12 -1.5 -24.5t-3.5 -26.5l-50 -281h-129l9 52h-8q-23 -29 -57.5 -48.5t-83.5 -19.5q-37 0 -67.5 11.5t-52 32t-33.5 49t-12 61.5q0 42 16.5 75t47 56.5t73 36t93.5 12.5q37 0 67.5 -6.5t58.5 -16.5l4 15q2 10 2 16q0 32 -26.5 53
t-69.5 21q-38 0 -67 -14.5t-52 -41.5l-88 64q40 51 98 74.5t125 23.5zM216 86q25 0 47.5 9.5t40 25t29 36t15.5 42.5q-15 7 -42.5 15.5t-63.5 8.5q-42 0 -72 -18.5t-30 -56.5q0 -31 22.5 -46.5t53.5 -15.5zM246 588l66 136h154l-114 -136h-106z" />
    <glyph glyph-name="acircumflex" unicode="&#xe2;" horiz-adv-x="535" 
d="M290 506q101 0 154 -48t53 -126q0 -12 -1.5 -24.5t-3.5 -26.5l-50 -281h-129l9 52h-8q-23 -29 -57.5 -48.5t-83.5 -19.5q-37 0 -67.5 11.5t-52 32t-33.5 49t-12 61.5q0 42 16.5 75t47 56.5t73 36t93.5 12.5q37 0 67.5 -6.5t58.5 -16.5l4 15q2 10 2 16q0 32 -26.5 53
t-69.5 21q-38 0 -67 -14.5t-52 -41.5l-88 64q40 51 98 74.5t125 23.5zM216 86q25 0 47.5 9.5t40 25t29 36t15.5 42.5q-15 7 -42.5 15.5t-63.5 8.5q-42 0 -72 -18.5t-30 -56.5q0 -31 22.5 -46.5t53.5 -15.5zM130 590l132 126h119l91 -126l-1 -8h-121l-31 59h-12l-49 -59h-129
z" />
    <glyph glyph-name="atilde" unicode="&#xe3;" horiz-adv-x="535" 
d="M290 506q101 0 154 -48t53 -126q0 -12 -1.5 -24.5t-3.5 -26.5l-50 -281h-129l9 52h-8q-23 -29 -57.5 -48.5t-83.5 -19.5q-37 0 -67.5 11.5t-52 32t-33.5 49t-12 61.5q0 42 16.5 75t47 56.5t73 36t93.5 12.5q37 0 67.5 -6.5t58.5 -16.5l4 15q2 10 2 16q0 32 -26.5 53
t-69.5 21q-38 0 -67 -14.5t-52 -41.5l-88 64q40 51 98 74.5t125 23.5zM216 86q25 0 47.5 9.5t40 25t29 36t15.5 42.5q-15 7 -42.5 15.5t-63.5 8.5q-42 0 -72 -18.5t-30 -56.5q0 -31 22.5 -46.5t53.5 -15.5zM382 588q-21 0 -38 6.5t-31 15.5q-15 8 -28 14.5t-25 6.5
q-26 0 -33 -29h-92q8 65 42.5 96.5t85.5 31.5q21 0 38 -6.5t32 -14.5q14 -9 27 -15.5t25 -6.5q26 0 33 29h92q-8 -65 -42.5 -96.5t-85.5 -31.5z" />
    <glyph glyph-name="adieresis" unicode="&#xe4;" horiz-adv-x="535" 
d="M290 506q101 0 154 -48t53 -126q0 -12 -1.5 -24.5t-3.5 -26.5l-50 -281h-129l9 52h-8q-23 -29 -57.5 -48.5t-83.5 -19.5q-37 0 -67.5 11.5t-52 32t-33.5 49t-12 61.5q0 42 16.5 75t47 56.5t73 36t93.5 12.5q37 0 67.5 -6.5t58.5 -16.5l4 15q2 10 2 16q0 32 -26.5 53
t-69.5 21q-38 0 -67 -14.5t-52 -41.5l-88 64q40 51 98 74.5t125 23.5zM216 86q25 0 47.5 9.5t40 25t29 36t15.5 42.5q-15 7 -42.5 15.5t-63.5 8.5q-42 0 -72 -18.5t-30 -56.5q0 -31 22.5 -46.5t53.5 -15.5zM415 587q-29 0 -50 21.5t-21 50.5q0 30 21 51t50 21q31 0 51.5 -21
t20.5 -51q0 -29 -20.5 -50.5t-51.5 -21.5zM225 587q-30 0 -51 21.5t-21 50.5q0 30 21 51t51 21t50.5 -21t20.5 -51q0 -29 -20.5 -50.5t-50.5 -21.5z" />
    <glyph glyph-name="aring" unicode="&#xe5;" horiz-adv-x="535" 
d="M290 506q101 0 154 -48t53 -126q0 -12 -1.5 -24.5t-3.5 -26.5l-50 -281h-129l9 52h-8q-23 -29 -57.5 -48.5t-83.5 -19.5q-37 0 -67.5 11.5t-52 32t-33.5 49t-12 61.5q0 42 16.5 75t47 56.5t73 36t93.5 12.5q37 0 67.5 -6.5t58.5 -16.5l4 15q2 10 2 16q0 32 -26.5 53
t-69.5 21q-38 0 -67 -14.5t-52 -41.5l-88 64q40 51 98 74.5t125 23.5zM216 86q25 0 47.5 9.5t40 25t29 36t15.5 42.5q-15 7 -42.5 15.5t-63.5 8.5q-42 0 -72 -18.5t-30 -56.5q0 -31 22.5 -46.5t53.5 -15.5zM319 561q-23 0 -42.5 8.5t-34 23t-23 34t-8.5 42.5q0 22 8.5 42
t23 34.5t34 23t42.5 8.5q22 0 42 -8.5t34.5 -23t23 -34.5t8.5 -42q0 -23 -8.5 -42.5t-23 -34t-34.5 -23t-42 -8.5zM319 634q14 0 24.5 10.5t10.5 24.5t-10.5 24.5t-24.5 10.5t-24 -10.5t-10 -24.5t10 -24.5t24 -10.5z" />
    <glyph glyph-name="ae" unicode="&#xe6;" horiz-adv-x="903" 
d="M829 120q-43 -64 -101 -100t-146 -36q-69 0 -114.5 27.5t-74.5 72.5q-85 -100 -218 -100q-38 0 -68.5 11.5t-52.5 32t-34 49t-12 61.5q0 42 16.5 75t47 56.5t73 36t93.5 12.5q37 0 68.5 -6.5t57.5 -16.5l4 15q2 10 2 16q0 35 -26.5 54.5t-68.5 19.5q-35 0 -65.5 -14.5
t-45.5 -40.5l-95 47q71 114 224 114q60 0 100.5 -23t63.5 -59q38 40 86.5 61t105.5 21q52 0 91.5 -16.5t66.5 -44.5t41 -65t14 -78q0 -24 -3.5 -45.5t-10.5 -41.5h-369v-10q2 -54 35.5 -79.5t77.5 -25.5q49 0 82 18.5t56 53.5zM216 86q25 0 47.5 9.5t40 25t29 36t15.5 42.5
q-17 8 -43.5 16t-62.5 8q-42 0 -72 -18.5t-30 -56.5q0 -31 22.5 -46.5t53.5 -15.5zM740 308v4q0 15 -6 30.5t-18.5 28t-33 20.5t-49.5 8q-24 0 -45.5 -7t-39 -19.5t-31 -29t-20.5 -35.5h243z" />
    <glyph glyph-name="ccedilla" unicode="&#xe7;" horiz-adv-x="545" 
d="M202 -237q-35 0 -62.5 19t-34.5 47l68 27q2 -12 11 -20t23 -8t25 9t11 26q0 14 -8 22.5t-22 8.5q-9 0 -16 -4.5t-12 -9.5l-55 28l47 84q-39 9 -71 29t-54.5 49t-34.5 65.5t-12 79.5q0 58 21 110.5t60 92.5t95 64t126 24q85 0 140 -39.5t75 -103.5l-126 -49
q-25 71 -107 71q-33 0 -61.5 -12.5t-48.5 -34t-31.5 -50t-11.5 -60.5q0 -27 9 -50t24.5 -39t36.5 -25t45 -9q44 0 74.5 19.5t51.5 54.5l112 -54q-48 -76 -107 -108.5t-137 -32.5h-6l-19 -31q5 1 9 1h9q35 0 57 -24.5t22 -61.5q0 -49 -32.5 -77t-82.5 -28z" />
    <glyph glyph-name="egrave" unicode="&#xe8;" horiz-adv-x="556" 
d="M482 120q-43 -64 -101 -100t-145 -36q-54 0 -96.5 18t-72.5 49.5t-46 74t-16 90.5q0 57 21 109t59 92.5t92 64.5t120 24q54 0 94.5 -16.5t68 -44.5t41.5 -65t14 -78q0 -47 -14 -87h-369v-10q2 -54 35.5 -79.5t78.5 -25.5q48 0 81 18.5t56 53.5zM393 308v4
q0 34 -26.5 60.5t-80.5 26.5q-49 0 -85.5 -26.5t-50.5 -64.5h243zM269 588l-65 136h148l19 -136h-102z" />
    <glyph glyph-name="eacute" unicode="&#xe9;" horiz-adv-x="556" 
d="M258 588l66 136h154l-114 -136h-106zM482 120q-43 -64 -101 -100t-145 -36q-54 0 -96.5 18t-72.5 49.5t-46 74t-16 90.5q0 57 21 109t59 92.5t92 64.5t120 24q54 0 94.5 -16.5t68 -44.5t41.5 -65t14 -78q0 -47 -14 -87h-369v-10q2 -54 35.5 -79.5t78.5 -25.5
q48 0 81 18.5t56 53.5zM393 308v4q0 34 -26.5 60.5t-80.5 26.5q-49 0 -85.5 -26.5t-50.5 -64.5h243z" />
    <glyph glyph-name="ecircumflex" unicode="&#xea;" horiz-adv-x="556" 
d="M150 581l132 126h119l91 -126l-1 -8h-121l-31 59h-12l-49 -59h-129zM482 120q-43 -64 -101 -100t-145 -36q-54 0 -96.5 18t-72.5 49.5t-46 74t-16 90.5q0 57 21 109t59 92.5t92 64.5t120 24q54 0 94.5 -16.5t68 -44.5t41.5 -65t14 -78q0 -47 -14 -87h-369v-10
q2 -54 35.5 -79.5t78.5 -25.5q48 0 81 18.5t56 53.5zM393 308v4q0 34 -26.5 60.5t-80.5 26.5q-49 0 -85.5 -26.5t-50.5 -64.5h243z" />
    <glyph glyph-name="edieresis" unicode="&#xeb;" horiz-adv-x="556" 
d="M422 587q-29 0 -50 21.5t-21 50.5q0 30 21 51t50 21q31 0 51.5 -21t20.5 -51q0 -29 -20.5 -50.5t-51.5 -21.5zM232 587q-30 0 -51 21.5t-21 50.5q0 30 21 51t51 21t50.5 -21t20.5 -51q0 -29 -20.5 -50.5t-50.5 -21.5zM482 120q-43 -64 -101 -100t-145 -36q-54 0 -96.5 18
t-72.5 49.5t-46 74t-16 90.5q0 57 21 109t59 92.5t92 64.5t120 24q54 0 94.5 -16.5t68 -44.5t41.5 -65t14 -78q0 -47 -14 -87h-369v-10q2 -54 35.5 -79.5t78.5 -25.5q48 0 81 18.5t56 53.5zM393 308v4q0 34 -26.5 60.5t-80.5 26.5q-49 0 -85.5 -26.5t-50.5 -64.5h243z" />
    <glyph glyph-name="igrave" unicode="&#xec;" horiz-adv-x="259" 
d="M0 0l86 490h131l-86 -490h-131zM120 588l-65 136h148l19 -136h-102z" />
    <glyph glyph-name="iacute" unicode="&#xed;" horiz-adv-x="259" 
d="M114 588l66 136h154l-114 -136h-106zM0 0l86 490h131l-86 -490h-131z" />
    <glyph glyph-name="icircumflex" unicode="&#xee;" horiz-adv-x="259" 
d="M-2 590l132 126h119l91 -126l-1 -8h-121l-31 59h-12l-49 -59h-129zM0 0l86 490h131l-86 -490h-131z" />
    <glyph glyph-name="idieresis" unicode="&#xef;" horiz-adv-x="259" 
d="M96 591q-28 0 -48.5 20.5t-20.5 48.5q0 29 20.5 49t48.5 20q29 0 49 -20t20 -49q0 -28 -20 -48.5t-49 -20.5zM264 591q-28 0 -48.5 20.5t-20.5 48.5q0 29 20.5 49t48.5 20q29 0 49 -20t20 -49q0 -28 -20 -48.5t-49 -20.5zM0 0l85 490h131l-85 -490h-131z" />
    <glyph glyph-name="eth" unicode="&#xf0;" horiz-adv-x="578" 
d="M404 443q-21 61 -68 103l-123 -51l-31 75l72 30q-20 9 -41 15t-43 10l35 99q99 -21 172 -74l116 48l31 -74l-83 -34q42 -52 65 -120.5t23 -154.5q0 -66 -18 -125.5t-55 -105.5t-93 -73t-131 -27q-46 0 -86 16t-69.5 44.5t-46.5 67.5t-17 85q0 57 20 107.5t56 88
t86.5 59.5t111.5 22q36 0 64 -10.5t45 -25.5zM251 101q28 0 53 12t43.5 32t29.5 46t11 55q0 52 -28 82t-76 30q-31 0 -57.5 -12t-45.5 -32.5t-29.5 -47.5t-10.5 -57q0 -51 32 -79.5t78 -28.5z" />
    <glyph glyph-name="ntilde" unicode="&#xf1;" 
d="M190 426h8q26 38 68 59t93 21q38 0 67 -12.5t49 -33.5t30 -49.5t10 -60.5q0 -14 -1 -29t-4 -32l-52 -289h-130l50 281q1 5 1.5 13.5t0.5 16.5q0 32 -19 53t-57 21q-30 0 -53 -11t-40 -30.5t-28 -46t-17 -57.5l-42 -240h-131l86 490h123zM404 588q-21 0 -38 6.5t-31 15.5
q-15 8 -28 14.5t-25 6.5q-26 0 -33 -29h-92q8 65 42.5 96.5t85.5 31.5q21 0 38 -6.5t32 -14.5q14 -9 27 -15.5t25 -6.5q26 0 33 29h92q-8 -65 -42.5 -96.5t-85.5 -31.5z" />
    <glyph glyph-name="ograve" unicode="&#xf2;" horiz-adv-x="576" 
d="M303 506q53 0 96.5 -18t74 -49t47 -72.5t16.5 -88.5q0 -62 -22 -116t-61.5 -93.5t-94.5 -62t-120 -22.5q-53 0 -96.5 18t-74 49t-47 72.5t-16.5 89.5q0 62 22 115.5t61.5 93t94.5 62t120 22.5zM252 105q33 0 61 12.5t49 34.5t32.5 50.5t11.5 61.5q0 26 -9 48.5
t-24.5 38.5t-37 25t-45.5 9q-33 0 -61 -12.5t-49 -34.5t-32.5 -50.5t-11.5 -61.5q0 -26 9 -48.5t25 -38.5t37 -25t45 -9zM270 588l-65 136h148l19 -136h-102z" />
    <glyph glyph-name="oacute" unicode="&#xf3;" horiz-adv-x="576" 
d="M271 588l66 136h154l-114 -136h-106zM303 506q53 0 96.5 -18t74 -49t47 -72.5t16.5 -88.5q0 -62 -22 -116t-61.5 -93.5t-94.5 -62t-120 -22.5q-53 0 -96.5 18t-74 49t-47 72.5t-16.5 89.5q0 62 22 115.5t61.5 93t94.5 62t120 22.5zM252 105q33 0 61 12.5t49 34.5
t32.5 50.5t11.5 61.5q0 26 -9 48.5t-24.5 38.5t-37 25t-45.5 9q-33 0 -61 -12.5t-49 -34.5t-32.5 -50.5t-11.5 -61.5q0 -26 9 -48.5t25 -38.5t37 -25t45 -9z" />
    <glyph glyph-name="ocircumflex" unicode="&#xf4;" horiz-adv-x="576" 
d="M156 590l132 126h119l91 -126l-1 -8h-121l-31 59h-12l-49 -59h-129zM303 506q53 0 96.5 -18t74 -49t47 -72.5t16.5 -88.5q0 -62 -22 -116t-61.5 -93.5t-94.5 -62t-120 -22.5q-53 0 -96.5 18t-74 49t-47 72.5t-16.5 89.5q0 62 22 115.5t61.5 93t94.5 62t120 22.5zM252 105
q33 0 61 12.5t49 34.5t32.5 50.5t11.5 61.5q0 26 -9 48.5t-24.5 38.5t-37 25t-45.5 9q-33 0 -61 -12.5t-49 -34.5t-32.5 -50.5t-11.5 -61.5q0 -26 9 -48.5t25 -38.5t37 -25t45 -9z" />
    <glyph glyph-name="otilde" unicode="&#xf5;" horiz-adv-x="576" 
d="M303 506q53 0 96.5 -18t74 -49t47 -72.5t16.5 -88.5q0 -62 -22 -116t-61.5 -93.5t-94.5 -62t-120 -22.5q-53 0 -96.5 18t-74 49t-47 72.5t-16.5 89.5q0 62 22 115.5t61.5 93t94.5 62t120 22.5zM252 105q33 0 61 12.5t49 34.5t32.5 50.5t11.5 61.5q0 26 -9 48.5
t-24.5 38.5t-37 25t-45.5 9q-33 0 -61 -12.5t-49 -34.5t-32.5 -50.5t-11.5 -61.5q0 -26 9 -48.5t25 -38.5t37 -25t45 -9zM399 588q-21 0 -38 6.5t-31 15.5q-15 8 -28 14.5t-25 6.5q-26 0 -33 -29h-92q8 65 42.5 96.5t85.5 31.5q21 0 38 -6.5t32 -14.5q14 -9 27 -15.5
t25 -6.5q26 0 33 29h92q-8 -65 -42.5 -96.5t-85.5 -31.5z" />
    <glyph glyph-name="odieresis" unicode="&#xf6;" horiz-adv-x="576" 
d="M434 587q-29 0 -50 21.5t-21 50.5q0 30 21 51t50 21q31 0 51.5 -21t20.5 -51q0 -29 -20.5 -50.5t-51.5 -21.5zM244 587q-30 0 -51 21.5t-21 50.5q0 30 21 51t51 21t50.5 -21t20.5 -51q0 -29 -20.5 -50.5t-50.5 -21.5zM303 506q53 0 96.5 -18t74 -49t47 -72.5t16.5 -88.5
q0 -62 -22 -116t-61.5 -93.5t-94.5 -62t-120 -22.5q-53 0 -96.5 18t-74 49t-47 72.5t-16.5 89.5q0 62 22 115.5t61.5 93t94.5 62t120 22.5zM252 105q33 0 61 12.5t49 34.5t32.5 50.5t11.5 61.5q0 26 -9 48.5t-24.5 38.5t-37 25t-45.5 9q-33 0 -61 -12.5t-49 -34.5
t-32.5 -50.5t-11.5 -61.5q0 -26 9 -48.5t25 -38.5t37 -25t45 -9z" />
    <glyph glyph-name="divide" unicode="&#xf7;" horiz-adv-x="569" 
d="M32 217l19 108h457l-20 -108h-456zM235 -8q-34 0 -58 24t-24 58t24 58t58 24t58 -24t24 -58t-24 -58t-58 -24zM304 386q-34 0 -58 24t-24 58t24 58t58 24q35 0 58.5 -24t23.5 -58t-23.5 -58t-58.5 -24z" />
    <glyph glyph-name="oslash" unicode="&#xf8;" horiz-adv-x="576" 
d="M29 9l36 45q-29 31 -44.5 71.5t-15.5 87.5q0 62 22 115.5t61.5 93t94.5 62t120 22.5q58 0 106 -23l45 56l73 -61l-42 -52q25 -30 38.5 -68t13.5 -80q0 -62 -22 -116t-61.5 -93.5t-94.5 -62t-120 -22.5q-51 0 -94 17l-39 -49zM136 226q0 -34 16 -63l174 216q-15 6 -36 6
q-33 0 -61 -12.5t-49 -34.5t-32.5 -50.5t-11.5 -61.5zM252 105q33 0 61 12.5t49 34.5t32.5 50.5t11.5 61.5q0 27 -10 50l-166 -207q8 -2 12 -2h10z" />
    <glyph glyph-name="ugrave" unicode="&#xf9;" 
d="M345 64h-8q-26 -38 -68 -59t-93 -21q-38 0 -67 12.5t-49 33.5t-30 49.5t-10 60.5q0 14 1 28t4 33l52 289h130l-50 -281q-1 -6 -1.5 -12.5t-0.5 -17.5q0 -32 19 -53t57 -21q30 0 53 11t40 30.5t28 46t17 57.5l42 240h131l-86 -490h-123zM281 588l-65 136h148l19 -136h-102
z" />
    <glyph glyph-name="uacute" unicode="&#xfa;" 
d="M266 588l66 136h154l-114 -136h-106zM345 64h-8q-26 -38 -68 -59t-93 -21q-38 0 -67 12.5t-49 33.5t-30 49.5t-10 60.5q0 14 1 28t4 33l52 289h130l-50 -281q-1 -6 -1.5 -12.5t-0.5 -17.5q0 -32 19 -53t57 -21q30 0 53 11t40 30.5t28 46t17 57.5l42 240h131l-86 -490
h-123z" />
    <glyph glyph-name="ucircumflex" unicode="&#xfb;" 
d="M156 575l132 126h119l91 -126l-1 -8h-121l-31 59h-12l-49 -59h-129zM345 64h-8q-26 -38 -68 -59t-93 -21q-38 0 -67 12.5t-49 33.5t-30 49.5t-10 60.5q0 14 1 28t4 33l52 289h130l-50 -281q-1 -6 -1.5 -12.5t-0.5 -17.5q0 -32 19 -53t57 -21q30 0 53 11t40 30.5t28 46
t17 57.5l42 240h131l-86 -490h-123z" />
    <glyph glyph-name="udieresis" unicode="&#xfc;" 
d="M435 587q-29 0 -50 21.5t-21 50.5q0 30 21 51t50 21q31 0 51.5 -21t20.5 -51q0 -29 -20.5 -50.5t-51.5 -21.5zM245 587q-30 0 -51 21.5t-21 50.5q0 30 21 51t51 21t50.5 -21t20.5 -51q0 -29 -20.5 -50.5t-50.5 -21.5zM345 64h-8q-26 -38 -68 -59t-93 -21q-38 0 -67 12.5
t-49 33.5t-30 49.5t-10 60.5q0 14 1 28t4 33l52 289h130l-50 -281q-1 -6 -1.5 -12.5t-0.5 -17.5q0 -32 19 -53t57 -21q30 0 53 11t40 30.5t28 46t17 57.5l42 240h131l-86 -490h-123z" />
    <glyph glyph-name="yacute" unicode="&#xfd;" horiz-adv-x="553" 
d="M8 -216l151 245l-122 461h146l71 -298h8l173 298h148l-432 -706h-143zM263 588l66 136h154l-114 -136h-106z" />
    <glyph glyph-name="thorn" unicode="&#xfe;" horiz-adv-x="600" 
d="M371 506q44 0 81 -17.5t64 -48t42 -73t15 -92.5q0 -58 -20 -110.5t-56.5 -92.5t-87.5 -64t-112 -24q-50 0 -90 21.5t-58 53.5h-8l-2 -70l-37 -205h-131l164 932h131l-38 -215l-19 -70h8q20 29 57 52t97 23zM292 105q33 0 60.5 13t47.5 35t31 51t11 61q0 55 -32.5 87.5
t-87.5 32.5q-29 0 -56 -12t-47.5 -33t-33 -51t-12.5 -66q0 -54 33.5 -86t85.5 -32z" />
    <glyph glyph-name="ydieresis" unicode="&#xff;" horiz-adv-x="553" 
d="M8 -216l151 245l-122 461h146l71 -298h8l173 298h148l-432 -706h-143zM424 587q-29 0 -50 21.5t-21 50.5q0 30 21 51t50 21q31 0 51.5 -21t20.5 -51q0 -29 -20.5 -50.5t-51.5 -21.5zM234 587q-30 0 -51 21.5t-21 50.5q0 30 21 51t51 21t50.5 -21t20.5 -51
q0 -29 -20.5 -50.5t-50.5 -21.5z" />
    <glyph glyph-name="Amacron" unicode="&#x100;" horiz-adv-x="716" 
d="M339 716h158l143 -716h-144l-31 171h-273l-90 -171h-153zM442 295l-33 180l-10 86h-8l-40 -86l-95 -180h186zM275 793l18 100h296l-18 -100h-296z" />
    <glyph glyph-name="amacron" unicode="&#x101;" horiz-adv-x="535" 
d="M290 506q101 0 154 -48t53 -126q0 -12 -1.5 -24.5t-3.5 -26.5l-50 -281h-129l9 52h-8q-23 -29 -57.5 -48.5t-83.5 -19.5q-37 0 -67.5 11.5t-52 32t-33.5 49t-12 61.5q0 42 16.5 75t47 56.5t73 36t93.5 12.5q37 0 67.5 -6.5t58.5 -16.5l4 15q2 10 2 16q0 32 -26.5 53
t-69.5 21q-38 0 -67 -14.5t-52 -41.5l-88 64q40 51 98 74.5t125 23.5zM216 86q25 0 47.5 9.5t40 25t29 36t15.5 42.5q-15 7 -42.5 15.5t-63.5 8.5q-42 0 -72 -18.5t-30 -56.5q0 -31 22.5 -46.5t53.5 -15.5zM170 609l18 100h296l-18 -100h-296z" />
    <glyph glyph-name="Abreve" unicode="&#x102;" horiz-adv-x="716" 
d="M339 716h158l143 -716h-144l-31 171h-273l-90 -171h-153zM442 295l-33 180l-10 86h-8l-40 -86l-95 -180h186zM428 763q-24 0 -46 8t-38 23t-25.5 36t-9.5 46v10t2 13h92q-1 -4 -1 -9q0 -15 9.5 -26t28.5 -11q20 0 33.5 13t17.5 33h92q-11 -68 -51.5 -102t-103.5 -34z" />
    <glyph glyph-name="abreve" unicode="&#x103;" horiz-adv-x="535" 
d="M290 506q101 0 154 -48t53 -126q0 -12 -1.5 -24.5t-3.5 -26.5l-50 -281h-129l9 52h-8q-23 -29 -57.5 -48.5t-83.5 -19.5q-37 0 -67.5 11.5t-52 32t-33.5 49t-12 61.5q0 42 16.5 75t47 56.5t73 36t93.5 12.5q37 0 67.5 -6.5t58.5 -16.5l4 15q2 10 2 16q0 32 -26.5 53
t-69.5 21q-38 0 -67 -14.5t-52 -41.5l-88 64q40 51 98 74.5t125 23.5zM216 86q25 0 47.5 9.5t40 25t29 36t15.5 42.5q-15 7 -42.5 15.5t-63.5 8.5q-42 0 -72 -18.5t-30 -56.5q0 -31 22.5 -46.5t53.5 -15.5zM313 579q-24 0 -46 8t-38 23t-25.5 36t-9.5 46v10t2 13h92
q-1 -4 -1 -9q0 -15 9.5 -26t28.5 -11q20 0 33.5 13t17.5 33h92q-11 -68 -51.5 -102t-103.5 -34z" />
    <glyph glyph-name="Aogonek" unicode="&#x104;" horiz-adv-x="716" 
d="M556 -224q-56 0 -86.5 27.5t-30.5 69.5q0 39 20.5 69t54.5 53l-2 5h-16l-31 171h-273l-90 -171h-153l390 716h158l143 -716q-14 -8 -29 -18.5t-27.5 -23.5t-20.5 -27t-8 -28q0 -15 9.5 -23.5t23.5 -8.5q10 0 25 5l22 -84q-17 -8 -38 -12t-41 -4zM442 295l-33 180l-10 86
h-8l-40 -86l-95 -180h186z" />
    <glyph glyph-name="aogonek" unicode="&#x105;" horiz-adv-x="535" 
d="M358 -224q-56 0 -86.5 27.5t-30.5 69.5q0 38 21 69.5t56 51.5l-5 6l9 52h-8q-23 -29 -57.5 -48.5t-83.5 -19.5q-37 0 -67.5 11.5t-52 32t-33.5 49t-12 61.5q0 42 16.5 75t47 56.5t73 36t93.5 12.5q37 0 67.5 -6.5t58.5 -16.5l4 15q2 10 2 16q0 32 -26.5 53t-69.5 21
q-38 0 -67 -14.5t-52 -41.5l-88 64q40 51 98 74.5t125 23.5q101 0 154 -48t53 -126q0 -12 -1.5 -24.5t-3.5 -26.5l-50 -281q-14 -8 -29.5 -18.5t-28 -23.5t-20.5 -27t-8 -28q0 -15 9.5 -23.5t23.5 -8.5q7 0 13 1q5 2 13 4l21 -84q-16 -8 -37 -12t-41 -4zM216 86
q25 0 47.5 9.5t40 25t29 36t15.5 42.5q-15 7 -42.5 15.5t-63.5 8.5q-42 0 -72 -18.5t-30 -56.5q0 -31 22.5 -46.5t53.5 -15.5z" />
    <glyph glyph-name="Cacute" unicode="&#x106;" horiz-adv-x="734" 
d="M410 772l66 136h154l-114 -136h-106zM664 113q-34 -35 -68 -59t-71 -40t-79 -23t-91 -7q-68 0 -127 23t-103 66t-69.5 104.5t-25.5 138.5q0 84 32 159.5t89 132.5t136 90.5t174 33.5q91 0 156 -33t104 -90l-108 -88q-29 39 -69 61t-101 22q-57 0 -107 -22t-88 -60
t-60 -89t-22 -110q0 -48 15.5 -87t42.5 -66.5t64 -42.5t81 -15q64 0 114 26.5t95 71.5z" />
    <glyph glyph-name="cacute" unicode="&#x107;" horiz-adv-x="545" 
d="M260 588l66 136h154l-114 -136h-106zM243 -16q-52 0 -96 17t-75.5 47.5t-49 73t-17.5 93.5q0 58 21 110.5t60 92.5t95 64t126 24q85 0 140 -39.5t75 -103.5l-126 -49q-25 71 -107 71q-33 0 -61.5 -12.5t-48.5 -34t-31.5 -50t-11.5 -60.5q0 -27 9 -50t24.5 -39t36.5 -25
t45 -9q44 0 74.5 19.5t51.5 54.5l112 -54q-48 -76 -107.5 -108.5t-138.5 -32.5z" />
    <glyph glyph-name="Ccircumflex" unicode="&#x108;" horiz-adv-x="734" 
d="M296 775l132 126h119l91 -126l-1 -8h-121l-31 59h-12l-49 -59h-129zM664 113q-34 -35 -68 -59t-71 -40t-79 -23t-91 -7q-68 0 -127 23t-103 66t-69.5 104.5t-25.5 138.5q0 84 32 159.5t89 132.5t136 90.5t174 33.5q91 0 156 -33t104 -90l-108 -88q-29 39 -69 61t-101 22
q-57 0 -107 -22t-88 -60t-60 -89t-22 -110q0 -48 15.5 -87t42.5 -66.5t64 -42.5t81 -15q64 0 114 26.5t95 71.5z" />
    <glyph glyph-name="ccircumflex" unicode="&#x109;" horiz-adv-x="545" 
d="M153 590l132 126h119l91 -126l-1 -8h-121l-31 59h-12l-49 -59h-129zM243 -16q-52 0 -96 17t-75.5 47.5t-49 73t-17.5 93.5q0 58 21 110.5t60 92.5t95 64t126 24q85 0 140 -39.5t75 -103.5l-126 -49q-25 71 -107 71q-33 0 -61.5 -12.5t-48.5 -34t-31.5 -50t-11.5 -60.5
q0 -27 9 -50t24.5 -39t36.5 -25t45 -9q44 0 74.5 19.5t51.5 54.5l112 -54q-48 -76 -107.5 -108.5t-138.5 -32.5z" />
    <glyph glyph-name="Cdotaccent" unicode="&#x10a;" horiz-adv-x="734" 
d="M483 785q-29 0 -49.5 21t-20.5 50t20.5 50t49.5 21q30 0 50.5 -21t20.5 -50t-20.5 -50t-50.5 -21zM664 113q-34 -35 -68 -59t-71 -40t-79 -23t-91 -7q-68 0 -127 23t-103 66t-69.5 104.5t-25.5 138.5q0 84 32 159.5t89 132.5t136 90.5t174 33.5q91 0 156 -33t104 -90
l-108 -88q-29 39 -69 61t-101 22q-57 0 -107 -22t-88 -60t-60 -89t-22 -110q0 -48 15.5 -87t42.5 -66.5t64 -42.5t81 -15q64 0 114 26.5t95 71.5z" />
    <glyph glyph-name="cdotaccent" unicode="&#x10b;" horiz-adv-x="545" 
d="M243 -16q-52 0 -96 17t-75.5 47.5t-49 73t-17.5 93.5q0 58 21 110.5t60 92.5t95 64t126 24q85 0 140 -39.5t75 -103.5l-126 -49q-25 71 -107 71q-33 0 -61.5 -12.5t-48.5 -34t-31.5 -50t-11.5 -60.5q0 -27 9 -50t24.5 -39t36.5 -25t45 -9q44 0 74.5 19.5t51.5 54.5
l112 -54q-48 -76 -107.5 -108.5t-138.5 -32.5zM335 575q-31 0 -53.5 22.5t-22.5 53.5q0 32 22.5 54t53.5 22q32 0 54 -22t22 -54q0 -31 -22 -53.5t-54 -22.5z" />
    <glyph glyph-name="Ccaron" unicode="&#x10c;" horiz-adv-x="734" 
d="M651 904l-132 -126h-119l-91 126l1 8h121l31 -59h12l49 59h129zM664 113q-34 -35 -68 -59t-71 -40t-79 -23t-91 -7q-68 0 -127 23t-103 66t-69.5 104.5t-25.5 138.5q0 84 32 159.5t89 132.5t136 90.5t174 33.5q91 0 156 -33t104 -90l-108 -88q-29 39 -69 61t-101 22
q-57 0 -107 -22t-88 -60t-60 -89t-22 -110q0 -48 15.5 -87t42.5 -66.5t64 -42.5t81 -15q64 0 114 26.5t95 71.5z" />
    <glyph glyph-name="ccaron" unicode="&#x10d;" horiz-adv-x="545" 
d="M521 708l-132 -126h-119l-91 126l1 8h121l31 -59h12l49 59h129zM243 -16q-52 0 -96 17t-75.5 47.5t-49 73t-17.5 93.5q0 58 21 110.5t60 92.5t95 64t126 24q85 0 140 -39.5t75 -103.5l-126 -49q-25 71 -107 71q-33 0 -61.5 -12.5t-48.5 -34t-31.5 -50t-11.5 -60.5
q0 -27 9 -50t24.5 -39t36.5 -25t45 -9q44 0 74.5 19.5t51.5 54.5l112 -54q-48 -76 -107.5 -108.5t-138.5 -32.5z" />
    <glyph glyph-name="Dcaron" unicode="&#x10e;" horiz-adv-x="719" 
d="M565 892l-132 -126h-119l-91 126l1 8h121l31 -59h12l49 59h129zM135 716h228q79 0 140 -23.5t102 -65t62 -99t21 -126.5q0 -80 -29.5 -152.5t-85 -128t-134.5 -88.5t-179 -33h-252zM267 128q64 0 117 20t90.5 55t58 82t20.5 102q0 97 -50.5 149t-153.5 52h-102l-82 -460
h102z" />
    <glyph glyph-name="dcaron" unicode="&#x10f;" horiz-adv-x="713" 
d="M623 495l39 221h138l-84 -221h-93zM207 -16q-44 0 -81 17t-64 48t-42 73.5t-15 92.5q0 58 20 110.5t57 92.5t87.5 64t112.5 24q49 0 89.5 -21.5t57.5 -53.5h8l3 70l38 215h130l-126 -716h-122l10 59h-8q-20 -29 -57.5 -52t-97.5 -23zM286 385q-33 0 -60.5 -13t-47.5 -35
t-31 -51t-11 -61q0 -55 33 -87.5t87 -32.5q29 0 56 12t47.5 33t33 51t12.5 66q0 54 -33 86t-86 32z" />
    <glyph glyph-name="Dcroat" unicode="&#x110;" horiz-adv-x="712" 
d="M57 317h-71l17 110h74l51 289h228q80 0 141 -23.5t102 -65t62 -99t21 -126.5q0 -80 -29.5 -152.5t-85 -128t-135 -88.5t-179.5 -33h-252zM260 128q65 0 117.5 20t90 55t58 82t20.5 102q0 97 -50.5 149t-153.5 52h-102l-29 -161h184l-18 -110h-185l-33 -189h101z" />
    <glyph glyph-name="dcroat" unicode="&#x111;" horiz-adv-x="595" 
d="M207 -16q-44 0 -81 17t-64 48t-42 73.5t-15 92.5q0 58 20 110.5t57 92.5t87.5 64t112.5 24q49 0 89.5 -21.5t57.5 -53.5h8l3 70l10 62h-134l17 90h133l12 63h130l-11 -63h59l-16 -90h-59l-99 -563h-122l10 59h-8q-20 -29 -57.5 -52t-97.5 -23zM286 385q-33 0 -60.5 -13
t-47.5 -35t-31 -51t-11 -61q0 -55 33 -87.5t87 -32.5q29 0 56 12t47.5 33t33 51t12.5 66q0 54 -33 86t-86 32z" />
    <glyph glyph-name="Emacron" unicode="&#x112;" horiz-adv-x="578" 
d="M247 588l-29 -166h287l-23 -128h-287l-30 -166h320l-23 -128h-454l127 716h454l-23 -128h-319zM214 793l18 100h296l-18 -100h-296z" />
    <glyph glyph-name="emacron" unicode="&#x113;" horiz-adv-x="556" 
d="M482 120q-43 -64 -101 -100t-145 -36q-54 0 -96.5 18t-72.5 49.5t-46 74t-16 90.5q0 57 21 109t59 92.5t92 64.5t120 24q54 0 94.5 -16.5t68 -44.5t41.5 -65t14 -78q0 -47 -14 -87h-369v-10q2 -54 35.5 -79.5t78.5 -25.5q48 0 81 18.5t56 53.5zM393 308v4
q0 34 -26.5 60.5t-80.5 26.5q-49 0 -85.5 -26.5t-50.5 -64.5h243zM178 609l18 100h296l-18 -100h-296z" />
    <glyph glyph-name="Ebreve" unicode="&#x114;" horiz-adv-x="578" 
d="M247 588l-29 -166h287l-23 -128h-287l-30 -166h320l-23 -128h-454l127 716h454l-23 -128h-319zM362 763q-24 0 -46 8t-38 23t-25.5 36t-9.5 46v10t2 13h92q-1 -4 -1 -9q0 -15 9.5 -26t28.5 -11q20 0 33.5 13t17.5 33h92q-11 -68 -51.5 -102t-103.5 -34z" />
    <glyph glyph-name="ebreve" unicode="&#x115;" horiz-adv-x="556" 
d="M482 120q-43 -64 -101 -100t-145 -36q-54 0 -96.5 18t-72.5 49.5t-46 74t-16 90.5q0 57 21 109t59 92.5t92 64.5t120 24q54 0 94.5 -16.5t68 -44.5t41.5 -65t14 -78q0 -47 -14 -87h-369v-10q2 -54 35.5 -79.5t78.5 -25.5q48 0 81 18.5t56 53.5zM393 308v4
q0 34 -26.5 60.5t-80.5 26.5q-49 0 -85.5 -26.5t-50.5 -64.5h243zM325 579q-24 0 -46 8t-38 23t-25.5 36t-9.5 46v10t2 13h92q-1 -4 -1 -9q0 -15 9.5 -26t28.5 -11q20 0 33.5 13t17.5 33h92q-11 -68 -51.5 -102t-103.5 -34z" />
    <glyph glyph-name="Edotaccent" unicode="&#x116;" horiz-adv-x="578" 
d="M387 785q-29 0 -49.5 21t-20.5 50t20.5 50t49.5 21q30 0 50.5 -21t20.5 -50t-20.5 -50t-50.5 -21zM247 588l-29 -166h287l-23 -128h-287l-30 -166h320l-23 -128h-454l127 716h454l-23 -128h-319z" />
    <glyph glyph-name="edotaccent" unicode="&#x117;" horiz-adv-x="556" 
d="M482 120q-43 -64 -101 -100t-145 -36q-54 0 -96.5 18t-72.5 49.5t-46 74t-16 90.5q0 57 21 109t59 92.5t92 64.5t120 24q54 0 94.5 -16.5t68 -44.5t41.5 -65t14 -78q0 -47 -14 -87h-369v-10q2 -54 35.5 -79.5t78.5 -25.5q48 0 81 18.5t56 53.5zM393 308v4
q0 34 -26.5 60.5t-80.5 26.5q-49 0 -85.5 -26.5t-50.5 -64.5h243zM332 575q-31 0 -53.5 22.5t-22.5 53.5q0 32 22.5 54t53.5 22q32 0 54 -22t22 -54q0 -31 -22 -53.5t-54 -22.5z" />
    <glyph glyph-name="Eogonek" unicode="&#x118;" horiz-adv-x="578" 
d="M378 -224q-56 0 -86.5 27.5t-30.5 69.5t23.5 74t60.5 53h-337l127 716h454l-23 -128h-319l-29 -166h287l-23 -128h-287l-30 -166h320l-23 -128q-14 -8 -29 -18.5t-27.5 -23.5t-20.5 -27t-8 -28q0 -15 9.5 -23.5t23.5 -8.5q10 0 25 5l22 -84q-17 -8 -38 -12t-41 -4z" />
    <glyph glyph-name="eogonek" unicode="&#x119;" horiz-adv-x="556" 
d="M262 -224q-56 0 -86.5 27.5t-30.5 69.5q0 35 16.5 63t44.5 49q-47 5 -84 25t-63 51t-40 70.5t-14 84.5q0 57 21 109t59 92.5t92 64.5t120 24q54 0 94.5 -16.5t68 -44.5t41.5 -65t14 -78q0 -47 -14 -87h-369v-10q2 -54 35.5 -79.5t78.5 -25.5q48 0 81 18.5t56 53.5l99 -52
q-26 -38 -56 -66t-71 -48q-38 -19 -66.5 -46.5t-28.5 -56.5q0 -15 9.5 -23.5t23.5 -8.5q7 0 13 1q5 2 13 4l21 -84q-16 -8 -37 -12t-41 -4zM393 308v4q0 34 -26.5 60.5t-80.5 26.5q-49 0 -85.5 -26.5t-50.5 -64.5h243z" />
    <glyph glyph-name="Ecaron" unicode="&#x11a;" horiz-adv-x="578" 
d="M554 892l-132 -126h-119l-91 126l1 8h121l31 -59h12l49 59h129zM247 588l-29 -166h287l-23 -128h-287l-30 -166h320l-23 -128h-454l127 716h454l-23 -128h-319z" />
    <glyph glyph-name="ecaron" unicode="&#x11b;" horiz-adv-x="556" 
d="M510 708l-132 -126h-119l-91 126l1 8h121l31 -59h12l49 59h129zM482 120q-43 -64 -101 -100t-145 -36q-54 0 -96.5 18t-72.5 49.5t-46 74t-16 90.5q0 57 21 109t59 92.5t92 64.5t120 24q54 0 94.5 -16.5t68 -44.5t41.5 -65t14 -78q0 -47 -14 -87h-369v-10
q2 -54 35.5 -79.5t78.5 -25.5q48 0 81 18.5t56 53.5zM393 308v4q0 34 -26.5 60.5t-80.5 26.5q-49 0 -85.5 -26.5t-50.5 -64.5h243z" />
    <glyph glyph-name="Gcircumflex" unicode="&#x11c;" horiz-adv-x="810" 
d="M300 775l132 126h119l91 -126l-1 -8h-121l-31 59h-12l-49 -59h-129zM418 393h351v-30q0 -86 -33.5 -158t-87.5 -121q-53 -48 -122.5 -74t-148.5 -26q-77 0 -140.5 25t-109 70t-71 107.5t-25.5 137.5q0 81 31 155t88 130t136.5 89.5t177.5 33.5q90 0 158 -31.5t110 -85.5
l-107 -91q-25 35 -70 57.5t-106 22.5q-58 0 -109.5 -19.5t-89.5 -55.5t-60.5 -86.5t-22.5 -112.5q0 -51 16.5 -91.5t46 -68.5t69 -43t85.5 -15q102 0 167 57q24 20 40 47.5t27 61.5h-220z" />
    <glyph glyph-name="gcircumflex" unicode="&#x11d;" horiz-adv-x="597" 
d="M156 590l132 126h119l91 -126l-1 -8h-121l-31 59h-12l-49 -59h-129zM209 -232q-49 0 -87 13t-65.5 34t-44.5 48t-24 54l128 47q8 -39 35.5 -59.5t67.5 -20.5q132 0 158 139l7 41h-8q-22 -33 -61 -51t-88 -18q-43 0 -80 16t-64 45t-42.5 70.5t-15.5 92.5q0 52 18.5 103.5
t53.5 92.5t85.5 66t115.5 25q50 0 87 -18.5t57 -50.5h8l9 53h126l-85 -481q-21 -119 -94.5 -180t-196.5 -61zM269 113q30 0 57 12t47.5 34t33 51.5t12.5 65.5q0 27 -9.5 48t-25 35t-36 21t-41.5 7q-33 0 -61 -13.5t-48 -35.5t-31 -50.5t-11 -59.5q0 -57 33 -86t80 -29z" />
    <glyph glyph-name="Gbreve" unicode="&#x11e;" horiz-adv-x="810" 
d="M418 393h351v-30q0 -86 -33.5 -158t-87.5 -121q-53 -48 -122.5 -74t-148.5 -26q-77 0 -140.5 25t-109 70t-71 107.5t-25.5 137.5q0 81 31 155t88 130t136.5 89.5t177.5 33.5q90 0 158 -31.5t110 -85.5l-107 -91q-25 35 -70 57.5t-106 22.5q-58 0 -109.5 -19.5
t-89.5 -55.5t-60.5 -86.5t-22.5 -112.5q0 -51 16.5 -91.5t46 -68.5t69 -43t85.5 -15q102 0 167 57q24 20 40 47.5t27 61.5h-220zM474 763q-24 0 -46 8t-38 23t-25.5 36t-9.5 46v10t2 13h92q-1 -4 -1 -9q0 -15 9.5 -26t28.5 -11q20 0 33.5 13t17.5 33h92q-11 -68 -51.5 -102
t-103.5 -34z" />
    <glyph glyph-name="gbreve" unicode="&#x11f;" horiz-adv-x="597" 
d="M209 -232q-49 0 -87 13t-65.5 34t-44.5 48t-24 54l128 47q8 -39 35.5 -59.5t67.5 -20.5q132 0 158 139l7 41h-8q-22 -33 -61 -51t-88 -18q-43 0 -80 16t-64 45t-42.5 70.5t-15.5 92.5q0 52 18.5 103.5t53.5 92.5t85.5 66t115.5 25q50 0 87 -18.5t57 -50.5h8l9 53h126
l-85 -481q-21 -119 -94.5 -180t-196.5 -61zM269 113q30 0 57 12t47.5 34t33 51.5t12.5 65.5q0 27 -9.5 48t-25 35t-36 21t-41.5 7q-33 0 -61 -13.5t-48 -35.5t-31 -50.5t-11 -59.5q0 -57 33 -86t80 -29zM344 579q-24 0 -46 8t-38 23t-25.5 36t-9.5 46v10t2 13h92
q-1 -4 -1 -9q0 -15 9.5 -26t28.5 -11q20 0 33.5 13t17.5 33h92q-11 -68 -51.5 -102t-103.5 -34z" />
    <glyph glyph-name="Gdotaccent" unicode="&#x120;" horiz-adv-x="810" 
d="M488 785q-29 0 -49.5 21t-20.5 50t20.5 50t49.5 21q30 0 50.5 -21t20.5 -50t-20.5 -50t-50.5 -21zM418 393h351v-30q0 -86 -33.5 -158t-87.5 -121q-53 -48 -122.5 -74t-148.5 -26q-77 0 -140.5 25t-109 70t-71 107.5t-25.5 137.5q0 81 31 155t88 130t136.5 89.5
t177.5 33.5q90 0 158 -31.5t110 -85.5l-107 -91q-25 35 -70 57.5t-106 22.5q-58 0 -109.5 -19.5t-89.5 -55.5t-60.5 -86.5t-22.5 -112.5q0 -51 16.5 -91.5t46 -68.5t69 -43t85.5 -15q102 0 167 57q24 20 40 47.5t27 61.5h-220z" />
    <glyph glyph-name="gdotaccent" unicode="&#x121;" horiz-adv-x="597" 
d="M209 -232q-49 0 -87 13t-65.5 34t-44.5 48t-24 54l128 47q8 -39 35.5 -59.5t67.5 -20.5q132 0 158 139l7 41h-8q-22 -33 -61 -51t-88 -18q-43 0 -80 16t-64 45t-42.5 70.5t-15.5 92.5q0 52 18.5 103.5t53.5 92.5t85.5 66t115.5 25q50 0 87 -18.5t57 -50.5h8l9 53h126
l-85 -481q-21 -119 -94.5 -180t-196.5 -61zM269 113q30 0 57 12t47.5 34t33 51.5t12.5 65.5q0 27 -9.5 48t-25 35t-36 21t-41.5 7q-33 0 -61 -13.5t-48 -35.5t-31 -50.5t-11 -59.5q0 -57 33 -86t80 -29zM345 575q-31 0 -53.5 22.5t-22.5 53.5q0 32 22.5 54t53.5 22
q32 0 54 -22t22 -54q0 -31 -22 -53.5t-54 -22.5z" />
    <glyph glyph-name="uni0122" unicode="&#x122;" horiz-adv-x="810" 
d="M272 -249l58 66q-20 8 -31.5 25t-11.5 39q0 29 20.5 50t50.5 21t50.5 -21t20.5 -51q0 -13 -4.5 -26.5t-14.5 -25.5l-94 -114zM418 393h351v-30q0 -86 -33.5 -158t-87.5 -121q-53 -48 -122.5 -74t-148.5 -26q-77 0 -140.5 25t-109 70t-71 107.5t-25.5 137.5q0 81 31 155
t88 130t136.5 89.5t177.5 33.5q90 0 158 -31.5t110 -85.5l-107 -91q-25 35 -70 57.5t-106 22.5q-58 0 -109.5 -19.5t-89.5 -55.5t-60.5 -86.5t-22.5 -112.5q0 -51 16.5 -91.5t46 -68.5t69 -43t85.5 -15q102 0 167 57q24 20 40 47.5t27 61.5h-220z" />
    <glyph glyph-name="uni0123" unicode="&#x123;" horiz-adv-x="597" 
d="M435.008 772.97l-57.9922 -65.9922q19.9971 -7.99902 31.4961 -24.9971q11.498 -16.998 11.498 -38.9951q0 -28.9961 -20.4971 -49.9941q-20.498 -20.9971 -50.4941 -20.9971t-50.4941 20.9971q-20.4971 20.998 -20.4971 50.9941q0 12.998 4.49902 26.4971
q4.5 13.498 14.499 25.4961l93.9883 113.986zM209 -232q-49 0 -87 13t-65.5 34t-44.5 48t-24 54l128 47q8 -39 35.5 -59.5t67.5 -20.5q132 0 158 139l7 41h-8q-22 -33 -61 -51t-88 -18q-43 0 -80 16t-64 45t-42.5 70.5t-15.5 92.5q0 52 18.5 103.5t53.5 92.5t85.5 66
t115.5 25q50 0 87 -18.5t57 -50.5h8l9 53h126l-85 -481q-21 -119 -94.5 -180t-196.5 -61zM269 113q30 0 57 12t47.5 34t33 51.5t12.5 65.5q0 27 -9.5 48t-25 35t-36 21t-41.5 7q-33 0 -61 -13.5t-48 -35.5t-31 -50.5t-11 -59.5q0 -57 33 -86t80 -29z" />
    <glyph glyph-name="Hcircumflex" unicode="&#x124;" horiz-adv-x="715" 
d="M255 774l132 126h119l91 -126l-1 -8h-121l-31 59h-12l-49 -59h-129zM135 716h135l-51 -286h302l51 286h134l-127 -716h-134l53 302h-302l-53 -302h-135z" />
    <glyph glyph-name="hcircumflex" unicode="&#x125;" 
d="M179 774l132 126h119l91 -126l-1 -8h-121l-31 59h-12l-49 -59h-129zM214 515l-24 -89h8q27 38 69 59t93 21q40 0 69 -12.5t48.5 -33.5t29 -49t9.5 -59q0 -23 -6 -59l-52 -293h-131l50 281q3 18 3 29q0 32 -19 53.5t-56 21.5q-30 0 -53.5 -11.5t-41 -31t-28.5 -46
t-16 -57.5l-42 -239h-131l126 716h131z" />
    <glyph glyph-name="Hbar" unicode="&#x126;" horiz-adv-x="715" 
d="M95 493h-62l17 98h63l22 125h135l-23 -125h302l23 125h134l-22 -125h63l-18 -98h-62l-88 -493h-134l53 302h-302l-53 -302h-135zM521 430l11 63h-302l-11 -63h302z" />
    <glyph glyph-name="hbar" unicode="&#x127;" 
d="M238 653h135l-16 -90h-135l-8 -48l-24 -89h8q27 38 69 59t93 21q40 0 69 -12.5t48.5 -33.5t29 -49t9.5 -59q0 -23 -6 -59l-52 -293h-131l50 281q2 6 2.5 14t0.5 15q0 32 -19 53.5t-56 21.5q-30 0 -53.5 -11.5t-41 -31t-28.5 -46t-16 -57.5l-43 -239h-130l99 563h-58
l15 90h58l12 63h131z" />
    <glyph glyph-name="Itilde" unicode="&#x128;" horiz-adv-x="279" 
d="M135 716h135l-127 -716h-135zM269 771q-21 0 -38 6.5t-31 15.5q-15 8 -28 14.5t-25 6.5q-26 0 -33 -29h-92q8 65 42.5 96.5t85.5 31.5q21 0 38 -6.5t32 -14.5q14 -9 27 -15.5t25 -6.5q26 0 33 29h92q-8 -65 -42.5 -96.5t-85.5 -31.5z" />
    <glyph glyph-name="itilde" unicode="&#x129;" horiz-adv-x="259" 
d="M0 0l86 490h131l-86 -490h-131zM241 587q-21 0 -38 6.5t-31 15.5q-15 8 -28 14.5t-25 6.5q-26 0 -33 -29h-92q8 65 42.5 96.5t85.5 31.5q21 0 38 -6.5t32 -14.5q14 -9 27 -15.5t25 -6.5q26 0 33 29h92q-8 -65 -42.5 -96.5t-85.5 -31.5z" />
    <glyph glyph-name="Imacron" unicode="&#x12a;" horiz-adv-x="279" 
d="M77 793l18 100h274l-17 -100h-275zM135 716h135l-127 -716h-135z" />
    <glyph glyph-name="imacron" unicode="&#x12b;" horiz-adv-x="259" 
d="M0 0l86 490h131l-86 -490h-131zM26 609l18 100h296l-18 -100h-296z" />
    <glyph glyph-name="Ibreve" unicode="&#x12c;" horiz-adv-x="279" 
d="M135 716h135l-127 -716h-135zM210 763q-24 0 -46 8t-38 23t-25.5 36t-9.5 46v10t2 13h92q-1 -4 -1 -9q0 -15 9.5 -26t28.5 -11q20 0 33.5 13t17.5 33h92q-11 -68 -51.5 -102t-103.5 -34z" />
    <glyph glyph-name="ibreve" unicode="&#x12d;" horiz-adv-x="259" 
d="M0 0l86 490h131l-86 -490h-131zM174 579q-24 0 -46 8t-38 23t-25.5 36t-9.5 46v10t2 13h92q-1 -4 -1 -9q0 -15 9.5 -26t28.5 -11q20 0 33.5 13t17.5 33h92q-11 -68 -51.5 -102t-103.5 -34z" />
    <glyph glyph-name="Iogonek" unicode="&#x12e;" horiz-adv-x="279" 
d="M59 -224q-56 0 -86.5 27.5t-30.5 69.5q0 39 21.5 70t55.5 52l-2 5h-9l127 716h135l-127 -716q-14 -8 -29.5 -18.5t-28 -23.5t-20.5 -27t-8 -28q0 -15 9.5 -23.5t23.5 -8.5q7 0 13 1q5 2 13 4l21 -84q-16 -8 -37 -12t-41 -4z" />
    <glyph glyph-name="iogonek" unicode="&#x12f;" horiz-adv-x="259" 
d="M47 -224q-56 0 -86.5 27.5t-30.5 69.5q0 38 19.5 68.5t53.5 51.5l-3 7l86 490h131l-86 -490q-14 -8 -29.5 -18.5t-28 -23.5t-20.5 -27t-8 -28q0 -15 9.5 -23.5t23.5 -8.5q7 0 13 1q5 2 13 4l21 -84q-16 -8 -37 -12t-41 -4zM178 561q-35 0 -59.5 24.5t-24.5 59.5
t24.5 59.5t59.5 24.5t59.5 -24.5t24.5 -59.5t-24.5 -59.5t-59.5 -24.5z" />
    <glyph glyph-name="Idotaccent" unicode="&#x130;" horiz-adv-x="279" 
d="M135 716h135l-127 -716h-135zM225 785q-29 0 -49.5 21t-20.5 50t20.5 50t49.5 21q30 0 50.5 -21t20.5 -50t-20.5 -50t-50.5 -21z" />
    <glyph glyph-name="dotlessi" unicode="&#x131;" horiz-adv-x="259" 
d="M0 0l86 490h131l-86 -490h-131z" />
    <glyph glyph-name="Jcircumflex" unicode="&#x134;" horiz-adv-x="555" 
d="M322 774l132 126h119l91 -126l-1 -8h-121l-31 59h-12l-49 -59h-129zM208 -16q-42 0 -79 12.5t-66.5 35.5t-48.5 54.5t-24 70.5l130 50q5 -47 33 -71t69 -24q47 0 77 30t40 84l86 490h134l-86 -489q-11 -65 -35.5 -111t-59.5 -75t-78 -43t-92 -14z" />
    <glyph glyph-name="jcircumflex" unicode="&#x135;" horiz-adv-x="259" 
d="M-61 -226q-20 0 -43 3.5t-39 10.5l47 116q15 -9 33 -9q22 0 35.5 12.5t18.5 41.5l95 541h131l-96 -544q-9 -50 -25 -83t-39 -52.5t-52.5 -28t-65.5 -8.5zM-11 590l132 126h119l91 -126l-1 -8h-121l-31 59h-12l-49 -59h-129z" />
    <glyph glyph-name="uni0136" unicode="&#x136;" horiz-adv-x="665" 
d="M197 -249l58 66q-20 8 -31.5 25t-11.5 39q0 29 20.5 50t50.5 21t50.5 -21t20.5 -51q0 -13 -4.5 -26.5t-14.5 -25.5l-94 -114zM701 708l-312 -298l213 -402l-2 -8h-158l-161 307l-101 -97l-37 -210h-135l127 716h135l-54 -303h8l312 303h167z" />
    <glyph glyph-name="uni0137" unicode="&#x137;" horiz-adv-x="527" 
d="M127 -249l58 66q-20 8 -31.5 25t-11.5 39q0 29 20.5 50t50.5 21t50.5 -21t20.5 -51q0 -13 -4.5 -26.5t-14.5 -25.5l-94 -114zM183 333h8l182 157h169l-2 -8l-216 -180l148 -294l-2 -8h-148l-102 216l-68 -57l-28 -159h-131l126 716h131z" />
    <glyph glyph-name="kgreenlandic" unicode="&#x138;" horiz-adv-x="514" 
d="M210 490l-37 -209h8l193 209h156l-1 -8l-218 -231l142 -243l-2 -8h-147l-131 234h-8l-42 -234h-130l86 490h131z" />
    <glyph glyph-name="Lacute" unicode="&#x139;" horiz-adv-x="534" 
d="M147 772l66 136h154l-114 -136h-106zM135 716h135l-105 -588h304l-23 -128h-438z" />
    <glyph glyph-name="lacute" unicode="&#x13a;" horiz-adv-x="243" 
d="M131 772l66 136h154l-114 -136h-106zM-7 0l126 716h131l-126 -716h-131z" />
    <glyph glyph-name="uni013B" unicode="&#x13b;" horiz-adv-x="534" 
d="M146 -249l58 66q-20 8 -31.5 25t-11.5 39q0 29 20.5 50t50.5 21t50.5 -21t20.5 -51q0 -13 -4.5 -26.5t-14.5 -25.5l-94 -114zM135 716h135l-105 -588h304l-23 -128h-438z" />
    <glyph glyph-name="uni013C" unicode="&#x13c;" horiz-adv-x="243" 
d="M-48 -249l58 66q-20 8 -31.5 25t-11.5 39q0 29 20.5 50t50.5 21t50.5 -21t20.5 -51q0 -13 -4.5 -26.5t-14.5 -25.5l-94 -114zM-7 0l126 716h131l-126 -716h-131z" />
    <glyph glyph-name="Lcaron" unicode="&#x13d;" horiz-adv-x="534" 
d="M375 495l39 221h138l-84 -221h-93zM135 716h135l-105 -588h304l-23 -128h-438z" />
    <glyph glyph-name="lcaron" unicode="&#x13e;" horiz-adv-x="383" 
d="M293 495l39 221h138l-84 -221h-93zM6 0l126 716h131l-126 -716h-131z" />
    <glyph glyph-name="Ldot" unicode="&#x13f;" horiz-adv-x="534" 
d="M135 716h135l-105 -588h304l-23 -128h-438zM385 257q-36 0 -61.5 25.5t-25.5 61.5t25.5 61.5t61.5 25.5t61 -25.5t25 -61.5t-25 -61.5t-61 -25.5z" />
    <glyph glyph-name="Lslash" unicode="&#x141;" horiz-adv-x="617" 
d="M134 247l-59 -33l-49 91l132 74l60 337h134l-44 -250l121 68l49 -88l-193 -109l-37 -209h303l-22 -128h-438z" />
    <glyph glyph-name="lslash" unicode="&#x142;" horiz-adv-x="419" 
d="M78 0l45 255l-52 -32l-55 84l131 84l57 325h131l-41 -233l67 44l55 -85l-147 -96l-61 -346h-130z" />
    <glyph glyph-name="Nacute" unicode="&#x143;" horiz-adv-x="723" 
d="M371 772l66 136h154l-114 -136h-106zM135 716h150l210 -480h8l17 138l60 342h134l-127 -716h-134l-222 507h-8l-16 -138l-66 -369h-133z" />
    <glyph glyph-name="nacute" unicode="&#x144;" 
d="M281 588l66 136h154l-114 -136h-106zM190 426h8q26 38 68 59t93 21q38 0 67 -12.5t49 -33.5t30 -49.5t10 -60.5q0 -14 -1 -29t-4 -32l-52 -289h-130l50 281q1 5 1.5 13.5t0.5 16.5q0 32 -19 53t-57 21q-30 0 -53 -11t-40 -30.5t-28 -46t-17 -57.5l-42 -240h-131l86 490
h123z" />
    <glyph glyph-name="uni0145" unicode="&#x145;" horiz-adv-x="723" 
d="M207 -249l58 66q-20 8 -31.5 25t-11.5 39q0 29 20.5 50t50.5 21t50.5 -21t20.5 -51q0 -13 -4.5 -26.5t-14.5 -25.5l-94 -114zM135 716h150l210 -480h8l17 138l60 342h134l-127 -716h-134l-222 507h-8l-16 -138l-66 -369h-133z" />
    <glyph glyph-name="uni0146" unicode="&#x146;" 
d="M123 -249l58 66q-20 8 -31.5 25t-11.5 39q0 29 20.5 50t50.5 21t50.5 -21t20.5 -51q0 -13 -4.5 -26.5t-14.5 -25.5l-94 -114zM190 426h8q26 38 68 59t93 21q38 0 67 -12.5t49 -33.5t30 -49.5t10 -60.5q0 -14 -1 -29t-4 -32l-52 -289h-130l50 281q1 5 1.5 13.5t0.5 16.5
q0 32 -19 53t-57 21q-30 0 -53 -11t-40 -30.5t-28 -46t-17 -57.5l-42 -240h-131l86 490h123z" />
    <glyph glyph-name="Ncaron" unicode="&#x147;" horiz-adv-x="723" 
d="M618 892l-132 -126h-119l-91 126l1 8h121l31 -59h12l49 59h129zM135 716h150l210 -480h8l17 138l60 342h134l-127 -716h-134l-222 507h-8l-16 -138l-66 -369h-133z" />
    <glyph glyph-name="ncaron" unicode="&#x148;" 
d="M523 708l-132 -126h-119l-91 126l1 8h121l31 -59h12l49 59h129zM190 426h8q26 38 68 59t93 21q38 0 67 -12.5t49 -33.5t30 -49.5t10 -60.5q0 -14 -1 -29t-4 -32l-52 -289h-130l50 281q1 5 1.5 13.5t0.5 16.5q0 32 -19 53t-57 21q-30 0 -53 -11t-40 -30.5t-28 -46
t-17 -57.5l-42 -240h-131l86 490h123z" />
    <glyph glyph-name="Eng" unicode="&#x14a;" horiz-adv-x="723" 
d="M135 716h151l211 -470h8l17 138l58 332h134l-135 -759q-9 -54 -26 -89.5t-41.5 -56t-56 -29t-69.5 -8.5q-24 0 -43 3.5t-36 10.5l51 115q13 -9 33 -9q44 0 54 55l9 52l-223 506h-8l-16 -138l-66 -369h-133z" />
    <glyph glyph-name="eng" unicode="&#x14b;" 
d="M190 426h8q26 38 68 59t93 21q38 0 67 -12.5t49 -33.5t30 -49.5t10 -60.5q0 -14 -1 -29t-4 -32l-61 -343q-9 -50 -25 -83t-38.5 -52.5t-52 -28t-65.5 -8.5q-20 0 -43 3.5t-40 10.5l47 116q15 -9 34 -9q21 0 34.5 12.5t18.5 41.5l59 332q1 5 1.5 13.5t0.5 16.5
q0 32 -19 53t-57 21q-30 0 -53 -11t-40 -30.5t-28 -46t-17 -57.5l-42 -240h-131l86 490h123z" />
    <glyph glyph-name="Omacron" unicode="&#x14c;" horiz-adv-x="822" 
d="M321 793l18 100h296l-18 -100h-296zM366 -16q-72 0 -133.5 24t-106.5 67.5t-70.5 105t-25.5 136.5q0 84 31 159.5t87 132t134.5 90t173.5 33.5q75 0 137 -25t106 -69.5t68.5 -105.5t24.5 -133q0 -84 -31 -159t-87 -132t-134.5 -90.5t-173.5 -33.5zM380 112q57 0 107 22.5
t87.5 60.5t59.5 88t22 106q0 49 -16.5 88.5t-45.5 67.5t-68 43.5t-84 15.5q-59 0 -109 -23t-87.5 -61.5t-58.5 -88.5t-21 -104q0 -49 16.5 -88.5t45.5 -67.5t68 -43.5t84 -15.5z" />
    <glyph glyph-name="omacron" unicode="&#x14d;" horiz-adv-x="576" 
d="M184 609l18 100h296l-18 -100h-296zM303 506q53 0 96.5 -18t74 -49t47 -72.5t16.5 -88.5q0 -62 -22 -116t-61.5 -93.5t-94.5 -62t-120 -22.5q-53 0 -96.5 18t-74 49t-47 72.5t-16.5 89.5q0 62 22 115.5t61.5 93t94.5 62t120 22.5zM252 105q33 0 61 12.5t49 34.5
t32.5 50.5t11.5 61.5q0 26 -9 48.5t-24.5 38.5t-37 25t-45.5 9q-33 0 -61 -12.5t-49 -34.5t-32.5 -50.5t-11.5 -61.5q0 -26 9 -48.5t25 -38.5t37 -25t45 -9z" />
    <glyph glyph-name="Obreve" unicode="&#x14e;" horiz-adv-x="822" 
d="M366 -16q-72 0 -133.5 24t-106.5 67.5t-70.5 105t-25.5 136.5q0 84 31 159.5t87 132t134.5 90t173.5 33.5q75 0 137 -25t106 -69.5t68.5 -105.5t24.5 -133q0 -84 -31 -159t-87 -132t-134.5 -90.5t-173.5 -33.5zM380 112q57 0 107 22.5t87.5 60.5t59.5 88t22 106
q0 49 -16.5 88.5t-45.5 67.5t-68 43.5t-84 15.5q-59 0 -109 -23t-87.5 -61.5t-58.5 -88.5t-21 -104q0 -49 16.5 -88.5t45.5 -67.5t68 -43.5t84 -15.5zM473 763q-24 0 -46 8t-38 23t-25.5 36t-9.5 46v10t2 13h92q-1 -4 -1 -9q0 -15 9.5 -26t28.5 -11q20 0 33.5 13t17.5 33h92
q-11 -68 -51.5 -102t-103.5 -34z" />
    <glyph glyph-name="obreve" unicode="&#x14f;" horiz-adv-x="576" 
d="M303 506q53 0 96.5 -18t74 -49t47 -72.5t16.5 -88.5q0 -62 -22 -116t-61.5 -93.5t-94.5 -62t-120 -22.5q-53 0 -96.5 18t-74 49t-47 72.5t-16.5 89.5q0 62 22 115.5t61.5 93t94.5 62t120 22.5zM252 105q33 0 61 12.5t49 34.5t32.5 50.5t11.5 61.5q0 26 -9 48.5
t-24.5 38.5t-37 25t-45.5 9q-33 0 -61 -12.5t-49 -34.5t-32.5 -50.5t-11.5 -61.5q0 -26 9 -48.5t25 -38.5t37 -25t45 -9zM332 579q-24 0 -46 8t-38 23t-25.5 36t-9.5 46v10t2 13h92q-1 -4 -1 -9q0 -15 9.5 -26t28.5 -11q20 0 33.5 13t17.5 33h92q-11 -68 -51.5 -102
t-103.5 -34z" />
    <glyph glyph-name="Ohungarumlaut" unicode="&#x150;" horiz-adv-x="822" 
d="M366 -16q-72 0 -133.5 24t-106.5 67.5t-70.5 105t-25.5 136.5q0 84 31 159.5t87 132t134.5 90t173.5 33.5q75 0 137 -25t106 -69.5t68.5 -105.5t24.5 -133q0 -84 -31 -159t-87 -132t-134.5 -90.5t-173.5 -33.5zM380 112q57 0 107 22.5t87.5 60.5t59.5 88t22 106
q0 49 -16.5 88.5t-45.5 67.5t-68 43.5t-84 15.5q-59 0 -109 -23t-87.5 -61.5t-58.5 -88.5t-21 -104q0 -49 16.5 -88.5t45.5 -67.5t68 -43.5t84 -15.5zM295 772l66 136h154l-114 -136h-106zM493 772l66 136h154l-114 -136h-106z" />
    <glyph glyph-name="ohungarumlaut" unicode="&#x151;" horiz-adv-x="576" 
d="M176 588l66 136h154l-114 -136h-106zM373 588l66 136h154l-114 -136h-106zM303 506q53 0 96.5 -18t74 -49t47 -72.5t16.5 -88.5q0 -62 -22 -116t-61.5 -93.5t-94.5 -62t-120 -22.5q-53 0 -96.5 18t-74 49t-47 72.5t-16.5 89.5q0 62 22 115.5t61.5 93t94.5 62t120 22.5z
M252 105q33 0 61 12.5t49 34.5t32.5 50.5t11.5 61.5q0 26 -9 48.5t-24.5 38.5t-37 25t-45.5 9q-33 0 -61 -12.5t-49 -34.5t-32.5 -50.5t-11.5 -61.5q0 -26 9 -48.5t25 -38.5t37 -25t45 -9z" />
    <glyph glyph-name="OE" unicode="&#x152;" horiz-adv-x="1146" 
d="M815 588l-30 -166h288l-23 -128h-288l-29 -166h319l-22 -128h-454l12 69h-6q-40 -40 -97.5 -62.5t-129.5 -22.5q-69 0 -128.5 24t-103 68t-68.5 105.5t-25 135.5q0 84 31.5 159t87.5 132t133 90.5t169 33.5q79 0 136.5 -25t93.5 -70h7l15 79h454l-23 -128h-319zM381 112
q61 0 110.5 23t84.5 61.5t54 88.5t19 104q0 49 -15.5 88.5t-43.5 67.5t-66.5 43.5t-84.5 15.5q-60 0 -110 -23t-86 -61t-56.5 -88t-20.5 -105q0 -49 16.5 -88.5t46 -67.5t68.5 -43.5t84 -15.5z" />
    <glyph glyph-name="oe" unicode="&#x153;" horiz-adv-x="948" 
d="M880 120q-43 -64 -101.5 -100t-146.5 -36q-61 0 -105.5 23.5t-72.5 62.5q-38 -40 -90.5 -63t-118.5 -23q-54 0 -97 18t-74 49t-47.5 72.5t-16.5 89.5q0 62 22 115.5t61.5 93t94.5 62t120 22.5q59 0 104.5 -24.5t74.5 -65.5q38 41 90 65.5t119 24.5q53 0 93.5 -16.5
t68 -44.5t41.5 -65t14 -78q0 -24 -3.5 -45.5t-10.5 -41.5h-369q-1 -5 -1 -7v-3q2 -54 36 -79.5t78 -25.5q49 0 81.5 18.5t55.5 53.5zM258 105q33 0 61 12.5t48.5 34.5t32 50.5t11.5 61.5q0 26 -9 48.5t-24.5 38.5t-37 25t-45.5 9q-33 0 -61 -12.5t-48.5 -34.5t-32 -50.5
t-11.5 -61.5q0 -26 9 -48.5t24.5 -38.5t37 -25t45.5 -9zM791 308v4q0 15 -6 30.5t-18.5 28t-33 20.5t-49.5 8q-24 0 -45.5 -7t-39.5 -19.5t-31 -29t-20 -35.5h243z" />
    <glyph glyph-name="Racute" unicode="&#x154;" horiz-adv-x="620" 
d="M307 772l66 136h154l-114 -136h-106zM135 716h236q51 0 93 -15.5t72 -42.5t46 -63t16 -78q0 -46 -15 -84.5t-40.5 -68.5t-59.5 -50t-73 -29l-2 -7l140 -270l-2 -8h-147l-138 269h-70l-48 -269h-135zM338 393q54 0 89 27.5t35 83.5q0 38 -25.5 63t-70.5 25h-119l-35 -199
h126z" />
    <glyph glyph-name="racute" unicode="&#x155;" horiz-adv-x="407" 
d="M209 588l66 136h154l-114 -136h-106zM-7 0l86 490h123l-12 -68h8q24 35 62 58.5t89 23.5q26 0 42.5 -5t28.5 -13l-49 -119q-11 5 -25.5 9t-35.5 4q-57 0 -95.5 -39.5t-49.5 -103.5l-41 -237h-131z" />
    <glyph glyph-name="uni0156" unicode="&#x156;" horiz-adv-x="620" 
d="M172 -249l58 66q-20 8 -31.5 25t-11.5 39q0 29 20.5 50t50.5 21t50.5 -21t20.5 -51q0 -13 -4.5 -26.5t-14.5 -25.5l-94 -114zM135 716h236q51 0 93 -15.5t72 -42.5t46 -63t16 -78q0 -46 -15 -84.5t-40.5 -68.5t-59.5 -50t-73 -29l-2 -7l140 -270l-2 -8h-147l-138 269h-70
l-48 -269h-135zM338 393q54 0 89 27.5t35 83.5q0 38 -25.5 63t-70.5 25h-119l-35 -199h126z" />
    <glyph glyph-name="uni0157" unicode="&#x157;" horiz-adv-x="407" 
d="M-45 -249l58 66q-20 8 -31.5 25t-11.5 39q0 29 20.5 50t50.5 21t50.5 -21t20.5 -51q0 -13 -4.5 -26.5t-14.5 -25.5l-94 -114zM-7 0l86 490h123l-12 -68h8q24 35 62 58.5t89 23.5q26 0 42.5 -5t28.5 -13l-49 -119q-11 5 -25.5 9t-35.5 4q-57 0 -95.5 -39.5t-49.5 -103.5
l-41 -237h-131z" />
    <glyph glyph-name="Rcaron" unicode="&#x158;" horiz-adv-x="620" 
d="M545 892l-132 -126h-119l-91 126l1 8h121l31 -59h12l49 59h129zM135 716h236q51 0 93 -15.5t72 -42.5t46 -63t16 -78q0 -46 -15 -84.5t-40.5 -68.5t-59.5 -50t-73 -29l-2 -7l140 -270l-2 -8h-147l-138 269h-70l-48 -269h-135zM338 393q54 0 89 27.5t35 83.5
q0 38 -25.5 63t-70.5 25h-119l-35 -199h126z" />
    <glyph glyph-name="rcaron" unicode="&#x159;" horiz-adv-x="407" 
d="M448 708l-132 -126h-119l-91 126l1 8h121l31 -59h12l49 59h129zM-7 0l86 490h123l-12 -68h8q24 35 62 58.5t89 23.5q26 0 42.5 -5t28.5 -13l-49 -119q-11 5 -25.5 9t-35.5 4q-57 0 -95.5 -39.5t-49.5 -103.5l-41 -237h-131z" />
    <glyph glyph-name="Sacute" unicode="&#x15a;" horiz-adv-x="575" 
d="M290 772l66 136h154l-114 -136h-106zM237 -16q-45 0 -85 12.5t-72 38t-54 63.5t-30 89l129 52q2 -27 11 -50t25 -40t38.5 -27t51.5 -10q52 0 88 25.5t36 69.5q0 37 -26 62t-90 50l-35 14q-29 11 -55.5 27.5t-46.5 39.5t-32 53.5t-12 69.5q0 45 19.5 83.5t53.5 66
t80.5 43.5t100.5 16q55 0 94 -15t64.5 -38t39.5 -49.5t19 -50.5l-124 -47q-7 32 -32.5 54t-74.5 22q-20 0 -39 -5.5t-34 -15.5t-24 -25t-9 -34q0 -33 24.5 -54.5t75.5 -40.5l42 -15q72 -27 114.5 -73t42.5 -123q0 -52 -20 -95.5t-56 -75t-86.5 -49.5t-111.5 -18z" />
    <glyph glyph-name="sacute" unicode="&#x15b;" horiz-adv-x="483" 
d="M224 588l66 136h154l-114 -136h-106zM200 -16q-45 0 -81 11t-62.5 30t-44 44.5t-26.5 54.5l121 49q8 -38 36.5 -56t66.5 -18q34 0 57.5 12.5t23.5 35.5q0 20 -16 32.5t-51 21.5l-53 13q-23 6 -46 17t-41 28t-29.5 40t-11.5 52q0 37 16.5 65.5t45.5 48.5t68 30.5t85 10.5
q147 0 195 -118l-120 -44q-8 27 -32 41.5t-54 14.5q-35 0 -54 -11.5t-19 -30.5q0 -32 55 -46l69 -18q63 -16 94.5 -52t31.5 -83q0 -41 -17 -73.5t-47 -55t-71 -34.5t-89 -12z" />
    <glyph glyph-name="Scircumflex" unicode="&#x15c;" horiz-adv-x="575" 
d="M165 775l132 126h119l91 -126l-1 -8h-121l-31 59h-12l-49 -59h-129zM237 -16q-45 0 -85 12.5t-72 38t-54 63.5t-30 89l129 52q2 -27 11 -50t25 -40t38.5 -27t51.5 -10q52 0 88 25.5t36 69.5q0 37 -26 62t-90 50l-35 14q-29 11 -55.5 27.5t-46.5 39.5t-32 53.5t-12 69.5
q0 45 19.5 83.5t53.5 66t80.5 43.5t100.5 16q55 0 94 -15t64.5 -38t39.5 -49.5t19 -50.5l-124 -47q-7 32 -32.5 54t-74.5 22q-20 0 -39 -5.5t-34 -15.5t-24 -25t-9 -34q0 -33 24.5 -54.5t75.5 -40.5l42 -15q72 -27 114.5 -73t42.5 -123q0 -52 -20 -95.5t-56 -75t-86.5 -49.5
t-111.5 -18z" />
    <glyph glyph-name="scircumflex" unicode="&#x15d;" horiz-adv-x="483" 
d="M114 590l132 126h119l91 -126l-1 -8h-121l-31 59h-12l-49 -59h-129zM200 -16q-45 0 -81 11t-62.5 30t-44 44.5t-26.5 54.5l121 49q8 -38 36.5 -56t66.5 -18q34 0 57.5 12.5t23.5 35.5q0 20 -16 32.5t-51 21.5l-53 13q-23 6 -46 17t-41 28t-29.5 40t-11.5 52
q0 37 16.5 65.5t45.5 48.5t68 30.5t85 10.5q147 0 195 -118l-120 -44q-8 27 -32 41.5t-54 14.5q-35 0 -54 -11.5t-19 -30.5q0 -32 55 -46l69 -18q63 -16 94.5 -52t31.5 -83q0 -41 -17 -73.5t-47 -55t-71 -34.5t-89 -12z" />
    <glyph glyph-name="uni015E" unicode="&#x15e;" horiz-adv-x="575" 
d="M199 -237q-34 0 -62 19t-35 47l68 27q2 -12 11 -20t23 -8t25 9t11 26q0 14 -8 22.5t-22 8.5q-8 0 -15 -4.5t-12 -9.5l-56 28l46 83q-68 15 -115.5 64t-61.5 132l129 52q2 -27 11 -50t25 -40t38.5 -27t51.5 -10q52 0 88 25.5t36 69.5q0 37 -26 62t-90 50l-35 14
q-29 11 -55.5 27.5t-46.5 39.5t-32 53.5t-12 69.5q0 45 19.5 83.5t53.5 66t80.5 43.5t100.5 16q55 0 94 -15t64.5 -38t39.5 -49.5t19 -50.5l-124 -47q-7 32 -32.5 54t-74.5 22q-20 0 -39 -5.5t-34 -15.5t-24 -25t-9 -34q0 -33 24.5 -54.5t75.5 -40.5l42 -15
q72 -27 114.5 -73t42.5 -123q0 -52 -20 -95.5t-56 -75t-86.5 -49.5t-111.5 -18l-19 -31q5 1 9 1h9q35 0 56.5 -24.5t21.5 -61.5q0 -49 -32 -77t-83 -28z" />
    <glyph glyph-name="uni015F" unicode="&#x15f;" horiz-adv-x="483" 
d="M170 -237q-35 0 -62.5 19t-34.5 47l68 27q2 -12 11 -20t23 -8t25 9t11 26q0 14 -8 22.5t-22 8.5q-9 0 -16 -4.5t-12 -9.5l-55 28l45 82q-65 11 -104 48t-53 86l121 49q8 -38 36.5 -56t66.5 -18q34 0 57.5 12.5t23.5 35.5q0 20 -16 32.5t-51 21.5l-53 13q-23 6 -46 17
t-41 28t-29.5 40t-11.5 52q0 37 16.5 65.5t45.5 48.5t68 30.5t85 10.5q147 0 195 -118l-120 -44q-8 27 -32 41.5t-54 14.5q-35 0 -54 -11.5t-19 -30.5q0 -32 55 -46l69 -18q63 -16 94.5 -52t31.5 -83q0 -40 -16.5 -72t-46 -54.5t-69 -35t-85.5 -13.5l-19 -31q5 1 9 1h9
q35 0 57 -24.5t22 -61.5q0 -49 -32.5 -77t-82.5 -28z" />
    <glyph glyph-name="Scaron" unicode="&#x160;" horiz-adv-x="575" 
d="M536 892l-132 -126h-119l-91 126l1 8h121l31 -59h12l49 59h129zM237 -16q-45 0 -85 12.5t-72 38t-54 63.5t-30 89l129 52q2 -27 11 -50t25 -40t38.5 -27t51.5 -10q52 0 88 25.5t36 69.5q0 37 -26 62t-90 50l-35 14q-29 11 -55.5 27.5t-46.5 39.5t-32 53.5t-12 69.5
q0 45 19.5 83.5t53.5 66t80.5 43.5t100.5 16q55 0 94 -15t64.5 -38t39.5 -49.5t19 -50.5l-124 -47q-7 32 -32.5 54t-74.5 22q-20 0 -39 -5.5t-34 -15.5t-24 -25t-9 -34q0 -33 24.5 -54.5t75.5 -40.5l42 -15q72 -27 114.5 -73t42.5 -123q0 -52 -20 -95.5t-56 -75t-86.5 -49.5
t-111.5 -18z" />
    <glyph glyph-name="scaron" unicode="&#x161;" horiz-adv-x="483" 
d="M473 708l-132 -126h-119l-91 126l1 8h121l31 -59h12l49 59h129zM200 -16q-45 0 -81 11t-62.5 30t-44 44.5t-26.5 54.5l121 49q8 -38 36.5 -56t66.5 -18q34 0 57.5 12.5t23.5 35.5q0 20 -16 32.5t-51 21.5l-53 13q-23 6 -46 17t-41 28t-29.5 40t-11.5 52q0 37 16.5 65.5
t45.5 48.5t68 30.5t85 10.5q147 0 195 -118l-120 -44q-8 27 -32 41.5t-54 14.5q-35 0 -54 -11.5t-19 -30.5q0 -32 55 -46l69 -18q63 -16 94.5 -52t31.5 -83q0 -41 -17 -73.5t-47 -55t-71 -34.5t-89 -12z" />
    <glyph glyph-name="uni0162" unicode="&#x162;" horiz-adv-x="583" 
d="M206 -237q-35 0 -62.5 19t-34.5 47l68 27q2 -12 11 -20t23 -8t25 9t11 26q0 14 -8 22.5t-22 8.5q-9 0 -16 -4.5t-12 -9.5l-55 28l51 92h-25l104 588h-200l23 128h535l-23 -128h-200l-104 -588h-42l-29 -47q5 1 9 1h9q35 0 57 -24.5t22 -61.5q0 -49 -32.5 -77t-82.5 -28z
" />
    <glyph glyph-name="uni0163" unicode="&#x163;" horiz-adv-x="401" 
d="M220 -8h-11q-6 1 -11 1l-25 -40q5 1 9 1h9q35 0 56.5 -24.5t21.5 -61.5q0 -49 -32 -77t-83 -28q-34 0 -62 19t-35 47l68 27q2 -12 11 -20t23 -8t25 9t11 26q0 14 -8 22.5t-22 8.5q-8 0 -15 -4.5t-12 -9.5l-56 28l56 102q-30 16 -47 45.5t-17 74.5q0 11 1 23.5t4 29.5
l34 195h-86l20 112h86l27 150h131l-27 -150h120l-19 -112h-121l-33 -189q-2 -8 -2 -12v-11q0 -21 10.5 -35.5t36.5 -14.5q16 0 26.5 3.5t20.5 9.5l20 -119q-20 -9 -45 -13.5t-58 -4.5z" />
    <glyph glyph-name="Tcaron" unicode="&#x164;" horiz-adv-x="583" 
d="M555 904l-132 -126h-119l-91 126l1 8h121l31 -59h12l49 59h129zM160 0l104 588h-200l23 128h535l-23 -128h-200l-104 -588h-135z" />
    <glyph glyph-name="tcaron" unicode="&#x165;" horiz-adv-x="401" 
d="M328 545l31 171h118l-61 -171h-88zM220 -8q-64 0 -105 34t-41 104q0 11 1 23.5t4 29.5l34 195h-86l20 112h86l27 150h131l-27 -150h120l-19 -112h-121l-33 -189q-2 -8 -2 -12v-11q0 -21 10.5 -35.5t36.5 -14.5q16 0 26.5 3.5t20.5 9.5l20 -119q-20 -9 -45 -13.5t-58 -4.5
z" />
    <glyph glyph-name="Tbar" unicode="&#x166;" horiz-adv-x="583" 
d="M160 0l56 321h-126l19 106h126l29 161h-200l23 128h535l-23 -128h-200l-29 -161h127l-19 -106h-127l-56 -321h-135z" />
    <glyph glyph-name="tbar" unicode="&#x167;" horiz-adv-x="401" 
d="M220 -8q-64 0 -105 34t-41 104q0 11 2 24q1 12 3 29l5 31h-84l17 100h85l11 64h-86l20 112h86l27 150h131l-27 -150h120l-19 -112h-121l-11 -64h107l-18 -100h-107l-4 -25q-2 -8 -2 -12v-11q0 -21 10.5 -35.5t36.5 -14.5q16 0 26.5 3.5t20.5 9.5l20 -119
q-20 -9 -45 -13.5t-58 -4.5z" />
    <glyph glyph-name="Utilde" unicode="&#x168;" horiz-adv-x="669" 
d="M278 -16q-53 0 -97 17t-75.5 48t-49 74.5t-17.5 96.5q0 15 1.5 35.5t6.5 48.5l73 412h135l-77 -435q-2 -14 -3.5 -25t-1.5 -22q0 -55 30 -88.5t93 -33.5q68 0 112 45t57 120l77 439h135l-79 -447q-26 -146 -109 -215.5t-211 -69.5zM467 771q-21 0 -38 6.5t-31 15.5
q-15 8 -28 14.5t-25 6.5q-26 0 -33 -29h-92q8 65 42.5 96.5t85.5 31.5q21 0 38 -6.5t32 -14.5q14 -9 27 -15.5t25 -6.5q26 0 33 29h92q-8 -65 -42.5 -96.5t-85.5 -31.5z" />
    <glyph glyph-name="utilde" unicode="&#x169;" 
d="M345 64h-8q-26 -38 -68 -59t-93 -21q-38 0 -67 12.5t-49 33.5t-30 49.5t-10 60.5q0 14 1 28t4 33l52 289h130l-50 -281q-1 -6 -1.5 -12.5t-0.5 -17.5q0 -32 19 -53t57 -21q30 0 53 11t40 30.5t28 46t17 57.5l42 240h131l-86 -490h-123zM400 587q-21 0 -38 6.5t-31 15.5
q-15 8 -28 14.5t-25 6.5q-26 0 -33 -29h-92q8 65 42.5 96.5t85.5 31.5q21 0 38 -6.5t32 -14.5q14 -9 27 -15.5t25 -6.5q26 0 33 29h92q-8 -65 -42.5 -96.5t-85.5 -31.5z" />
    <glyph glyph-name="Umacron" unicode="&#x16a;" horiz-adv-x="669" 
d="M278 -16q-53 0 -97 17t-75.5 48t-49 74.5t-17.5 96.5q0 15 1.5 35.5t6.5 48.5l73 412h135l-77 -435q-2 -14 -3.5 -25t-1.5 -22q0 -55 30 -88.5t93 -33.5q68 0 112 45t57 120l77 439h135l-79 -447q-26 -146 -109 -215.5t-211 -69.5zM258 793l18 100h296l-18 -100h-296z
" />
    <glyph glyph-name="umacron" unicode="&#x16b;" 
d="M345 64h-8q-26 -38 -68 -59t-93 -21q-38 0 -67 12.5t-49 33.5t-30 49.5t-10 60.5q0 14 1 28t4 33l52 289h130l-50 -281q-1 -6 -1.5 -12.5t-0.5 -17.5q0 -32 19 -53t57 -21q30 0 53 11t40 30.5t28 46t17 57.5l42 240h131l-86 -490h-123zM183 609l18 100h296l-18 -100h-296
z" />
    <glyph glyph-name="Ubreve" unicode="&#x16c;" horiz-adv-x="669" 
d="M278 -16q-53 0 -97 17t-75.5 48t-49 74.5t-17.5 96.5q0 15 1.5 35.5t6.5 48.5l73 412h135l-77 -435q-2 -14 -3.5 -25t-1.5 -22q0 -55 30 -88.5t93 -33.5q68 0 112 45t57 120l77 439h135l-79 -447q-26 -146 -109 -215.5t-211 -69.5zM404 763q-24 0 -46 8t-38 23t-25.5 36
t-9.5 46v10t2 13h92q-1 -4 -1 -9q0 -15 9.5 -26t28.5 -11q20 0 33.5 13t17.5 33h92q-11 -68 -51.5 -102t-103.5 -34z" />
    <glyph glyph-name="ubreve" unicode="&#x16d;" 
d="M345 64h-8q-26 -38 -68 -59t-93 -21q-38 0 -67 12.5t-49 33.5t-30 49.5t-10 60.5q0 14 1 28t4 33l52 289h130l-50 -281q-1 -6 -1.5 -12.5t-0.5 -17.5q0 -32 19 -53t57 -21q30 0 53 11t40 30.5t28 46t17 57.5l42 240h131l-86 -490h-123zM332 564q-24 0 -46 8t-38 23
t-25.5 36t-9.5 46v10t2 13h92q-1 -4 -1 -9q0 -15 9.5 -26t28.5 -11q20 0 33.5 13t17.5 33h92q-11 -68 -51.5 -102t-103.5 -34z" />
    <glyph glyph-name="Uring" unicode="&#x16e;" horiz-adv-x="669" 
d="M416 748q-23 0 -42.5 8.5t-34 23t-23 34t-8.5 42.5q0 22 8.5 42t23 34.5t34 23t42.5 8.5q22 0 42 -8.5t34.5 -23t23 -34.5t8.5 -42q0 -23 -8.5 -42.5t-23 -34t-34.5 -23t-42 -8.5zM416 821q14 0 24.5 10.5t10.5 24.5t-10.5 24.5t-24.5 10.5t-24 -10.5t-10 -24.5t10 -24.5
t24 -10.5zM278 -16q-53 0 -97 17t-75.5 48t-49 74.5t-17.5 96.5q0 15 1.5 35.5t6.5 48.5l73 412h135l-77 -435q-2 -14 -3.5 -25t-1.5 -22q0 -55 30 -88.5t93 -33.5q68 0 112 45t57 120l77 439h135l-79 -447q-26 -146 -109 -215.5t-211 -69.5z" />
    <glyph glyph-name="uring" unicode="&#x16f;" 
d="M336 564q-23 0 -42.5 8.5t-34 23t-23 34t-8.5 42.5q0 22 8.5 42t23 34.5t34 23t42.5 8.5q22 0 42 -8.5t34.5 -23t23 -34.5t8.5 -42q0 -23 -8.5 -42.5t-23 -34t-34.5 -23t-42 -8.5zM336 637q14 0 24.5 10.5t10.5 24.5t-10.5 24.5t-24.5 10.5t-24 -10.5t-10 -24.5t10 -24.5
t24 -10.5zM345 64h-8q-26 -38 -68 -59t-93 -21q-38 0 -67 12.5t-49 33.5t-30 49.5t-10 60.5q0 14 1 28t4 33l52 289h130l-50 -281q-1 -6 -1.5 -12.5t-0.5 -17.5q0 -32 19 -53t57 -21q30 0 53 11t40 30.5t28 46t17 57.5l42 240h131l-86 -490h-123z" />
    <glyph glyph-name="Uhungarumlaut" unicode="&#x170;" horiz-adv-x="669" 
d="M278 -16q-53 0 -97 17t-75.5 48t-49 74.5t-17.5 96.5q0 15 1.5 35.5t6.5 48.5l73 412h135l-77 -435q-2 -14 -3.5 -25t-1.5 -22q0 -55 30 -88.5t93 -33.5q68 0 112 45t57 120l77 439h135l-79 -447q-26 -146 -109 -215.5t-211 -69.5zM241 772l66 136h154l-114 -136h-106z
M439 772l66 136h154l-114 -136h-106z" />
    <glyph glyph-name="uhungarumlaut" unicode="&#x171;" 
d="M170 588l66 136h154l-114 -136h-106zM367 588l66 136h154l-114 -136h-106zM345 64h-8q-26 -38 -68 -59t-93 -21q-38 0 -67 12.5t-49 33.5t-30 49.5t-10 60.5q0 14 1 28t4 33l52 289h130l-50 -281q-1 -6 -1.5 -12.5t-0.5 -17.5q0 -32 19 -53t57 -21q30 0 53 11t40 30.5
t28 46t17 57.5l42 240h131l-86 -490h-123z" />
    <glyph glyph-name="Uogonek" unicode="&#x172;" horiz-adv-x="669" 
d="M301 -224q-55 0 -86 27.5t-31 69.5q0 35 17 63.5t45 49.5q-46 5 -84 23.5t-65.5 49t-42.5 71.5t-15 90q0 15 1.5 35.5t6.5 48.5l73 412h135l-77 -435q-2 -14 -3.5 -25t-1.5 -22q0 -55 30 -88.5t93 -33.5q68 0 112 45t57 120l77 439h135l-79 -447q-20 -114 -71 -176
t-132 -92q-19 -7 -36 -18t-30 -24.5t-21 -28t-8 -27.5q0 -15 9.5 -23.5t23.5 -8.5q7 0 12.5 1.5t12.5 3.5l22 -84q-17 -8 -38 -12t-41 -4z" />
    <glyph glyph-name="uogonek" unicode="&#x173;" 
d="M372 -224q-56 0 -86.5 27.5t-30.5 69.5q0 40 22.5 70t57.5 50l-2 7l12 64h-8q-26 -38 -68 -59t-93 -21q-38 0 -67 12.5t-49 33.5t-30 49.5t-10 60.5q0 14 1 28t4 33l52 289h130l-50 -281q-1 -6 -1.5 -12.5t-0.5 -17.5q0 -32 19 -53t57 -21q30 0 53 11t40 30.5t28 46
t17 57.5l42 240h131l-86 -490q-14 -8 -29 -18.5t-27.5 -23.5t-20.5 -27t-8 -28q0 -15 9.5 -23.5t23.5 -8.5q10 0 25 5l22 -84q-17 -8 -38 -12t-41 -4z" />
    <glyph glyph-name="Wcircumflex" unicode="&#x174;" horiz-adv-x="954" 
d="M367 774l132 126h119l91 -126l-1 -8h-121l-31 59h-12l-49 -59h-129zM686 0h-131l-52 346l-7 78h-8l-34 -78l-172 -346h-132l-71 716h141l36 -418l3 -77h8l35 77l157 322h128l47 -322l7 -76h8l28 76l179 418h145z" />
    <glyph glyph-name="wcircumflex" unicode="&#x175;" horiz-adv-x="805" 
d="M265 590l132 126h119l91 -126l-1 -8h-121l-31 59h-12l-49 -59h-129zM442 0l-44 309h-6l-153 -309h-139l-72 490h140l31 -307h7l152 307h136l45 -307h7l132 307h146l-241 -490h-141z" />
    <glyph glyph-name="Ycircumflex" unicode="&#x176;" horiz-adv-x="637" 
d="M189 0l59 333l-173 383h156l101 -237h8l181 237h167l-305 -383l-59 -333h-135zM203 774l132 126h119l91 -126l-1 -8h-121l-31 59h-12l-49 -59h-129z" />
    <glyph glyph-name="ycircumflex" unicode="&#x177;" horiz-adv-x="553" 
d="M8 -216l151 245l-122 461h146l71 -298h8l173 298h148l-432 -706h-143zM147 590l132 126h119l91 -126l-1 -8h-121l-31 59h-12l-49 -59h-129z" />
    <glyph glyph-name="Ydieresis" unicode="&#x178;" horiz-adv-x="637" 
d="M189 0l59 333l-173 383h156l101 -237h8l181 237h167l-305 -383l-59 -333h-135zM484 771q-29 0 -50 21.5t-21 50.5q0 30 21 51t50 21q31 0 51.5 -21t20.5 -51q0 -29 -20.5 -50.5t-51.5 -21.5zM294 771q-30 0 -51 21.5t-21 50.5q0 30 21 51t51 21t50.5 -21t20.5 -51
q0 -29 -20.5 -50.5t-50.5 -21.5z" />
    <glyph glyph-name="Zacute" unicode="&#x179;" horiz-adv-x="596" 
d="M298 772l66 136h154l-114 -136h-106zM-7 136l436 452h-341l23 128h504l-24 -136l-433 -452h357l-23 -128h-523z" />
    <glyph glyph-name="zacute" unicode="&#x17a;" horiz-adv-x="479" 
d="M214 588l66 136h154l-114 -136h-106zM-12 108l293 270h-238l20 112h403l-19 -108l-295 -270h250l-19 -112h-414z" />
    <glyph glyph-name="Zdotaccent" unicode="&#x17b;" horiz-adv-x="596" 
d="M381 785q-29 0 -49.5 21t-20.5 50t20.5 50t49.5 21q30 0 50.5 -21t20.5 -50t-20.5 -50t-50.5 -21zM-7 136l436 452h-341l23 128h504l-24 -136l-433 -452h357l-23 -128h-523z" />
    <glyph glyph-name="zdotaccent" unicode="&#x17c;" horiz-adv-x="479" 
d="M-12 108l293 270h-238l20 112h403l-19 -108l-295 -270h250l-19 -112h-414zM295 575q-31 0 -53.5 22.5t-22.5 53.5q0 32 22.5 54t53.5 22q32 0 54 -22t22 -54q0 -31 -22 -53.5t-54 -22.5z" />
    <glyph glyph-name="Zcaron" unicode="&#x17d;" horiz-adv-x="596" 
d="M556 892l-132 -126h-119l-91 126l1 8h121l31 -59h12l49 59h129zM-7 136l436 452h-341l23 128h504l-24 -136l-433 -452h357l-23 -128h-523z" />
    <glyph glyph-name="zcaron" unicode="&#x17e;" horiz-adv-x="479" 
d="M472 708l-132 -126h-119l-91 126l1 8h121l31 -59h12l49 59h129zM-12 108l293 270h-238l20 112h403l-19 -108l-295 -270h250l-19 -112h-414z" />
    <glyph glyph-name="uni0192" unicode="&#x192;" horiz-adv-x="614" 
d="M133 -220q-23 0 -49 4.5t-45 12.5l36 118q16 -11 45 -11q59 0 74 74l65 330h-92v112h114l22 109q18 91 71 141t140 50q48 0 88 -16l-44 -118q-17 10 -44 10q-29 0 -52 -18t-30 -54l-21 -104h113v-112h-135l-72 -365q-7 -35 -21.5 -64.5t-37 -51.5t-54 -34.5t-71.5 -12.5z
" />
    <glyph glyph-name="Aringacute" unicode="&#x1fa;" horiz-adv-x="716" 
d="M319 680q-11 16 -18 35.5t-7 40.5q0 26 9.5 49t26 40.5t39.5 28t49 12.5l40 67h117l-72 -94q23 -17 37 -44t14 -59q0 -29 -12.5 -54.5t-32.5 -44.5l131 -657h-144l-31 171h-273l-90 -171h-153zM442 295l-33 180l-10 86h-8l-40 -86l-95 -180h186zM424 716q17 0 28.5 11.5
t11.5 28.5t-11.5 28.5t-28.5 11.5t-28.5 -11.5t-11.5 -28.5t11.5 -28.5t28.5 -11.5z" />
    <glyph glyph-name="aringacute" unicode="&#x1fb;" horiz-adv-x="535" 
d="M286 807l52 114h138l-91 -114h-99zM290 506q101 0 154 -48t53 -126q0 -12 -1.5 -24.5t-3.5 -26.5l-50 -281h-129l9 52h-8q-23 -29 -57.5 -48.5t-83.5 -19.5q-37 0 -67.5 11.5t-52 32t-33.5 49t-12 61.5q0 42 16.5 75t47 56.5t73 36t93.5 12.5q37 0 67.5 -6.5t58.5 -16.5
l4 15q2 10 2 16q0 32 -26.5 53t-69.5 21q-38 0 -67 -14.5t-52 -41.5l-88 64q40 51 98 74.5t125 23.5zM216 86q25 0 47.5 9.5t40 25t29 36t15.5 42.5q-15 6 -41.5 15t-64.5 9q-42 0 -72 -18.5t-30 -56.5q0 -31 22.5 -46.5t53.5 -15.5zM319 564q-23 0 -42.5 8.5t-34 23t-23 34
t-8.5 42.5q0 22 8.5 42t23 34.5t34 23t42.5 8.5q22 0 42 -8.5t34.5 -23t23 -34.5t8.5 -42q0 -23 -8.5 -42.5t-23 -34t-34.5 -23t-42 -8.5zM319 637q14 0 24.5 10.5t10.5 24.5t-10.5 24.5t-24.5 10.5t-24 -10.5t-10 -24.5t10 -24.5t24 -10.5z" />
    <glyph glyph-name="AEacute" unicode="&#x1fc;" horiz-adv-x="1005" 
d="M694 772l66 136h154l-114 -136h-106zM-62 0l542 716h536l-23 -128h-319l-30 -166h288l-23 -128h-288l-29 -166h319l-22 -128h-454l30 173h-232l-128 -173h-167zM324 301h164l51 287h-10l-43 -70z" />
    <glyph glyph-name="aeacute" unicode="&#x1fd;" horiz-adv-x="903" 
d="M423 588l66 136h154l-114 -136h-106zM829 120q-43 -64 -101 -100t-146 -36q-69 0 -114.5 27.5t-74.5 72.5q-85 -100 -218 -100q-38 0 -68.5 11.5t-52.5 32t-34 49t-12 61.5q0 42 16.5 75t47 56.5t73 36t93.5 12.5q37 0 68.5 -6.5t57.5 -16.5l4 15q2 10 2 16
q0 35 -26.5 54.5t-68.5 19.5q-35 0 -65.5 -14.5t-45.5 -40.5l-95 47q71 114 224 114q60 0 100.5 -23t63.5 -59q38 40 86.5 61t105.5 21q52 0 91.5 -16.5t66.5 -44.5t41 -65t14 -78q0 -24 -3.5 -45.5t-10.5 -41.5h-369v-10q2 -54 35.5 -79.5t77.5 -25.5q49 0 82 18.5t56 53.5
zM216 86q25 0 47.5 9.5t40 25t29 36t15.5 42.5q-17 8 -43.5 16t-62.5 8q-42 0 -72 -18.5t-30 -56.5q0 -31 22.5 -46.5t53.5 -15.5zM740 308v4q0 15 -6 30.5t-18.5 28t-33 20.5t-49.5 8q-24 0 -45.5 -7t-39 -19.5t-31 -29t-20.5 -35.5h243z" />
    <glyph glyph-name="Oslashacute" unicode="&#x1fe;" horiz-adv-x="822" 
d="M69 15l52 65q-43 44 -67 104t-24 133q0 84 31 159.5t87 132t134.5 90t173.5 33.5q45 0 84 -9t74 -26l56 70l85 -68l-53 -65q43 -45 66.5 -104.5t23.5 -130.5q0 -84 -31 -159t-87 -132t-134.5 -90.5t-173.5 -33.5q-86 0 -157 34l-56 -70zM166 327q0 -41 11.5 -75.5
t31.5 -60.5l318 397q-20 8 -41 12t-44 4q-59 0 -109 -23t-87.5 -61.5t-58.5 -88.5t-21 -104zM380 112q57 0 107 22.5t87.5 60.5t59.5 88t22 106q0 40 -11.5 73.5t-31.5 60.5l-317 -396q39 -15 84 -15zM430 772l66 136h154l-114 -136h-106z" />
    <glyph glyph-name="oslashacute" unicode="&#x1ff;" horiz-adv-x="576" 
d="M25 9l38 48q-28 31 -43 70.5t-15 85.5q0 62 22 115.5t61.5 93t94.5 62t120 22.5q29 0 54.5 -5.5t48.5 -15.5l43 54l74 -61l-40 -50q54 -62 54 -150q0 -62 -22 -116t-61.5 -93.5t-94.5 -62t-120 -22.5q-27 0 -51.5 5t-45.5 13l-40 -50zM130 226q0 -35 17 -64l181 226
q-18 6 -38 6q-38 0 -67.5 -14t-50 -37.5t-31.5 -53.5t-11 -63zM252 96q37 0 67 14t50.5 37.5t31.5 53.5t11 63q0 31 -13 59l-178 -223q16 -4 31 -4zM272 588l66 136h154l-114 -136h-106z" />
    <glyph glyph-name="uni0218" unicode="&#x218;" horiz-adv-x="575" 
d="M127 -249l58 66q-20 8 -31.5 25t-11.5 39q0 29 20.5 50t50.5 21t50.5 -21t20.5 -51q0 -13 -4.5 -26.5t-14.5 -25.5l-94 -114zM237 -16q-45 0 -85 12.5t-72 38t-54 63.5t-30 89l129 52q2 -27 11 -50t25 -40t38.5 -27t51.5 -10q52 0 88 25.5t36 69.5q0 37 -26 62t-90 50
l-35 14q-29 11 -55.5 27.5t-46.5 39.5t-32 53.5t-12 69.5q0 45 19.5 83.5t53.5 66t80.5 43.5t100.5 16q55 0 94 -15t64.5 -38t39.5 -49.5t19 -50.5l-124 -47q-7 32 -32.5 54t-74.5 22q-20 0 -39 -5.5t-34 -15.5t-24 -25t-9 -34q0 -33 24.5 -54.5t75.5 -40.5l42 -15
q72 -27 114.5 -73t42.5 -123q0 -52 -20 -95.5t-56 -75t-86.5 -49.5t-111.5 -18z" />
    <glyph glyph-name="uni0219" unicode="&#x219;" horiz-adv-x="483" 
d="M94 -249l58 66q-20 8 -31.5 25t-11.5 39q0 29 20.5 50t50.5 21t50.5 -21t20.5 -51q0 -13 -4.5 -26.5t-14.5 -25.5l-94 -114zM200 -16q-45 0 -81 11t-62.5 30t-44 44.5t-26.5 54.5l121 49q8 -38 36.5 -56t66.5 -18q34 0 57.5 12.5t23.5 35.5q0 20 -16 32.5t-51 21.5
l-53 13q-23 6 -46 17t-41 28t-29.5 40t-11.5 52q0 37 16.5 65.5t45.5 48.5t68 30.5t85 10.5q147 0 195 -118l-120 -44q-8 27 -32 41.5t-54 14.5q-35 0 -54 -11.5t-19 -30.5q0 -32 55 -46l69 -18q63 -16 94.5 -52t31.5 -83q0 -41 -17 -73.5t-47 -55t-71 -34.5t-89 -12z" />
    <glyph glyph-name="uni021A" unicode="&#x21a;" horiz-adv-x="583" 
d="M117 -249l58 66q-20 8 -31.5 25t-11.5 39q0 29 20.5 50t50.5 21t50.5 -21t20.5 -51q0 -13 -4.5 -26.5t-14.5 -25.5l-94 -114zM160 0l104 588h-200l23 128h535l-23 -128h-200l-104 -588h-135z" />
    <glyph glyph-name="uni021B" unicode="&#x21b;" horiz-adv-x="401" 
d="M87 -249l58 66q-20 8 -31.5 25t-11.5 39q0 29 20.5 50t50.5 21t50.5 -21t20.5 -51q0 -13 -4.5 -26.5t-14.5 -25.5l-94 -114zM220 -8q-64 0 -105 34t-41 104q0 11 1 23.5t4 29.5l34 195h-86l20 112h86l27 150h131l-27 -150h120l-19 -112h-121l-33 -189q-2 -10 -2 -13v-10
q0 -21 10.5 -35.5t36.5 -14.5q16 0 26.5 3.5t20.5 9.5l20 -119q-20 -9 -45 -13.5t-58 -4.5z" />
    <glyph glyph-name="uni0237" unicode="&#x237;" horiz-adv-x="259" 
d="M-61 -226q-20 0 -43 3.5t-39 10.5l47 116q15 -9 33 -9q22 0 35.5 12.5t18.5 41.5l95 541h131l-96 -544q-9 -50 -25 -83t-39 -52.5t-52.5 -28t-65.5 -8.5z" />
    <glyph glyph-name="circumflex" unicode="&#x2c6;" horiz-adv-x="456" 
d="M97 590l132 126h119l91 -126l-1 -8h-121l-31 59h-12l-49 -59h-129z" />
    <glyph glyph-name="caron" unicode="&#x2c7;" horiz-adv-x="456" 
d="M460 708l-132 -126h-119l-91 126l1 8h121l31 -59h12l49 59h129z" />
    <glyph glyph-name="breve" unicode="&#x2d8;" horiz-adv-x="416" 
d="M252 579q-24 0 -46 8t-38 23t-25.5 36t-9.5 46v10t2 13h92q-1 -4 -1 -9q0 -15 9.5 -26t28.5 -11q20 0 33.5 13t17.5 33h92q-11 -68 -51.5 -102t-103.5 -34z" />
    <glyph glyph-name="dotaccent" unicode="&#x2d9;" horiz-adv-x="269" 
d="M185 575q-31 0 -53.5 22.5t-22.5 53.5q0 32 22.5 54t53.5 22q32 0 54 -22t22 -54q0 -31 -22 -53.5t-54 -22.5z" />
    <glyph glyph-name="ring" unicode="&#x2da;" horiz-adv-x="408" 
d="M253 564q-23 0 -42.5 8.5t-34 23t-23 34t-8.5 42.5q0 22 8.5 42t23 34.5t34 23t42.5 8.5q22 0 42 -8.5t34.5 -23t23 -34.5t8.5 -42q0 -23 -8.5 -42.5t-23 -34t-34.5 -23t-42 -8.5zM253 637q14 0 24.5 10.5t10.5 24.5t-10.5 24.5t-24.5 10.5t-24 -10.5t-10 -24.5t10 -24.5
t24 -10.5z" />
    <glyph glyph-name="tilde" unicode="&#x2dc;" horiz-adv-x="419" 
d="M320 587q-21 0 -38 6.5t-31 15.5q-15 8 -28 14.5t-25 6.5q-26 0 -33 -29h-92q8 65 42.5 96.5t85.5 31.5q21 0 38 -6.5t32 -14.5q14 -9 27 -15.5t25 -6.5q26 0 33 29h92q-8 -65 -42.5 -96.5t-85.5 -31.5z" />
    <glyph glyph-name="uni0374" unicode="&#x374;" horiz-adv-x="314" 
d="M180 716h157l-169 -221h-105z" />
    <glyph glyph-name="uni0375" unicode="&#x375;" horiz-adv-x="314" 
d="M148 -99h-156l152 221h108z" />
    <glyph glyph-name="uni037E" unicode="&#x37e;" horiz-adv-x="271" 
d="M141 329q-36 0 -61.5 25.5t-25.5 61.5t25.5 61.5t61.5 25.5t61.5 -25.5t25.5 -61.5t-25.5 -61.5t-61.5 -25.5zM-31 -82l75 92q-16 11 -29 28.5t-13 48.5q0 18 7 34t19 27.5t27.5 18.5t33.5 7q36 0 61.5 -25.5t25.5 -61.5q0 -18 -8.5 -35t-25.5 -37l-118 -141z" />
    <glyph glyph-name="tonos" unicode="&#x384;" horiz-adv-x="442" 
d="M167 580l65 136h154l-111 -136h-108z" />
    <glyph glyph-name="dieresistonos" unicode="&#x385;" horiz-adv-x="464" 
d="M417 593q-27 0 -46.5 19.5t-19.5 46.5q0 28 19.5 47t46.5 19q28 0 47 -19t19 -47q0 -27 -19 -46.5t-47 -19.5zM149 593q-27 0 -46.5 19.5t-19.5 46.5q0 28 19.5 47t46.5 19q28 0 47 -19t19 -47q0 -27 -19 -46.5t-47 -19.5zM234 588l25 144h74l-25 -144h-74z" />
    <glyph glyph-name="Alphatonos" unicode="&#x386;" horiz-adv-x="716" 
d="M339 716h158l143 -716h-144l-31 171h-273l-90 -171h-153zM442 295l-33 180l-10 86h-8l-40 -86l-95 -180h186zM67 588l66 136h154l-114 -136h-106z" />
    <glyph glyph-name="anoteleia" unicode="&#x387;" horiz-adv-x="213" 
d="M103 237q-36 0 -61.5 25.5t-25.5 61.5t25.5 61.5t61.5 25.5t61 -25.5t25 -61.5t-25 -61.5t-61 -25.5z" />
    <glyph glyph-name="Epsilontonos" unicode="&#x388;" horiz-adv-x="657" 
d="M-41 588l66 136h154l-114 -136h-106zM326 588l-29 -166h287l-23 -128h-287l-30 -166h320l-23 -128h-454l127 716h454l-23 -128h-319z" />
    <glyph glyph-name="Etatonos" unicode="&#x389;" horiz-adv-x="795" 
d="M214 716h135l-51 -286h302l51 286h134l-127 -716h-134l53 302h-302l-53 -302h-135zM-41 588l66 136h154l-114 -136h-106z" />
    <glyph glyph-name="Iotatonos" unicode="&#x38a;" horiz-adv-x="358" 
d="M214 716h135l-127 -716h-135zM-41 588l66 136h154l-114 -136h-106z" />
    <glyph glyph-name="Omicrontonos" unicode="&#x38c;" horiz-adv-x="800" 
d="M-52 588l66 136h154l-114 -136h-106zM345 -16q-72 0 -133.5 24t-106.5 67.5t-70.5 105t-25.5 136.5q0 84 31 159.5t87 132t134.5 90t173.5 33.5q75 0 137 -25t106 -69.5t68.5 -105.5t24.5 -133q0 -84 -31 -159t-87 -132t-134.5 -90.5t-173.5 -33.5zM359 112
q57 0 107 22.5t87.5 60.5t59.5 88t22 106q0 49 -16.5 88.5t-45.5 67.5t-68 43.5t-84 15.5q-59 0 -109 -23t-87.5 -61.5t-58.5 -88.5t-21 -104q0 -49 16.5 -88.5t45.5 -67.5t68 -43.5t84 -15.5z" />
    <glyph glyph-name="Upsilontonos" unicode="&#x38e;" horiz-adv-x="767" 
d="M309 0l59 333l-173 383h156l101 -237h8l181 237h167l-305 -383l-59 -333h-135zM-41 588l66 136h154l-114 -136h-106z" />
    <glyph glyph-name="Omegatonos" unicode="&#x38f;" horiz-adv-x="785" 
d="M367 0l29 164q46 12 86 35.5t69.5 56.5t46.5 73.5t17 86.5q0 43 -14.5 78t-41 59.5t-62.5 37.5t-78 13q-57 0 -104 -19.5t-81 -52.5t-52.5 -76t-18.5 -91q0 -40 11 -73t30.5 -58t45 -42.5t54.5 -27.5l-29 -164h-298l19 117h142l1 8q-19 16 -38.5 38.5t-35.5 52
t-26.5 66.5t-10.5 81q0 73 29 139.5t82 117.5t128 81.5t167 30.5q73 0 132 -22t101 -61t64.5 -92.5t22.5 -115.5q0 -54 -14.5 -100t-40.5 -85t-63 -71.5t-83 -59.5l-1 -8h135l-21 -117h-299zM-52 588l66 136h154l-114 -136h-106z" />
    <glyph glyph-name="iotadieresistonos" unicode="&#x390;" horiz-adv-x="259" 
d="M315 593q-27 0 -46.5 19.5t-19.5 46.5q0 28 19.5 47t46.5 19q28 0 47 -19t19 -47q0 -27 -19 -46.5t-47 -19.5zM47 593q-27 0 -46.5 19.5t-19.5 46.5q0 28 19.5 47t46.5 19q28 0 47 -19t19 -47q0 -27 -19 -46.5t-47 -19.5zM132 588l25 144h74l-25 -144h-74zM0 0l86 490
h131l-86 -490h-131z" />
    <glyph glyph-name="Alpha" unicode="&#x391;" horiz-adv-x="716" 
d="M339 716h158l143 -716h-144l-31 171h-273l-90 -171h-153zM442 295l-33 180l-10 86h-8l-40 -86l-95 -180h186z" />
    <glyph glyph-name="Beta" unicode="&#x392;" horiz-adv-x="629" 
d="M135 716h254q52 0 92 -14.5t67 -38.5t41 -56t14 -67t-10.5 -62.5t-27.5 -48t-40 -34t-47 -20.5l-2 -8q39 -18 67 -54t28 -91q0 -51 -21 -92t-58 -70t-86.5 -44.5t-107.5 -15.5h-290zM354 424q51 0 82.5 23.5t31.5 68.5q0 35 -22 57t-62 22h-136l-30 -171h136zM315 123
q24 0 46 6.5t38.5 19t26 31t9.5 42.5q0 38 -24 62t-71 24h-143l-32 -185h150z" />
    <glyph glyph-name="Gamma" unicode="&#x393;" horiz-adv-x="534" 
d="M135 716h438l-23 -128h-303l-104 -588h-135z" />
    <glyph glyph-name="uni0394" unicode="&#x394;" horiz-adv-x="708" 
d="M340 716h154l138 -716h-683zM167 124h301l-73 425h-8z" />
    <glyph glyph-name="Epsilon" unicode="&#x395;" horiz-adv-x="578" 
d="M247 588l-29 -166h287l-23 -128h-287l-30 -166h320l-23 -128h-454l127 716h454l-23 -128h-319z" />
    <glyph glyph-name="Zeta" unicode="&#x396;" horiz-adv-x="596" 
d="M-7 136l436 452h-341l23 128h504l-24 -136l-433 -452h357l-23 -128h-523z" />
    <glyph glyph-name="Eta" unicode="&#x397;" horiz-adv-x="715" 
d="M135 716h135l-51 -286h302l51 286h134l-127 -716h-134l53 302h-302l-53 -302h-135z" />
    <glyph glyph-name="Theta" unicode="&#x398;" horiz-adv-x="836" 
d="M252 299l20 118h309l-21 -118h-308zM366 -16q-72 0 -133.5 24t-106.5 67.5t-70.5 105t-25.5 136.5q0 84 31 159.5t87 132t134.5 90t173.5 33.5q75 0 137 -25t106 -69.5t68.5 -105.5t24.5 -133q0 -84 -31 -159t-87 -132t-134.5 -90.5t-173.5 -33.5zM380 112q57 0 107 22.5
t87.5 60.5t59.5 88t22 106q0 49 -16.5 88.5t-45.5 67.5t-68 43.5t-84 15.5q-59 0 -109 -23t-87.5 -61.5t-58.5 -88.5t-21 -104q0 -49 16.5 -88.5t45.5 -67.5t68 -43.5t84 -15.5z" />
    <glyph glyph-name="Iota" unicode="&#x399;" horiz-adv-x="279" 
d="M135 716h135l-127 -716h-135z" />
    <glyph glyph-name="Kappa" unicode="&#x39a;" horiz-adv-x="655" 
d="M699 708l-342 -360l231 -340l-2 -8h-163l-216 319h-8l-56 -319h-135l127 716h135l-60 -336h8l310 336h172z" />
    <glyph glyph-name="Lambda" unicode="&#x39b;" horiz-adv-x="700" 
d="M335 716h157l132 -716h-146l-77 477l-8 84h-8l-39 -84l-243 -477h-154z" />
    <glyph glyph-name="Mu" unicode="&#x39c;" horiz-adv-x="857" 
d="M135 716h129l152 -379h8l284 379h140l-127 -716h-134l63 353l29 120h-8l-239 -321h-78l-129 321h-8l-13 -120l-63 -353h-133z" />
    <glyph glyph-name="Nu" unicode="&#x39d;" horiz-adv-x="723" 
d="M135 716h150l210 -480h8l17 138l60 342h134l-127 -716h-134l-222 507h-8l-16 -138l-66 -369h-133z" />
    <glyph glyph-name="Xi" unicode="&#x39e;" horiz-adv-x="543" 
d="M-12 128h486l-23 -128h-486zM70 421h424l-22 -126h-423zM91 716h487l-22 -128h-488z" />
    <glyph glyph-name="Omicron" unicode="&#x39f;" horiz-adv-x="822" 
d="M366 -16q-72 0 -133.5 24t-106.5 67.5t-70.5 105t-25.5 136.5q0 84 31 159.5t87 132t134.5 90t173.5 33.5q75 0 137 -25t106 -69.5t68.5 -105.5t24.5 -133q0 -84 -31 -159t-87 -132t-134.5 -90.5t-173.5 -33.5zM380 112q57 0 107 22.5t87.5 60.5t59.5 88t22 106
q0 49 -16.5 88.5t-45.5 67.5t-68 43.5t-84 15.5q-59 0 -109 -23t-87.5 -61.5t-58.5 -88.5t-21 -104q0 -49 16.5 -88.5t45.5 -67.5t68 -43.5t84 -15.5z" />
    <glyph glyph-name="Pi" unicode="&#x3a0;" horiz-adv-x="694" 
d="M135 716h550l-127 -716h-135l105 588h-281l-104 -588h-135z" />
    <glyph glyph-name="Rho" unicode="&#x3a1;" horiz-adv-x="592" 
d="M8 0l127 716h240q48 0 88 -15t69.5 -42t46 -65t16.5 -84q0 -59 -20.5 -105t-57.5 -77.5t-88.5 -48t-112.5 -16.5h-127l-46 -263h-135zM334 391q54 0 90 26.5t36 82.5q0 39 -23.5 63.5t-68.5 24.5h-121l-35 -197h122z" />
    <glyph glyph-name="Sigma" unicode="&#x3a3;" horiz-adv-x="526" 
d="M239 592l151 -226l-229 -242h296l-23 -124h-457l23 133l231 235l-152 215l24 133h458l-23 -124h-299z" />
    <glyph glyph-name="Tau" unicode="&#x3a4;" horiz-adv-x="583" 
d="M160 0l104 588h-200l23 128h535l-23 -128h-200l-104 -588h-135z" />
    <glyph glyph-name="Upsilon" unicode="&#x3a5;" horiz-adv-x="637" 
d="M189 0l59 333l-173 383h156l101 -237h8l181 237h167l-305 -383l-59 -333h-135z" />
    <glyph glyph-name="Phi" unicode="&#x3a6;" horiz-adv-x="811" 
d="M269 -32l16 92q-57 8 -103.5 31.5t-80 58.5t-51.5 79.5t-18 95.5q0 72 28.5 130t77.5 101t114 68.5t139 31.5l16 92h134l-16 -92q58 -9 105 -33t80 -59t51 -79.5t18 -95.5q0 -72 -28.5 -130t-77 -100.5t-114 -68t-139.5 -30.5l-16 -92h-135zM643 378q0 64 -37.5 103.5
t-102.5 50.5l-62 -348q42 5 78.5 19.5t64 38.5t43.5 57.5t16 78.5zM168 337q0 -63 37 -102.5t102 -50.5l62 348q-41 -6 -77.5 -20.5t-64 -38.5t-43.5 -58t-16 -78z" />
    <glyph glyph-name="Chi" unicode="&#x3a7;" horiz-adv-x="688" 
d="M259 377l-171 339h169l104 -231h8l182 231h174l-291 -351l183 -365h-165l-121 251h-8l-202 -251h-174z" />
    <glyph glyph-name="Psi" unicode="&#x3a8;" horiz-adv-x="774" 
d="M283 156q-43 0 -82 16t-69 46.5t-47.5 74t-17.5 99.5q0 26 6 62l46 262h135l-49 -272q-4 -23 -4 -44q0 -51 26 -83.5t79 -32.5l77 432h134l-76 -432q64 0 104 44t52 114l49 274h135l-51 -289q-12 -66 -42.5 -117t-72.5 -85t-93 -51.5t-104 -17.5l-28 -156h-134z" />
    <glyph glyph-name="uni03A9" unicode="&#x3a9;" horiz-adv-x="800" 
d="M381 0l29 164q46 12 86 35.5t69.5 56.5t46.5 73.5t17 86.5q0 43 -14.5 78t-41 59.5t-62.5 37.5t-78 13q-57 0 -104 -19.5t-81 -52.5t-52.5 -76t-18.5 -91q0 -40 11 -73t30.5 -58t45 -42.5t54.5 -27.5l-29 -164h-298l19 117h142l1 8q-19 16 -38.5 38.5t-35.5 52
t-26.5 66.5t-10.5 81q0 73 29 139.5t82 117.5t128 81.5t167 30.5q73 0 132 -22t101 -61t64.5 -92.5t22.5 -115.5q0 -54 -14.5 -100t-40.5 -85t-63 -71.5t-83 -59.5l-1 -8h135l-21 -117h-299z" />
    <glyph glyph-name="Iotadieresis" unicode="&#x3aa;" horiz-adv-x="279" 
d="M312 789q-27 0 -47 20t-20 47q0 28 20 47.5t47 19.5q28 0 47.5 -19.5t19.5 -47.5q0 -27 -19.5 -47t-47.5 -20zM133 789q-27 0 -47 20t-20 47q0 28 20 47.5t47 19.5q29 0 48.5 -19.5t19.5 -47.5q0 -27 -19.5 -47t-48.5 -20zM135 716h135l-127 -716h-135z" />
    <glyph glyph-name="Upsilondieresis" unicode="&#x3ab;" horiz-adv-x="637" 
d="M189 0l59 333l-173 383h156l101 -237h8l181 237h167l-305 -383l-59 -333h-135zM482 771q-29 0 -50 21.5t-21 50.5q0 30 21 51t50 21q31 0 51.5 -21t20.5 -51q0 -29 -20.5 -50.5t-51.5 -21.5zM292 771q-30 0 -51 21.5t-21 50.5q0 30 21 51t51 21t50.5 -21t20.5 -51
q0 -29 -20.5 -50.5t-50.5 -21.5z" />
    <glyph glyph-name="alphatonos" unicode="&#x3ac;" horiz-adv-x="596" 
d="M268 588l66 136h154l-114 -136h-106zM209 -16q-40 0 -76.5 15.5t-65 45t-45.5 71t-17 94.5q0 60 20.5 113.5t57.5 94t88.5 64.5t112.5 24q57 0 92 -22.5t52 -52.5h8l10 59h123l-87 -490h-122l10 59h-8q-21 -32 -56.5 -53.5t-96.5 -21.5zM290 385q-33 0 -61 -12.5
t-48.5 -34t-32.5 -51t-12 -62.5q0 -55 32 -87.5t84 -32.5q31 0 59 13t49 35t33 51.5t12 63.5q0 54 -32.5 85.5t-82.5 31.5z" />
    <glyph glyph-name="epsilontonos" unicode="&#x3ad;" horiz-adv-x="517" 
d="M260 402q-33 0 -60 -14t-27 -44q0 -23 17 -35t48 -12h74l-17 -94h-82q-17 0 -32.5 -3.5t-28 -10.5t-20 -18t-7.5 -26q0 -26 21 -39t59 -13q43 0 74 15.5t63 46.5l76 -73q-48 -50 -101.5 -74t-128.5 -24q-91 0 -141 39t-50 100q0 47 26.5 79.5t75.5 49.5l1 8
q-17 13 -30.5 33.5t-13.5 54.5q0 36 17 65t46 50t69 32t85 11q60 0 102 -21t74 -65l-87 -69q-16 23 -41.5 37t-60.5 14zM237 588l66 136h154l-114 -136h-106z" />
    <glyph glyph-name="etatonos" unicode="&#x3ae;" 
d="M281 588l66 136h154l-114 -136h-106zM190 426h8q26 38 68 59t93 21q38 0 67 -12.5t49 -33.5t30 -49.5t10 -60.5q0 -14 -1.5 -29t-3.5 -32l-90 -505h-131l89 497q1 7 1.5 15t0.5 15q0 32 -19 53t-57 21q-30 0 -53 -11t-40 -30.5t-28 -46t-17 -57.5l-42 -240h-131l86 490
h123z" />
    <glyph glyph-name="iotatonos" unicode="&#x3af;" horiz-adv-x="259" 
d="M109 588l66 136h154l-114 -136h-106zM0 0l86 490h131l-86 -490h-131z" />
    <glyph glyph-name="upsilondieresistonos" unicode="&#x3b0;" horiz-adv-x="567" 
d="M453 593q-27 0 -46.5 19.5t-19.5 46.5q0 28 19.5 47t46.5 19q28 0 47 -19t19 -47q0 -27 -19 -46.5t-47 -19.5zM185 593q-27 0 -46.5 19.5t-19.5 46.5q0 28 19.5 47t46.5 19q28 0 47 -19t19 -47q0 -27 -19 -46.5t-47 -19.5zM270 588l25 144h74l-25 -144h-74zM234 -16
q-46 0 -84 13.5t-65.5 39t-43 61t-15.5 79.5q0 12 1 26.5t5 35.5l44 251h131l-45 -252q-2 -10 -2.5 -17.5t-0.5 -16.5q0 -49 25 -74t64 -25q36 0 63.5 15.5t46 41t27.5 59t9 69.5q0 53 -11 101t-31 99h140q14 -38 24 -87.5t10 -108.5q0 -62 -18.5 -118.5t-55.5 -99
t-91.5 -67.5t-126.5 -25z" />
    <glyph glyph-name="alpha" unicode="&#x3b1;" horiz-adv-x="596" 
d="M209 -16q-40 0 -76.5 15.5t-65 45t-45.5 71t-17 94.5q0 60 20.5 113.5t57.5 94t88.5 64.5t112.5 24q57 0 92 -22.5t52 -52.5h8l10 59h123l-87 -490h-122l10 59h-8q-21 -32 -56.5 -53.5t-96.5 -21.5zM290 385q-33 0 -61 -12.5t-48.5 -34t-32.5 -51t-12 -62.5
q0 -55 32 -87.5t84 -32.5q31 0 59 13t49 35t33 51.5t12 63.5q0 54 -32.5 85.5t-82.5 31.5z" />
    <glyph glyph-name="beta" unicode="&#x3b2;" horiz-adv-x="585" 
d="M441 383q38 -20 62.5 -59.5t24.5 -101.5q0 -46 -18.5 -89t-51 -76t-78 -53t-99.5 -20q-84 0 -135 59h-8l-5 -76l-33 -183h-130l127 723q8 48 27.5 89.5t51 71.5t75 47t99.5 17q43 0 80 -13.5t64.5 -36.5t43 -55t15.5 -68q0 -34 -9 -61t-24.5 -47.5t-35.5 -35.5t-41 -24z
M275 105q24 0 46 8.5t39 24t27 37.5t10 49q0 48 -31.5 74t-79.5 26h-21l20 115h22q22 0 43 6t37.5 17.5t26 28.5t9.5 39q0 39 -24.5 60t-61.5 21q-46 0 -73.5 -29.5t-35.5 -74.5l-49 -278q-3 -17 -3 -36q0 -42 26.5 -65t72.5 -23z" />
    <glyph glyph-name="gamma" unicode="&#x3b3;" horiz-adv-x="578" 
d="M123 -216l40 220l-133 486h144l78 -316h7l188 316h153l-307 -485l-39 -221h-131z" />
    <glyph glyph-name="delta" unicode="&#x3b4;" horiz-adv-x="576" 
d="M233 -16q-50 0 -92 17t-72 47.5t-47 72t-17 89.5q0 50 15.5 96t46 84t75 65t102.5 39l-129 122l18 100h425l-20 -111h-234l140 -131q46 -44 67 -90.5t21 -107.5q0 -60 -21.5 -113t-60.5 -92.5t-94.5 -63t-122.5 -23.5zM249 105q31 0 59 12t48.5 33t32.5 50.5t12 65.5
q0 53 -31.5 86t-82.5 33q-32 0 -59 -12.5t-47 -34.5t-31.5 -52t-11.5 -65q0 -54 33 -85t78 -31z" />
    <glyph glyph-name="epsilon" unicode="&#x3b5;" horiz-adv-x="499" 
d="M264 402q-33 0 -60 -14t-27 -44q0 -23 17 -35t48 -12h74l-17 -94h-82q-17 0 -32.5 -3.5t-28 -10.5t-20 -18t-7.5 -26q0 -26 21 -39t59 -13q43 0 74 15.5t63 46.5l76 -73q-48 -50 -101.5 -74t-128.5 -24q-91 0 -141 39t-50 100q0 47 26.5 79.5t75.5 49.5l1 8
q-17 13 -30.5 33.5t-13.5 54.5q0 36 17 65t46 50t69 32t85 11q60 0 102 -21t74 -65l-87 -69q-16 23 -41.5 37t-60.5 14z" />
    <glyph glyph-name="zeta" unicode="&#x3b6;" horiz-adv-x="495" 
d="M255 -64q18 0 31 8.5t13 26.5q0 29 -36 29h-114q-69 0 -108 36.5t-39 91.5q0 44 21 76.5t67 61.5q18 11 49 30q30 19 60 37q34 21 73 45h-212l20 112h403l-19 -106q-76 -47 -137 -85q-26 -16 -51 -31q-26 -16 -46 -29q-21 -13 -34.5 -21.5t-16.5 -9.5
q-20 -12 -29.5 -24.5t-9.5 -29.5q0 -22 16 -32t37 -10h89q66 0 104.5 -34t38.5 -91q0 -75 -50.5 -115t-137.5 -40z" />
    <glyph glyph-name="eta" unicode="&#x3b7;" 
d="M190 426h8q26 38 68 59t93 21q38 0 67 -12.5t49 -33.5t30 -49.5t10 -60.5q0 -14 -1.5 -29t-3.5 -32l-90 -505h-131l89 497q1 7 1.5 15t0.5 15q0 32 -19 53t-57 21q-30 0 -53 -11t-40 -30.5t-28 -46t-17 -57.5l-42 -240h-131l86 490h123z" />
    <glyph glyph-name="theta" unicode="&#x3b8;" horiz-adv-x="679" 
d="M281 -16q-55 0 -100.5 21t-77.5 59.5t-50 93t-18 120.5q0 82 24.5 158.5t69.5 135t108.5 93.5t141.5 35q55 0 100.5 -21t77.5 -59.5t50 -93t18 -120.5q0 -82 -25 -158.5t-70 -135t-108.5 -93.5t-140.5 -35zM295 107q34 0 64 15t54.5 41.5t42 62.5t26.5 78h-314v-9
q0 -85 33.5 -136.5t93.5 -51.5zM365 577q-31 0 -58.5 -12t-50.5 -34t-40.5 -51.5t-28.5 -63.5h304q-5 74 -38.5 117.5t-87.5 43.5z" />
    <glyph glyph-name="iota" unicode="&#x3b9;" horiz-adv-x="259" 
d="M0 0l86 490h131l-86 -490h-131z" />
    <glyph glyph-name="kappa" unicode="&#x3ba;" horiz-adv-x="514" 
d="M210 490l-37 -209h8l193 209h156l-1 -8l-218 -231l142 -243l-2 -8h-147l-131 234h-8l-42 -234h-130l86 490h131z" />
    <glyph glyph-name="lambda" unicode="&#x3bb;" horiz-adv-x="553" 
d="M309 706l179 -706h-145l-67 295h-7l-174 -295h-151l286 468l-64 238h143z" />
    <glyph glyph-name="nu" unicode="&#x3bd;" horiz-adv-x="557" 
d="M30 490h148l61 -312h8l178 312h151l-297 -490h-130z" />
    <glyph glyph-name="xi" unicode="&#x3be;" horiz-adv-x="535" 
d="M336 732q78 0 128 -32.5t76 -77.5l-112 -74q-32 67 -105 67q-22 0 -43 -6.5t-37.5 -19t-26.5 -31.5t-10 -43q0 -40 29.5 -62.5t68.5 -22.5h99l-21 -112h-110q-29 0 -54.5 -6.5t-45 -20t-31 -33.5t-11.5 -47q0 -42 33 -64.5t84 -22.5h41q73 0 116.5 -33t43.5 -98
q0 -79 -51.5 -119.5t-137.5 -41.5l18 104q18 0 31 9.5t13 26.5q0 28 -34 28h-76q-52 0 -92.5 14.5t-68 39t-42 57.5t-14.5 70q0 137 145 201l2 8q-11 9 -22.5 20.5t-20.5 27.5t-15 36t-6 46q0 43 19 82t53.5 67.5t82 45.5t104.5 17z" />
    <glyph glyph-name="omicron" unicode="&#x3bf;" horiz-adv-x="576" 
d="M303 506q53 0 96.5 -18t74 -49t47 -72.5t16.5 -88.5q0 -62 -22 -116t-61.5 -93.5t-94.5 -62t-120 -22.5q-53 0 -96.5 18t-74 49t-47 72.5t-16.5 89.5q0 62 22 115.5t61.5 93t94.5 62t120 22.5zM252 105q33 0 61 12.5t49 34.5t32.5 50.5t11.5 61.5q0 26 -9 48.5
t-24.5 38.5t-37 25t-45.5 9q-33 0 -61 -12.5t-49 -34.5t-32.5 -50.5t-11.5 -61.5q0 -26 9 -48.5t25 -38.5t37 -25t45 -9z" />
    <glyph glyph-name="pi" unicode="&#x3c0;" horiz-adv-x="737" 
d="M547 -8q-66 0 -103 37.5t-37 100.5q0 14 1 25t4 28l34 195h-172l-67 -378h-130l66 378h-115l19 112h670l-20 -112h-121l-33 -189q-2 -10 -2 -22q0 -23 11 -39.5t36 -16.5q15 0 25 3.5t20 8.5l29 -106q-25 -14 -51.5 -19.5t-63.5 -5.5z" />
    <glyph glyph-name="rho" unicode="&#x3c1;" horiz-adv-x="600" 
d="M285 -16q-56 0 -93.5 23t-55.5 52h-8l-3 -70l-36 -205h-130l78 447q10 60 34 110.5t61.5 87t88.5 57t115 20.5q53 0 94.5 -17t70.5 -47.5t44.5 -72.5t15.5 -92q0 -53 -20 -105.5t-56 -94t-87 -67.5t-113 -26zM274 105q31 0 59 12t49 34t33.5 51t12.5 64q0 57 -32.5 88
t-80.5 31q-33 0 -61 -13t-49 -35.5t-33 -53t-12 -64.5q0 -54 33 -84t81 -30z" />
    <glyph glyph-name="uni03C2" unicode="&#x3c2;" horiz-adv-x="540" 
d="M251 -16q-56 0 -101.5 17t-77.5 47.5t-49.5 73.5t-17.5 96q0 57 21 109.5t60.5 92t95.5 63t125 23.5q86 0 140 -40t75 -103l-126 -49q-12 35 -39.5 53t-68.5 18q-33 0 -61 -12.5t-48 -34t-31.5 -49.5t-11.5 -59q0 -55 34.5 -90t101.5 -35h22q69 0 110 -35.5t41 -93.5
q0 -79 -50 -119t-138 -41l18 104q18 0 31 9t13 26q0 13 -9.5 21t-29.5 8h-29z" />
    <glyph glyph-name="sigma" unicode="&#x3c3;" horiz-adv-x="607" 
d="M237 -16q-52 0 -94.5 16.5t-73 45.5t-47.5 69.5t-17 88.5q0 56 20.5 108t58.5 91.5t92 63t121 23.5h323l-20 -111h-45l-73 8l-1 -8q17 -19 28.5 -48.5t11.5 -70.5q0 -60 -22 -111t-60.5 -87.5t-90 -57t-111.5 -20.5zM246 105q30 0 56 11t45.5 31.5t31 48t11.5 60.5
q0 25 -8.5 46t-22.5 36t-33.5 23t-41.5 8q-32 0 -58.5 -11.5t-46 -32t-30.5 -48.5t-11 -61q0 -51 31 -81t77 -30z" />
    <glyph glyph-name="tau" unicode="&#x3c4;" horiz-adv-x="481" 
d="M47 490h433l-21 -121h-152l-65 -369h-131l66 369h-152z" />
    <glyph glyph-name="upsilon" unicode="&#x3c5;" horiz-adv-x="567" 
d="M234 -16q-46 0 -84 13.5t-65.5 39t-43 61t-15.5 79.5q0 12 1 26.5t5 35.5l44 251h131l-45 -252q-2 -10 -2.5 -17.5t-0.5 -16.5q0 -49 25 -74t64 -25q36 0 63.5 15.5t46 41t27.5 59t9 69.5q0 53 -11 101t-31 99h140q14 -38 24 -87.5t10 -108.5q0 -62 -18.5 -118.5
t-55.5 -99t-91.5 -67.5t-126.5 -25z" />
    <glyph glyph-name="phi" unicode="&#x3c6;" horiz-adv-x="738" 
d="M202 -216l36 205q-50 7 -89.5 26.5t-67.5 49t-42.5 67.5t-14.5 83q0 52 15.5 96t44 80t67.5 65t86 50l43 -109q-55 -26 -89.5 -66.5t-34.5 -100.5q0 -48 28.5 -79t74.5 -43l42 236q6 34 23 63.5t42 51.5t57.5 34.5t69.5 12.5q46 0 82 -15t60 -42.5t36.5 -66t12.5 -85.5
q0 -66 -23.5 -121.5t-65.5 -95.5t-99.5 -64t-125.5 -27l-36 -205h-132zM391 108q75 12 118.5 58t43.5 123q0 45 -16.5 72.5t-48.5 27.5q-18 0 -34.5 -13t-21.5 -40z" />
    <glyph glyph-name="chi" unicode="&#x3c7;" horiz-adv-x="514" 
d="M291 0l-67 143h-6l-113 -143h-161l215 257l-126 233h155l63 -136h7l108 136h161l-212 -242l128 -248h-152z" />
    <glyph glyph-name="psi" unicode="&#x3c8;" horiz-adv-x="720" 
d="M238 -16q-42 0 -80.5 13.5t-67.5 40t-46 65.5t-17 89q0 13 1 26.5t4 28.5l43 243h130l-45 -257q-3 -17 -3 -33q0 -26 8.5 -44.5t23 -29.5t32.5 -16t38 -5l68 385h132l-68 -384q45 1 75 18t48.5 44t26.5 61.5t8 69.5q0 32 -2 58t-5.5 48.5t-9 43t-11.5 41.5h132
q11 -32 19 -77t8 -104q0 -69 -20.5 -128t-60.5 -102.5t-97.5 -69t-131.5 -25.5l-36 -200h-132z" />
    <glyph glyph-name="omega" unicode="&#x3c9;" horiz-adv-x="799" 
d="M514 -16q-60 0 -95 27t-50 65q-29 -45 -71 -68.5t-98 -23.5q-38 0 -71 13.5t-57.5 39.5t-38.5 63.5t-14 85.5q0 87 34 163t85 141h148q-23 -29 -46 -62.5t-41 -69.5t-29.5 -74t-11.5 -78q0 -45 18.5 -69.5t50.5 -24.5q35 0 65.5 30t42.5 98l23 130h123l-23 -130
q-2 -15 -3 -25.5t-1 -21.5q0 -39 19 -60t51 -21q29 0 50.5 16t36 41.5t21.5 57.5t7 64q0 58 -11.5 104.5t-31.5 94.5h144q16 -38 25.5 -86.5t9.5 -110.5q0 -56 -16 -111.5t-48.5 -99.5t-81.5 -71t-115 -27z" />
    <glyph glyph-name="iotadieresis" unicode="&#x3ca;" horiz-adv-x="259" 
d="M94 590q-28 0 -48.5 20.5t-20.5 48.5q0 29 20.5 49t48.5 20q29 0 49 -20t20 -49q0 -28 -20 -48.5t-49 -20.5zM262 590q-28 0 -48.5 20.5t-20.5 48.5q0 29 20.5 49t48.5 20q29 0 49 -20t20 -49q0 -28 -20 -48.5t-49 -20.5zM0 0l85 490h131l-85 -490h-131z" />
    <glyph glyph-name="upsilondieresis" unicode="&#x3cb;" horiz-adv-x="567" 
d="M409 587q-29 0 -50 21.5t-21 50.5q0 30 21 51t50 21q31 0 51.5 -21t20.5 -51q0 -29 -20.5 -50.5t-51.5 -21.5zM219 587q-30 0 -51 21.5t-21 50.5q0 30 21 51t51 21t50.5 -21t20.5 -51q0 -29 -20.5 -50.5t-50.5 -21.5zM234 -16q-46 0 -84 13.5t-65.5 39t-43 61t-15.5 79.5
q0 12 1 26.5t5 35.5l44 251h131l-45 -252q-2 -10 -2.5 -17.5t-0.5 -16.5q0 -49 25 -74t64 -25q36 0 63.5 15.5t46 41t27.5 59t9 69.5q0 53 -11 101t-31 99h140q14 -38 24 -87.5t10 -108.5q0 -62 -18.5 -118.5t-55.5 -99t-91.5 -67.5t-126.5 -25z" />
    <glyph glyph-name="omicrontonos" unicode="&#x3cc;" horiz-adv-x="576" 
d="M271 588l66 136h154l-114 -136h-106zM303 506q53 0 96.5 -18t74 -49t47 -72.5t16.5 -88.5q0 -62 -22 -116t-61.5 -93.5t-94.5 -62t-120 -22.5q-53 0 -96.5 18t-74 49t-47 72.5t-16.5 89.5q0 62 22 115.5t61.5 93t94.5 62t120 22.5zM252 105q33 0 61 12.5t49 34.5
t32.5 50.5t11.5 61.5q0 26 -9 48.5t-24.5 38.5t-37 25t-45.5 9q-33 0 -61 -12.5t-49 -34.5t-32.5 -50.5t-11.5 -61.5q0 -26 9 -48.5t25 -38.5t37 -25t45 -9z" />
    <glyph glyph-name="upsilontonos" unicode="&#x3cd;" horiz-adv-x="567" 
d="M234 -16q-46 0 -84 13.5t-65.5 39t-43 61t-15.5 79.5q0 12 1 26.5t5 35.5l44 251h131l-45 -252q-2 -10 -2.5 -17.5t-0.5 -16.5q0 -49 25 -74t64 -25q36 0 63.5 15.5t46 41t27.5 59t9 69.5q0 53 -11 101t-31 99h140q14 -38 24 -87.5t10 -108.5q0 -62 -18.5 -118.5
t-55.5 -99t-91.5 -67.5t-126.5 -25zM249 588l66 136h154l-114 -136h-106z" />
    <glyph glyph-name="omegatonos" unicode="&#x3ce;" horiz-adv-x="799" 
d="M388 588l66 136h154l-114 -136h-106zM514 -16q-60 0 -95 27t-50 65q-29 -45 -71 -68.5t-98 -23.5q-38 0 -71 13.5t-57.5 39.5t-38.5 63.5t-14 85.5q0 87 34 163t85 141h148q-23 -29 -46 -62.5t-41 -69.5t-29.5 -74t-11.5 -78q0 -45 18.5 -69.5t50.5 -24.5q35 0 65.5 30
t42.5 98l23 130h123l-23 -130q-2 -15 -3 -25.5t-1 -21.5q0 -39 19 -60t51 -21q29 0 50.5 16t36 41.5t21.5 57.5t7 64q0 58 -11.5 104.5t-31.5 94.5h144q16 -38 25.5 -86.5t9.5 -110.5q0 -56 -16 -111.5t-48.5 -99.5t-81.5 -71t-115 -27z" />
    <glyph glyph-name="uni03D1" unicode="&#x3d1;" horiz-adv-x="650" 
d="M231 -16q-44 0 -81.5 13.5t-65 39.5t-43 63t-15.5 85q0 14 1.5 28t3.5 28l44 249h124l-45 -254q-3 -21 -3 -35q0 -51 28.5 -75.5t72.5 -24.5q115 0 139 133l7 40q-36 11 -65.5 32.5t-51.5 52t-34 69.5t-12 84t12 85t36.5 70t60.5 47.5t84 17.5q72 0 109 -39.5t37 -104.5
q0 -10 -1 -20t-3 -24l-31 -169h90l-19 -107h-90l-7 -42q-20 -118 -93.5 -180t-188.5 -62zM450 568q1 6 1 10v7q0 18 -9 29t-27 11q-15 0 -26.5 -9.5t-19 -24.5t-11 -34.5t-3.5 -38.5q0 -42 15.5 -76.5t47.5 -52.5z" />
    <glyph glyph-name="uni03D2" unicode="&#x3d2;" horiz-adv-x="657" 
d="M621 724q30 0 52.5 -7.5t39.5 -21.5l-57 -101q-5 5 -13.5 8t-19.5 3q-19 0 -34.5 -10t-33.5 -36l-169 -247l-54 -312h-135l55 312l-83 247q-8 26 -20.5 36t-29.5 10q-10 0 -19.5 -2.5t-14.5 -5.5l-33 99q19 11 46 19.5t59 8.5q19 0 37.5 -5t35.5 -16.5t31 -30.5t23 -48
l54 -168h8l114 170q21 31 41 50t40 29.5t40 14.5t40 4z" />
    <glyph glyph-name="uni03D3" unicode="&#x3d3;" horiz-adv-x="779" 
d="M743 724q30 0 52.5 -7.5t39.5 -21.5l-57 -101q-5 5 -13.5 8t-19.5 3q-19 0 -34.5 -10t-33.5 -36l-169 -247l-54 -312h-135l55 312l-83 247q-8 26 -20.5 36t-29.5 10q-10 0 -19.5 -2.5t-14.5 -5.5l-33 99q19 11 46 19.5t59 8.5q19 0 37.5 -5t35.5 -16.5t31 -30.5t23 -48
l54 -168h8l114 170q21 31 41 50t40 29.5t40 14.5t40 4zM-48 588l66 136h154l-114 -136h-106z" />
    <glyph glyph-name="uni03D4" unicode="&#x3d4;" horiz-adv-x="657" 
d="M621 724q30 0 52.5 -7.5t39.5 -21.5l-57 -101q-5 5 -13.5 8t-19.5 3q-19 0 -34.5 -10t-33.5 -36l-169 -247l-54 -312h-135l55 312l-83 247q-8 26 -20.5 36t-29.5 10q-10 0 -19.5 -2.5t-14.5 -5.5l-33 99q19 11 46 19.5t59 8.5q19 0 37.5 -5t35.5 -16.5t31 -30.5t23 -48
l54 -168h8l114 170q21 31 41 50t40 29.5t40 14.5t40 4zM491 771q-29 0 -50 21.5t-21 50.5q0 30 21 51t50 21q31 0 51.5 -21t20.5 -51q0 -29 -20.5 -50.5t-51.5 -21.5zM301 771q-30 0 -51 21.5t-21 50.5q0 30 21 51t51 21t50.5 -21t20.5 -51q0 -29 -20.5 -50.5t-50.5 -21.5z
" />
    <glyph glyph-name="uni03D6" unicode="&#x3d6;" horiz-adv-x="915" 
d="M241 -16q-38 0 -71 13.5t-57.5 39t-38.5 63t-14 85.5q0 63 16 113t39 92h-69l18 100h834l-17 -100h-75q5 -21 7 -45t2 -55q0 -57 -16.5 -112t-49 -98t-81.5 -69.5t-113 -26.5q-60 0 -95 27t-51 65q-28 -45 -70.5 -68.5t-97.5 -23.5zM391 326h123l-15 -86l-3.5 -24.5
t-1.5 -20.5q0 -42 18.5 -62.5t48.5 -20.5t52 16t37 41t22 56.5t7 62.5q0 30 -4 54.5t-9 47.5h-407q-24 -41 -42 -89t-18 -99q0 -42 18.5 -66t50.5 -24q35 0 65.5 30t42.5 98z" />
    <glyph glyph-name="uni0400" unicode="&#x400;" horiz-adv-x="578" 
d="M247 588l-29 -166h287l-23 -128h-287l-30 -166h320l-23 -128h-454l127 716h454l-23 -128h-319zM314 772l-65 136h148l19 -136h-102z" />
    <glyph glyph-name="uni0401" unicode="&#x401;" horiz-adv-x="578" 
d="M459 771q-29 0 -50 21.5t-21 50.5q0 30 21 51t50 21q31 0 51.5 -21t20.5 -51q0 -29 -20.5 -50.5t-51.5 -21.5zM269 771q-30 0 -51 21.5t-21 50.5q0 30 21 51t51 21t50.5 -21t20.5 -51q0 -29 -20.5 -50.5t-50.5 -21.5zM247 588l-29 -166h287l-23 -128h-287l-30 -166h320
l-23 -128h-454l127 716h454l-23 -128h-319z" />
    <glyph glyph-name="uni0402" unicode="&#x402;" horiz-adv-x="788" 
d="M734 242q0 -54 -20 -98.5t-56 -76.5t-86.5 -49.5t-110.5 -17.5h-32l21 121h21q25 0 48 6.5t40.5 20t27.5 33.5t10 46q0 42 -28.5 64.5t-75.5 22.5t-91.5 -22t-71.5 -54l-42 -238h-135l104 588h-193l23 128h525l-23 -128h-197l-26 -147l-21 -75h8q35 32 77 52t106 20
q40 0 76 -13.5t63 -38.5t43 -61.5t16 -82.5z" />
    <glyph glyph-name="uni0403" unicode="&#x403;" horiz-adv-x="547" 
d="M135 716h442l-23 -128h-307l-104 -588h-135zM299 772l66 136h154l-114 -136h-106z" />
    <glyph glyph-name="uni0404" unicode="&#x404;" horiz-adv-x="733" 
d="M350 -16q-71 0 -129.5 24.5t-100.5 68.5t-65.5 105.5t-23.5 135.5q0 79 31 153.5t88 132.5t137.5 93t179.5 35q88 0 150 -31t107 -92l-111 -88q-29 38 -70.5 60.5t-98.5 22.5q-47 0 -89.5 -13t-77.5 -37.5t-61 -59t-39 -77.5h321l-20 -118h-313q4 -44 20.5 -78.5
t43 -58.5t61 -37t75.5 -13q67 0 115 25t93 70l84 -91q-66 -67 -139.5 -99.5t-167.5 -32.5z" />
    <glyph glyph-name="uni0405" unicode="&#x405;" horiz-adv-x="575" 
d="M237 -16q-45 0 -85 12.5t-72 38t-54 63.5t-30 89l129 52q2 -27 11 -50t25 -40t38.5 -27t51.5 -10q52 0 88 25.5t36 69.5q0 37 -26 62t-90 50l-35 14q-29 11 -55.5 27.5t-46.5 39.5t-32 53.5t-12 69.5q0 45 19.5 83.5t53.5 66t80.5 43.5t100.5 16q55 0 94 -15t64.5 -38
t39.5 -49.5t19 -50.5l-124 -47q-7 32 -32.5 54t-74.5 22q-20 0 -39 -5.5t-34 -15.5t-24 -25t-9 -34q0 -33 24.5 -54.5t75.5 -40.5l42 -15q72 -27 114.5 -73t42.5 -123q0 -52 -20 -95.5t-56 -75t-86.5 -49.5t-111.5 -18z" />
    <glyph glyph-name="uni0406" unicode="&#x406;" horiz-adv-x="279" 
d="M135 716h135l-127 -716h-135z" />
    <glyph glyph-name="uni0407" unicode="&#x407;" horiz-adv-x="279" 
d="M311 780q-27 0 -47 20t-20 47q0 29 20 48.5t47 19.5q29 0 48.5 -19.5t19.5 -48.5q0 -27 -19.5 -47t-48.5 -20zM133 780q-28 0 -48 20t-20 47q0 29 20 48.5t48 19.5t47.5 -19.5t19.5 -48.5q0 -27 -19.5 -47t-47.5 -20zM135 716h135l-127 -716h-135z" />
    <glyph glyph-name="uni0408" unicode="&#x408;" horiz-adv-x="555" 
d="M208 -16q-42 0 -79 12.5t-66.5 35.5t-48.5 54.5t-24 70.5l130 50q5 -47 33 -71t69 -24q47 0 77 30t40 84l86 490h134l-86 -489q-11 -65 -35.5 -111t-59.5 -75t-78 -43t-92 -14z" />
    <glyph glyph-name="uni0409" unicode="&#x409;" horiz-adv-x="1095" 
d="M15 119q41 0 68 25q23 22 35 63.5t23 101.5l71 407h508l-50 -285h145q47 0 88.5 -12.5t72 -37.5t48.5 -61.5t18 -84.5q0 -53 -20.5 -96.5t-57.5 -74t-89.5 -47.5t-116.5 -17h-299l104 588h-238l-58 -325q-14 -83 -38.5 -137t-62.5 -86q-29 -26 -66.5 -37t-85.5 -11
q-15 0 -30 1.5t-22 3.5l22 127q6 -3 14.5 -4t16.5 -1zM780 124q53 0 86.5 27t33.5 73q0 38 -25 60.5t-68 22.5h-160l-32 -183h165z" />
    <glyph glyph-name="uni040A" unicode="&#x40a;" horiz-adv-x="1069" 
d="M8 0l127 716h135l-51 -285h289l50 285h135l-51 -285h146q47 0 88.5 -12.5t72 -37.5t48.5 -61.5t18 -84.5q0 -53 -20.5 -96.5t-57.5 -74t-89.5 -47.5t-116.5 -17h-300l55 307h-289l-54 -307h-135zM752 124q53 0 86.5 27t33.5 73q0 38 -24.5 60.5t-67.5 22.5h-160l-32 -183
h164z" />
    <glyph glyph-name="uni040B" unicode="&#x40b;" horiz-adv-x="784" 
d="M288 0h-135l104 588h-193l23 128h525l-23 -128h-197l-26 -147l-21 -75h8q35 32 79 52t104 20q80 0 127.5 -47.5t47.5 -127.5q0 -11 -1.5 -22.5t-3.5 -24.5l-38 -216h-129l35 198q3 15 3 34q0 36 -25.5 59t-74.5 23q-47 0 -83.5 -22t-63.5 -54z" />
    <glyph glyph-name="uni040C" unicode="&#x40c;" horiz-adv-x="655" 
d="M699 708l-342 -360l231 -340l-2 -8h-163l-216 319h-8l-56 -319h-135l127 716h135l-60 -336h8l310 336h172zM342 772l66 136h154l-114 -136h-106z" />
    <glyph glyph-name="uni040D" unicode="&#x40d;" horiz-adv-x="715" 
d="M579 0h-134l63 351l32 138h-8l-367 -489h-157l127 716h133l-64 -360l-32 -138h8l374 498h152zM367 772l-65 136h148l19 -136h-102z" />
    <glyph glyph-name="uni040E" unicode="&#x40e;" horiz-adv-x="630" 
d="M299 108q-44 -69 -89.5 -96.5t-102.5 -27.5q-30 0 -52.5 6t-39.5 14l54 115q9 -6 21 -10t25 -4q39 0 69 43l35 53l-143 515h141l90 -361h8l218 361h149zM380 763q-24 0 -46 8t-38 23t-25.5 36t-9.5 46v10t2 13h92q-1 -4 -1 -9q0 -15 9.5 -26t28.5 -11q20 0 33.5 13
t17.5 33h92q-11 -68 -51.5 -102t-103.5 -34z" />
    <glyph glyph-name="uni040F" unicode="&#x40f;" horiz-adv-x="694" 
d="M205 -163l28 163h-210l126 716h134l-103 -588h280l104 588h135l-126 -716h-211l-28 -163h-129z" />
    <glyph glyph-name="uni0410" unicode="&#x410;" horiz-adv-x="716" 
d="M339 716h158l143 -716h-144l-31 171h-273l-90 -171h-153zM442 295l-33 180l-10 86h-8l-40 -86l-95 -180h186z" />
    <glyph glyph-name="uni0411" unicode="&#x411;" horiz-adv-x="627" 
d="M362 434q44 0 82.5 -13.5t67 -39t45 -61t16.5 -78.5q0 -57 -21 -102t-58 -76t-87.5 -47.5t-108.5 -16.5h-290l127 716h451l-22 -124h-316l-28 -158h142zM316 124q53 0 87 28t34 76q0 39 -24.5 60.5t-67.5 21.5h-147l-33 -186h151z" />
    <glyph glyph-name="uni0412" unicode="&#x412;" horiz-adv-x="629" 
d="M135 716h254q52 0 92 -14.5t67 -38.5t41 -56t14 -67t-10.5 -62.5t-27.5 -48t-40 -34t-47 -20.5l-2 -8q39 -18 67 -54t28 -91q0 -51 -21 -92t-58 -70t-86.5 -44.5t-107.5 -15.5h-290zM354 424q51 0 82.5 23.5t31.5 68.5q0 35 -22 57t-62 22h-136l-30 -171h136zM315 123
q24 0 46 6.5t38.5 19t26 31t9.5 42.5q0 38 -24 62t-71 24h-143l-32 -185h150z" />
    <glyph glyph-name="uni0413" unicode="&#x413;" horiz-adv-x="534" 
d="M135 716h438l-23 -128h-303l-104 -588h-135z" />
    <glyph glyph-name="uni0414" unicode="&#x414;" horiz-adv-x="799" 
d="M-36 -152l48 280h87q24 30 44 72t37 91t30.5 102t22.5 105l38 218h485l-103 -588h78l-49 -280h-129l26 152h-460l-27 -152h-128zM362 475q-11 -58 -22.5 -107t-25.5 -91t-31 -78.5t-39 -70.5h274l81 460h-216z" />
    <glyph glyph-name="uni0415" unicode="&#x415;" horiz-adv-x="578" 
d="M247 588l-29 -166h287l-23 -128h-287l-30 -166h320l-23 -128h-454l127 716h454l-23 -128h-319z" />
    <glyph glyph-name="uni0416" unicode="&#x416;" horiz-adv-x="960" 
d="M483 0h-134l55 313h-8l-282 -313h-174l2 8l325 353l-184 347l1 8h160l166 -327h8l58 327h134l-58 -327h8l277 327h169l-2 -8l-312 -361l202 -339l-2 -8h-162l-183 313h-8z" />
    <glyph glyph-name="uni0417" unicode="&#x417;" horiz-adv-x="571" 
d="M236 -16q-42 0 -81 12t-70.5 35t-53.5 57.5t-29 79.5l123 48q8 -53 38 -80.5t81 -27.5q27 0 50.5 7.5t41.5 21.5t28.5 35.5t10.5 49.5q0 40 -30.5 67.5t-83.5 27.5h-57l20 112h46q27 0 52.5 6.5t44.5 20t30.5 33t11.5 46.5q0 36 -23.5 58t-64.5 22q-47 0 -77.5 -24.5
t-43.5 -56.5l-106 47q12 30 32.5 57t50.5 48t69.5 33.5t88.5 12.5q47 0 85 -13t65 -36.5t41.5 -55.5t14.5 -69q0 -66 -31.5 -108t-81.5 -67l-2 -8q32 -19 56.5 -55.5t24.5 -94.5q0 -55 -21.5 -99.5t-58 -76t-86 -48.5t-105.5 -17z" />
    <glyph glyph-name="uni0418" unicode="&#x418;" horiz-adv-x="715" 
d="M579 0h-134l63 351l32 138h-8l-367 -489h-157l127 716h133l-64 -360l-32 -138h8l374 498h152z" />
    <glyph glyph-name="uni0419" unicode="&#x419;" horiz-adv-x="715" 
d="M579 0h-134l63 351l32 138h-8l-367 -489h-157l127 716h133l-64 -360l-32 -138h8l374 498h152zM421 763q-24 0 -46 8t-38 23t-25.5 36t-9.5 46v10t2 13h92q-1 -4 -1 -9q0 -15 9.5 -26t28.5 -11q20 0 33.5 13t17.5 33h92q-11 -68 -51.5 -102t-103.5 -34z" />
    <glyph glyph-name="uni041A" unicode="&#x41a;" horiz-adv-x="655" 
d="M699 708l-342 -360l231 -340l-2 -8h-163l-216 319h-8l-56 -319h-135l127 716h135l-60 -336h8l310 336h172z" />
    <glyph glyph-name="uni041B" unicode="&#x41b;" horiz-adv-x="729" 
d="M15 120q42 0 68 24q23 22 35 63.5t23 101.5l71 407h508l-126 -716h-135l104 588h-238l-58 -325q-14 -83 -38.5 -137t-62.5 -86q-29 -26 -66.5 -37t-85.5 -11q-15 0 -30 1.5t-22 3.5l22 128q6 -3 14.5 -4t16.5 -1z" />
    <glyph glyph-name="uni041C" unicode="&#x41c;" horiz-adv-x="881" 
d="M135 716h129l152 -379h8l284 379h140l-127 -716h-134l63 353l29 120h-8l-239 -321h-78l-129 321h-8l-13 -120l-63 -353h-133z" />
    <glyph glyph-name="uni041D" unicode="&#x41d;" horiz-adv-x="715" 
d="M135 716h135l-51 -286h302l51 286h134l-127 -716h-134l53 302h-302l-53 -302h-135z" />
    <glyph glyph-name="uni041E" unicode="&#x41e;" horiz-adv-x="829" 
d="M366 -16q-72 0 -133.5 24t-106.5 67.5t-70.5 105t-25.5 136.5q0 84 31 159.5t87 132t134.5 90t173.5 33.5q75 0 137 -25t106 -69.5t68.5 -105.5t24.5 -133q0 -84 -31 -159t-87 -132t-134.5 -90.5t-173.5 -33.5zM380 112q57 0 107 22.5t87.5 60.5t59.5 88t22 106
q0 49 -16.5 88.5t-45.5 67.5t-68 43.5t-84 15.5q-59 0 -109 -23t-87.5 -61.5t-58.5 -88.5t-21 -104q0 -49 16.5 -88.5t45.5 -67.5t68 -43.5t84 -15.5z" />
    <glyph glyph-name="uni041F" unicode="&#x41f;" horiz-adv-x="694" 
d="M135 716h550l-127 -716h-135l105 588h-281l-104 -588h-135z" />
    <glyph glyph-name="uni0420" unicode="&#x420;" horiz-adv-x="592" 
d="M8 0l127 716h240q48 0 88 -15t69.5 -42t46 -65t16.5 -84q0 -59 -20.5 -105t-57.5 -77.5t-88.5 -48t-112.5 -16.5h-127l-46 -263h-135zM334 391q54 0 90 26.5t36 82.5q0 39 -23.5 63.5t-68.5 24.5h-121l-35 -197h122z" />
    <glyph glyph-name="uni0421" unicode="&#x421;" horiz-adv-x="734" 
d="M664 113q-34 -35 -68 -59t-71 -40t-79 -23t-91 -7q-68 0 -127 23t-103 66t-69.5 104.5t-25.5 138.5q0 84 32 159.5t89 132.5t136 90.5t174 33.5q91 0 156 -33t104 -90l-108 -88q-29 39 -69 61t-101 22q-57 0 -107 -22t-88 -60t-60 -89t-22 -110q0 -48 15.5 -87
t42.5 -66.5t64 -42.5t81 -15q64 0 114 26.5t95 71.5z" />
    <glyph glyph-name="uni0422" unicode="&#x422;" horiz-adv-x="589" 
d="M160 0l104 588h-200l23 128h535l-23 -128h-200l-104 -588h-135z" />
    <glyph glyph-name="uni0423" unicode="&#x423;" horiz-adv-x="630" 
d="M299 108q-44 -69 -89.5 -96.5t-102.5 -27.5q-30 0 -52.5 6t-39.5 14l54 115q9 -6 21 -10t25 -4q39 0 69 43l35 53l-143 515h141l90 -361h8l218 361h149z" />
    <glyph glyph-name="uni0424" unicode="&#x424;" horiz-adv-x="827" 
d="M274 -48l19 109q-61 8 -109.5 31.5t-82 58.5t-51 80.5t-17.5 98.5q0 72 28.5 129.5t78 98.5t116 66t142.5 32l19 108h135l-20 -109q62 -9 110.5 -32t82.5 -58.5t51.5 -81t17.5 -97.5q0 -73 -29 -130.5t-78.5 -98.5t-116 -66t-142.5 -32l-19 -107h-135zM168 340
q0 -63 38 -103.5t109 -53.5l62 351q-44 -6 -82.5 -21.5t-66.5 -39.5t-44 -57.5t-16 -75.5zM658 374q0 63 -38 104t-109 55l-62 -352q45 6 83 21.5t66 39.5t44 57t16 75z" />
    <glyph glyph-name="uni0425" unicode="&#x425;" horiz-adv-x="688" 
d="M259 377l-171 339h169l104 -231h8l182 231h174l-291 -351l183 -365h-165l-121 251h-8l-202 -251h-174z" />
    <glyph glyph-name="uni0426" unicode="&#x426;" horiz-adv-x="754" 
d="M505 -168l29 168h-511l126 716h135l-104 -588h284l103 588h135l-104 -588h90l-52 -296h-131z" />
    <glyph glyph-name="uni0427" unicode="&#x427;" horiz-adv-x="610" 
d="M486 716h135l-127 -716h-135l55 309q-32 -23 -67.5 -36t-86.5 -13q-41 0 -77 12.5t-63 37.5t-42.5 61t-15.5 84q0 14 1.5 29.5t3.5 29.5l36 202h135l-36 -205q-2 -9 -2.5 -15t-0.5 -14q0 -47 29.5 -70.5t74.5 -23.5q41 0 73 13.5t62 39.5z" />
    <glyph glyph-name="uni0428" unicode="&#x428;" horiz-adv-x="933" 
d="M8 0l127 716h135l-105 -588h193l104 588h135l-104 -588h192l105 588h134l-127 -716h-789z" />
    <glyph glyph-name="uni0429" unicode="&#x429;" horiz-adv-x="981" 
d="M718 -168l29 168h-739l127 716h135l-105 -588h193l104 588h135l-104 -588h192l105 588h134l-104 -588h81l-52 -296h-131z" />
    <glyph glyph-name="uni042A" unicode="&#x42a;" horiz-adv-x="776" 
d="M151 0l105 592h-191l22 124h326l-44 -245h115q50 0 94 -14t77 -41t52 -65.5t19 -87.5q0 -61 -22 -109.5t-62 -82.5t-95 -52.5t-121 -18.5h-275zM347 347l-39 -223h144q29 0 54.5 8.5t44 24.5t29 39t10.5 53q0 46 -30.5 72t-81.5 26h-131z" />
    <glyph glyph-name="uni042B" unicode="&#x42b;" horiz-adv-x="870" 
d="M8 0l127 716h135l-44 -245h115q50 0 94 -14t77 -41t52 -65.5t19 -87.5q0 -61 -22 -109.5t-62 -82.5t-95 -52.5t-121 -18.5h-275zM204 347l-39 -223h144q29 0 54.5 8.5t44 24.5t29 39t10.5 53q0 46 -30.5 72t-81.5 26h-131zM726 716h135l-127 -716h-135z" />
    <glyph glyph-name="uni042C" unicode="&#x42c;" horiz-adv-x="633" 
d="M8 0l127 716h135l-44 -245h115q50 0 94 -14t77 -41t52 -65.5t19 -87.5q0 -61 -22 -109.5t-62 -82.5t-95 -52.5t-121 -18.5h-275zM204 347l-39 -223h144q29 0 54.5 8.5t44 24.5t29 39t10.5 53q0 46 -30.5 72t-81.5 26h-131z" />
    <glyph glyph-name="uni042D" unicode="&#x42d;" horiz-adv-x="733" 
d="M283 -16q-100 0 -172.5 37.5t-114.5 99.5l105 86q29 -44 76.5 -69.5t113.5 -25.5q48 0 90 13.5t76 38.5t58.5 59.5t38.5 75.5h-320l20 118h312q-8 89 -62 138t-136 49q-57 0 -101.5 -21.5t-80.5 -57.5l-89 90q57 57 126.5 87t156.5 30q72 0 131.5 -24.5t101.5 -69
t65.5 -105.5t23.5 -134q0 -85 -31 -160.5t-87 -132t-133 -89.5t-168 -33z" />
    <glyph glyph-name="uni042E" unicode="&#x42e;" horiz-adv-x="1092" 
d="M636 -16q-70 0 -129.5 22.5t-104 63.5t-71.5 98.5t-30 128.5v5h-105l-53 -302h-135l127 716h135l-51 -286h97q17 64 54 119.5t90 96t120.5 63.5t145.5 23q75 0 137 -25t106 -69.5t68.5 -105.5t24.5 -133q0 -84 -31 -159t-87 -132t-134.5 -90.5t-173.5 -33.5zM650 112
q57 0 107 22.5t87.5 60.5t59.5 88t22 106q0 49 -16.5 88.5t-45.5 67.5t-68 43.5t-84 15.5q-59 0 -109 -23t-87.5 -61.5t-58.5 -88.5t-21 -104q0 -49 16.5 -88.5t45.5 -67.5t68 -43.5t84 -15.5z" />
    <glyph glyph-name="uni042F" unicode="&#x42f;" horiz-adv-x="643" 
d="M507 0h-135l48 269h-58l-231 -269h-161l2 8l239 275l1 7q-24 11 -46 28t-38.5 40.5t-26.5 52.5t-10 64q0 52 20.5 96t57 76.5t87 50.5t111.5 18h267zM442 393l35 199h-127q-29 0 -52 -9t-39 -24t-24 -34t-8 -39q0 -43 27 -68t71 -25h117z" />
    <glyph glyph-name="uni0430" unicode="&#x430;" horiz-adv-x="535" 
d="M290 506q101 0 154 -48t53 -126q0 -12 -1.5 -24.5t-3.5 -26.5l-50 -281h-129l9 52h-8q-23 -29 -57.5 -48.5t-83.5 -19.5q-37 0 -67.5 11.5t-52 32t-33.5 49t-12 61.5q0 42 16.5 75t47 56.5t73 36t93.5 12.5q37 0 67.5 -6.5t58.5 -16.5l4 15q2 10 2 16q0 32 -26.5 53
t-69.5 21q-38 0 -67 -14.5t-52 -41.5l-88 64q40 51 98 74.5t125 23.5zM216 86q25 0 47.5 9.5t40 25t29 36t15.5 42.5q-15 7 -42.5 15.5t-63.5 8.5q-42 0 -72 -18.5t-30 -56.5q0 -31 22.5 -46.5t53.5 -15.5z" />
    <glyph glyph-name="uni0431" unicode="&#x431;" horiz-adv-x="607" 
d="M402 596q-41 0 -68.5 -9.5t-50.5 -24.5q-29 -20 -51 -52t-34 -75h8q24 29 62.5 50t95.5 21q42 0 78 -17t63 -46.5t42.5 -70t15.5 -88.5q0 -63 -21.5 -117.5t-60 -95t-92.5 -64t-119 -23.5q-53 0 -96 19.5t-73 55.5t-46.5 87.5t-16.5 114.5q0 49 10 100t29.5 99t49.5 90.5
t69 75.5q42 35 96 56t119 21q27 0 45 1.5t29 5.5t16.5 9.5t9.5 13.5h113q-9 -40 -26.5 -66.5t-44.5 -42t-64.5 -22t-86.5 -6.5zM320 385q-33 0 -61 -13t-48.5 -34.5t-32 -50.5t-11.5 -61q0 -57 33.5 -89t82.5 -32q33 0 60.5 13t47 34.5t30.5 50t11 60.5q0 58 -32 90t-80 32z
" />
    <glyph glyph-name="uni0432" unicode="&#x432;" horiz-adv-x="515" 
d="M390 248q26 -13 45 -35t19 -64q0 -33 -14 -60t-39.5 -47t-61.5 -31t-79 -11h-267l86 490h241q72 0 111.5 -33.5t39.5 -87.5q0 -22 -7 -40t-18.5 -32.5t-25.5 -24.5t-29 -16zM153 205l-18 -102h134q26 0 46 14t20 43q0 21 -14 33t-40 12h-128zM186 391l-17 -93h122
q25 0 42 13t17 37q0 20 -13 31.5t-36 11.5h-115z" />
    <glyph glyph-name="uni0433" unicode="&#x433;" horiz-adv-x="439" 
d="M79 490h359l-20 -112h-228l-67 -378h-130z" />
    <glyph glyph-name="uni0434" unicode="&#x434;" horiz-adv-x="656" 
d="M-45 -152l46 267h62q25 32 46.5 88t33.5 125l29 162h420l-65 -375h74l-47 -267h-117l27 152h-366l-27 -152h-116zM262 297q-6 -30 -12 -55t-14 -46.5t-17.5 -41t-21.5 -39.5h204l46 260h-171z" />
    <glyph glyph-name="uni0435" unicode="&#x435;" horiz-adv-x="556" 
d="M482 120q-43 -64 -101 -100t-145 -36q-54 0 -96.5 18t-72.5 49.5t-46 74t-16 90.5q0 57 21 109t59 92.5t92 64.5t120 24q54 0 94.5 -16.5t68 -44.5t41.5 -65t14 -78q0 -47 -14 -87h-369v-10q2 -54 35.5 -79.5t78.5 -25.5q48 0 81 18.5t56 53.5zM393 308v4
q0 34 -26.5 60.5t-80.5 26.5q-49 0 -85.5 -26.5t-50.5 -64.5h243z" />
    <glyph glyph-name="uni0436" unicode="&#x436;" horiz-adv-x="762" 
d="M252 0l41 229h-8l-199 -229h-153l2 8l230 258l-133 216l2 8h144l117 -205h8l36 205h130l-36 -205h8l188 205h150l-1 -8l-213 -227l135 -247l-2 -8h-143l-124 229h-8l-41 -229h-130z" />
    <glyph glyph-name="uni0437" unicode="&#x437;" horiz-adv-x="499" 
d="M271 506q38 0 70.5 -10t56 -28t37 -43t13.5 -54q0 -43 -23.5 -72t-56.5 -42l-1 -8q26 -15 43.5 -39.5t17.5 -62.5q0 -40 -19 -70.5t-51 -51t-75 -31t-91 -10.5q-72 0 -121.5 27t-79.5 67l96 75q42 -60 118 -60q19 0 37 4t31.5 11.5t22 19t8.5 26.5q0 21 -22.5 35
t-63.5 14h-60l16 94h67q38 0 62.5 14t24.5 39q0 24 -21 38t-52 14q-34 0 -60.5 -12t-48.5 -35l-78 68q45 45 95 64t108 19z" />
    <glyph glyph-name="uni0438" unicode="&#x438;" horiz-adv-x="570" 
d="M451 0h-131l35 199l25 96h-8l-243 -295h-136l87 490h130l-35 -199l-25 -96h8l244 295h136z" />
    <glyph glyph-name="uni0439" unicode="&#x439;" horiz-adv-x="570" 
d="M451 0h-131l35 199l25 96h-8l-243 -295h-136l87 490h130l-35 -199l-25 -96h8l244 295h136zM331 564q-24 0 -46 8t-38 23t-25.5 36t-9.5 46v10t2 13h92q-1 -4 -1 -9q0 -15 9.5 -26t28.5 -11q20 0 33.5 13t17.5 33h92q-11 -68 -51.5 -102t-103.5 -34z" />
    <glyph glyph-name="uni043A" unicode="&#x43a;" horiz-adv-x="514" 
d="M210 490l-37 -209h8l193 209h156l-1 -8l-218 -231l142 -243l-2 -8h-147l-131 234h-8l-42 -234h-130l86 490h131z" />
    <glyph glyph-name="uni043B" unicode="&#x43b;" horiz-adv-x="625" 
d="M38 -8q-17 0 -32.5 2t-26.5 6l21 115q9 -3 17 -4t14 -1q15 0 27 7t21.5 23.5t17 43t14.5 64.5l43 242h438l-86 -490h-125l66 373h-190l-26 -146q-12 -68 -31 -113t-43.5 -72t-54.5 -38.5t-64 -11.5z" />
    <glyph glyph-name="uni043C" unicode="&#x43c;" horiz-adv-x="686" 
d="M446 0l35 200l25 96h-8l-159 -232h-92l-80 232h-8l-9 -96l-36 -200h-125l87 490h153l85 -257h8l176 257h160l-87 -490h-125z" />
    <glyph glyph-name="uni043D" unicode="&#x43d;" horiz-adv-x="578" 
d="M327 0l34 189h-204l-34 -189h-130l87 490h130l-32 -180h204l32 180h131l-87 -490h-131z" />
    <glyph glyph-name="uni043E" unicode="&#x43e;" horiz-adv-x="576" 
d="M303 506q53 0 96.5 -18t74 -49t47 -72.5t16.5 -88.5q0 -62 -22 -116t-61.5 -93.5t-94.5 -62t-120 -22.5q-53 0 -96.5 18t-74 49t-47 72.5t-16.5 89.5q0 62 22 115.5t61.5 93t94.5 62t120 22.5zM252 105q33 0 61 12.5t49 34.5t32.5 50.5t11.5 61.5q0 26 -9 48.5
t-24.5 38.5t-37 25t-45.5 9q-33 0 -61 -12.5t-49 -34.5t-32.5 -50.5t-11.5 -61.5q0 -26 9 -48.5t25 -38.5t37 -25t45 -9z" />
    <glyph glyph-name="uni043F" unicode="&#x43f;" horiz-adv-x="565" 
d="M79 490h453l-87 -490h-131l65 369h-191l-65 -369h-130z" />
    <glyph glyph-name="uni0440" unicode="&#x440;" horiz-adv-x="596" 
d="M367 506q44 0 81 -17.5t64 -48t42 -73t15 -92.5q0 -58 -20 -110.5t-57 -92.5t-88 -64t-112 -24q-49 0 -89.5 21.5t-57.5 53.5h-8l-3 -70l-36 -205h-131l125 706h122l-10 -59h8q20 29 57.5 52t97.5 23zM288 105q33 0 60.5 13t47.5 35t31 51t11 61q0 55 -33 87.5t-87 32.5
q-29 0 -56 -12t-47.5 -33t-33 -51t-12.5 -66q0 -54 33 -86t86 -32z" />
    <glyph glyph-name="uni0441" unicode="&#x441;" horiz-adv-x="545" 
d="M243 -16q-52 0 -96 17t-75.5 47.5t-49 73t-17.5 93.5q0 58 21 110.5t60 92.5t95 64t126 24q85 0 140 -39.5t75 -103.5l-126 -49q-25 71 -107 71q-33 0 -61.5 -12.5t-48.5 -34t-31.5 -50t-11.5 -60.5q0 -27 9 -50t24.5 -39t36.5 -25t45 -9q44 0 74.5 19.5t51.5 54.5
l112 -54q-48 -76 -107.5 -108.5t-138.5 -32.5z" />
    <glyph glyph-name="uni0442" unicode="&#x442;" horiz-adv-x="457" 
d="M47 490h433l-21 -121h-152l-65 -369h-131l66 369h-152z" />
    <glyph glyph-name="uni0443" unicode="&#x443;" horiz-adv-x="553" 
d="M8 -216l151 245l-122 461h146l71 -298h8l173 298h148l-432 -706h-143z" />
    <glyph glyph-name="uni0444" unicode="&#x444;" horiz-adv-x="761" 
d="M727 271q0 -64 -24.5 -114t-68 -86t-104 -57t-132.5 -27l-35 -203h-131l36 206q-54 8 -98 28.5t-74.5 50.5t-47.5 68t-17 82q0 64 24.5 114t68 86t103.5 57t132 27l38 213h131l-39 -216q54 -8 97.5 -28t75 -50t48.5 -68t17 -83zM598 254q0 54 -33 87.5t-96 44.5l-50 -284
q37 5 69.5 16t57 29.5t38.5 45t14 61.5zM160 233q0 -52 34 -85.5t94 -44.5l51 284q-36 -5 -68.5 -16.5t-57 -30t-39 -45.5t-14.5 -62z" />
    <glyph glyph-name="uni0445" unicode="&#x445;" horiz-adv-x="514" 
d="M291 0l-67 143h-6l-113 -143h-161l215 257l-126 233h155l63 -136h7l108 136h161l-212 -242l128 -248h-152z" />
    <glyph glyph-name="uni0446" unicode="&#x446;" horiz-adv-x="609" 
d="M373 -152l27 152h-407l86 490h131l-66 -373h191l66 373h131l-66 -373h72l-47 -269h-118z" />
    <glyph glyph-name="uni0447" unicode="&#x447;" horiz-adv-x="529" 
d="M249 279q24 0 46.5 3.5t41.5 14.5l34 193h131l-87 -490h-131l32 176q-20 -8 -45.5 -13t-63.5 -5t-69.5 11t-54.5 32t-35.5 51t-12.5 67q0 10 1 20.5t4 27.5l21 123h133l-22 -120q-2 -10 -2 -13v-11q0 -36 23 -51.5t56 -15.5z" />
    <glyph glyph-name="uni0448" unicode="&#x448;" horiz-adv-x="803" 
d="M-7 0l86 490h128l-66 -373h144l66 373h128l-66 -373h143l66 373h128l-87 -490h-670z" />
    <glyph glyph-name="uni0449" unicode="&#x449;" horiz-adv-x="847" 
d="M592 -152l26 152h-625l86 490h128l-66 -373h144l66 373h128l-66 -373h143l66 373h128l-66 -373h72l-47 -269h-117z" />
    <glyph glyph-name="uni044A" unicode="&#x44a;" horiz-adv-x="607" 
d="M50 490h245l-28 -159h110q39 0 71.5 -11t56 -31t36.5 -47.5t13 -60.5q0 -83 -56.5 -132t-160.5 -49h-253l69 387h-122zM350 103q35 0 58.5 17.5t23.5 50.5q0 27 -19 42.5t-50 15.5h-114l-23 -126h124z" />
    <glyph glyph-name="uni044B" unicode="&#x44b;" horiz-adv-x="731" 
d="M487 0l87 490h124l-87 -490h-124zM-7 0l87 490h124l-28 -159h110q39 0 71.5 -11t56 -31t36.5 -47.5t13 -60.5q0 -83 -56.5 -132t-160.5 -49h-253zM259 103q35 0 58.5 17.5t23.5 50.5q0 27 -19 42.5t-50 15.5h-114l-23 -126h124z" />
    <glyph glyph-name="uni044C" unicode="&#x44c;" horiz-adv-x="517" 
d="M-7 0l87 490h124l-28 -159h110q39 0 71.5 -11t56 -31t36.5 -47.5t13 -60.5q0 -83 -56.5 -132t-160.5 -49h-253zM259 103q35 0 58.5 17.5t23.5 50.5q0 27 -19 42.5t-50 15.5h-114l-23 -126h124z" />
    <glyph glyph-name="uni044D" unicode="&#x44d;" horiz-adv-x="535" 
d="M203 -16q-41 0 -76.5 10.5t-64 29.5t-48.5 45t-29 57l110 41q13 -33 41 -54t76 -21q57 0 96 29t55 77h-205l17 93h197q-6 51 -36.5 79t-77.5 28t-79.5 -22.5t-52.5 -56.5l-98 49q36 66 96 102t142 36q51 0 93 -16.5t71.5 -46.5t46 -71.5t16.5 -91.5q0 -60 -20 -114
t-57.5 -94.5t-91.5 -64t-121 -23.5z" />
    <glyph glyph-name="uni044E" unicode="&#x44e;" horiz-adv-x="813" 
d="M1 0l86 490h131l-32 -180h72q14 43 40.5 79.5t63 62t81.5 40t97 14.5q53 0 96.5 -18t74 -49t47 -72.5t16.5 -88.5q0 -62 -22 -116t-61.5 -93.5t-94 -62t-119.5 -22.5q-50 0 -91 16t-71.5 43.5t-49 65t-22.5 80.5h-78l-33 -189h-131zM490 105q33 0 61 12.5t48.5 34.5
t32 50.5t11.5 61.5q0 26 -9 48.5t-24.5 38.5t-37 25t-45.5 9q-33 0 -61 -12.5t-48.5 -34.5t-32 -50.5t-11.5 -61.5q0 -26 9 -48.5t24.5 -38.5t37 -25t45.5 -9z" />
    <glyph glyph-name="uni044F" unicode="&#x44f;" horiz-adv-x="504" 
d="M-62 0l2 8l151 164l-2 7q-14 6 -28.5 18t-26 28.5t-19 38t-7.5 46.5q0 37 15 69.5t43 57t67.5 39t88.5 14.5h250l-87 -490h-124l29 163h-62l-146 -163h-144zM216 387q-34 0 -58 -18.5t-24 -49.5q0 -28 20 -41.5t45 -13.5h109l22 123h-114z" />
    <glyph glyph-name="uni0450" unicode="&#x450;" horiz-adv-x="552" 
d="M482 120q-43 -64 -101 -100t-145 -36q-54 0 -96.5 18t-72.5 49.5t-46 74t-16 90.5q0 57 21 109t59 92.5t92 64.5t120 24q54 0 94.5 -16.5t68 -44.5t41.5 -65t14 -78q0 -47 -14 -87h-369v-10q2 -54 35.5 -79.5t78.5 -25.5q48 0 81 18.5t56 53.5zM393 308v4
q0 34 -26.5 60.5t-80.5 26.5q-49 0 -85.5 -26.5t-50.5 -64.5h243zM269 588l-65 136h148l19 -136h-102z" />
    <glyph glyph-name="uni0451" unicode="&#x451;" horiz-adv-x="552" 
d="M422 587q-29 0 -50 21.5t-21 50.5q0 30 21 51t50 21q31 0 51.5 -21t20.5 -51q0 -29 -20.5 -50.5t-51.5 -21.5zM232 587q-30 0 -51 21.5t-21 50.5q0 30 21 51t51 21t50.5 -21t20.5 -51q0 -29 -20.5 -50.5t-50.5 -21.5zM482 120q-43 -64 -101 -100t-145 -36q-54 0 -96.5 18
t-72.5 49.5t-46 74t-16 90.5q0 57 21 109t59 92.5t92 64.5t120 24q54 0 94.5 -16.5t68 -44.5t41.5 -65t14 -78q0 -47 -14 -87h-369v-10q2 -54 35.5 -79.5t78.5 -25.5q48 0 81 18.5t56 53.5zM393 308v4q0 34 -26.5 60.5t-80.5 26.5q-49 0 -85.5 -26.5t-50.5 -64.5h243z" />
    <glyph glyph-name="uni0452" unicode="&#x452;" 
d="M222 563l-8 -48l-24 -89h8q27 38 69 59t93 21q40 0 69 -12.5t48.5 -33.5t29 -49t9.5 -59q0 -23 -6 -59l-61 -347q-9 -50 -25 -83t-39 -52.5t-52.5 -28t-65.5 -8.5q-20 0 -43 3.5t-39 10.5l47 116q15 -9 33 -9q22 0 35 12.5t18 41.5l59 332q3 18 3 29q0 32 -19 53.5
t-56 21.5q-30 0 -53.5 -11.5t-41 -31t-28.5 -46t-16 -57.5l-43 -239h-130l99 563h-58l15 90h58l12 63h131l-12 -63h135l-16 -90h-135z" />
    <glyph glyph-name="uni0453" unicode="&#x453;" horiz-adv-x="419" 
d="M203 588l66 136h154l-114 -136h-106zM79 490h359l-20 -112h-228l-67 -378h-130z" />
    <glyph glyph-name="uni0454" unicode="&#x454;" horiz-adv-x="535" 
d="M125 198q7 -50 37.5 -78t80.5 -28q48 0 78.5 20.5t53.5 59.5l96 -46q-40 -69 -97.5 -105.5t-147.5 -36.5q-49 0 -89.5 16.5t-70 47t-45.5 73t-16 94.5q0 56 20.5 108.5t59 93t93.5 65t123 24.5q44 0 77.5 -10t59 -28.5t43 -44.5t28.5 -57l-109 -44q-11 33 -39 54.5
t-73 21.5q-56 0 -95.5 -29.5t-56.5 -77.5h203l-17 -93h-197z" />
    <glyph glyph-name="uni0455" unicode="&#x455;" horiz-adv-x="483" 
d="M200 -16q-45 0 -81 11t-62.5 30t-44 44.5t-26.5 54.5l121 49q8 -38 36.5 -56t66.5 -18q34 0 57.5 12.5t23.5 35.5q0 20 -16 32.5t-51 21.5l-53 13q-23 6 -46 17t-41 28t-29.5 40t-11.5 52q0 37 16.5 65.5t45.5 48.5t68 30.5t85 10.5q147 0 195 -118l-120 -44
q-8 27 -32 41.5t-54 14.5q-35 0 -54 -11.5t-19 -30.5q0 -32 55 -46l69 -18q63 -16 94.5 -52t31.5 -83q0 -41 -17 -73.5t-47 -55t-71 -34.5t-89 -12z" />
    <glyph glyph-name="uni0456" unicode="&#x456;" horiz-adv-x="259" 
d="M0 0l86 490h131l-86 -490h-131zM178 561q-35 0 -59.5 24.5t-24.5 59.5t24.5 59.5t59.5 24.5t59.5 -24.5t24.5 -59.5t-24.5 -59.5t-59.5 -24.5z" />
    <glyph glyph-name="uni0457" unicode="&#x457;" horiz-adv-x="259" 
d="M96 590q-28 0 -48.5 20.5t-20.5 48.5q0 29 20.5 49t48.5 20q29 0 49 -20t20 -49q0 -28 -20 -48.5t-49 -20.5zM264 590q-28 0 -48.5 20.5t-20.5 48.5q0 29 20.5 49t48.5 20q29 0 49 -20t20 -49q0 -28 -20 -48.5t-49 -20.5zM0 0l86 490h131l-86 -490h-131z" />
    <glyph glyph-name="uni0458" unicode="&#x458;" horiz-adv-x="259" 
d="M-61 -226q-20 0 -43 3.5t-39 10.5l47 116q15 -9 33 -9q22 0 35.5 12.5t18.5 41.5l95 541h131l-96 -544q-9 -50 -25 -83t-39 -52.5t-52.5 -28t-65.5 -8.5zM178 561q-35 0 -59.5 24.5t-24.5 59.5t24.5 59.5t59.5 24.5t59.5 -24.5t24.5 -59.5t-24.5 -59.5t-59.5 -24.5z" />
    <glyph glyph-name="uni0459" unicode="&#x459;" horiz-adv-x="900" 
d="M38 -8q-17 0 -33 2t-26 6l21 115q9 -3 16.5 -4t14.5 -1q15 0 27 7t21.5 23.5t17 43t14.5 64.5l42 242h439l-29 -167h106q36 0 68 -10t56 -29t37.5 -45.5t13.5 -60.5q0 -82 -55.5 -130t-155.5 -48h-253l66 373h-190l-25 -146q-12 -68 -31 -113t-44 -72t-55 -38.5
t-63 -11.5zM544 220l-20 -117h120q30 0 54.5 14.5t24.5 49.5q0 25 -17.5 39t-43.5 14h-118z" />
    <glyph glyph-name="uni045A" unicode="&#x45a;" horiz-adv-x="874" 
d="M321 0l39 220h-197l-39 -220h-131l87 490h131l-30 -167h197l30 167h131l-30 -167h133q37 0 69 -10t55.5 -29t37 -45.5t13.5 -60.5q0 -82 -55.5 -130t-155.5 -48h-285zM491 220l-20 -117h146q30 0 54.5 14.5t24.5 49.5q0 25 -17.5 39t-43.5 14h-144z" />
    <glyph glyph-name="uni045B" unicode="&#x45b;" 
d="M238 653h135l-16 -90h-135l-8 -48l-24 -89h8q27 38 69 59t93 21q40 0 69 -12.5t48.5 -33.5t29 -49t9.5 -59q0 -13 -1.5 -28.5t-4.5 -30.5l-52 -293h-131l50 281q2 10 2.5 16t0.5 13q0 32 -19 53.5t-56 21.5q-30 0 -53.5 -11.5t-41 -31t-28.5 -46t-16 -57.5l-43 -239h-130
l99 563h-58l15 90h58l12 63h131z" />
    <glyph glyph-name="uni045C" unicode="&#x45c;" horiz-adv-x="514" 
d="M247 588l66 136h154l-114 -136h-106zM210 490l-37 -209h8l193 209h156l-1 -8l-218 -231l142 -243l-2 -8h-147l-131 234h-8l-42 -234h-130l86 490h131z" />
    <glyph glyph-name="uni045D" unicode="&#x45d;" horiz-adv-x="570" 
d="M451 0h-131l35 199l25 96h-8l-243 -295h-136l87 490h130l-35 -199l-25 -96h8l244 295h136zM284 588l-65 136h148l19 -136h-102z" />
    <glyph glyph-name="uni045E" unicode="&#x45e;" horiz-adv-x="553" 
d="M8 -216l151 245l-122 461h146l71 -298h8l173 298h148l-432 -706h-143zM323 579q-24 0 -46 8t-38 23t-25.5 36t-9.5 46v10t2 13h92q-1 -4 -1 -9q0 -15 9.5 -26t28.5 -11q20 0 33.5 13t17.5 33h92q-11 -68 -51.5 -102t-103.5 -34z" />
    <glyph glyph-name="uni045F" unicode="&#x45f;" horiz-adv-x="571" 
d="M137 -152l27 152h-171l86 490h131l-65 -369h198l65 369h131l-87 -490h-171l-26 -152h-118z" />
    <glyph glyph-name="uni0490" unicode="&#x490;" horiz-adv-x="549" 
d="M132 716h319l22 123h133l-44 -251h-318l-104 -588h-135z" />
    <glyph glyph-name="uni0491" unicode="&#x491;" horiz-adv-x="439" 
d="M79 490h245l19 107h114l-39 -219h-228l-67 -378h-130z" />
    <glyph glyph-name="uni04B0" unicode="&#x4b0;" horiz-adv-x="637" 
d="M189 0l47 263h-172l17 98h154l-160 355h159l100 -237h8l179 237h167l-283 -355h155l-17 -98h-172l-47 -263h-135z" />
    <glyph glyph-name="uni04B1" unicode="&#x4b1;" horiz-adv-x="541" 
d="M33 490h143l64 -325l180 325h146l-215 -364l-21 -36h105l-16 -90h-142l-38 -216h-131l38 216h-141l16 90h105l-8 36z" />
    <glyph glyph-name="Wgrave" unicode="&#x1e80;" horiz-adv-x="954" 
d="M686 0h-131l-52 346l-7 78h-8l-34 -78l-172 -346h-132l-71 716h141l36 -418l3 -77h8l35 77l157 322h128l47 -322l7 -76h8l28 76l179 418h145zM484 772l-65 136h148l19 -136h-102z" />
    <glyph glyph-name="wgrave" unicode="&#x1e81;" horiz-adv-x="805" 
d="M442 0l-44 309h-6l-153 -309h-139l-72 490h140l31 -307h7l152 307h136l45 -307h7l132 307h146l-241 -490h-141zM386 588l-65 136h148l19 -136h-102z" />
    <glyph glyph-name="Wacute" unicode="&#x1e82;" horiz-adv-x="954" 
d="M493 772l66 136h154l-114 -136h-106zM686 0h-131l-52 346l-7 78h-8l-34 -78l-172 -346h-132l-71 716h141l36 -418l3 -77h8l35 77l157 322h128l47 -322l7 -76h8l28 76l179 418h145z" />
    <glyph glyph-name="wacute" unicode="&#x1e83;" horiz-adv-x="805" 
d="M393 588l66 136h154l-114 -136h-106zM442 0l-44 309h-6l-153 -309h-139l-72 490h140l31 -307h7l152 307h136l45 -307h7l132 307h146l-241 -490h-141z" />
    <glyph glyph-name="Wdieresis" unicode="&#x1e84;" horiz-adv-x="954" 
d="M645 771q-29 0 -50 21.5t-21 50.5q0 30 21 51t50 21q31 0 51.5 -21t20.5 -51q0 -29 -20.5 -50.5t-51.5 -21.5zM455 771q-30 0 -51 21.5t-21 50.5q0 30 21 51t51 21t50.5 -21t20.5 -51q0 -29 -20.5 -50.5t-50.5 -21.5zM686 0h-131l-52 346l-7 78h-8l-34 -78l-172 -346
h-132l-71 716h141l36 -418l3 -77h8l35 77l157 322h128l47 -322l7 -76h8l28 76l179 418h145z" />
    <glyph glyph-name="wdieresis" unicode="&#x1e85;" horiz-adv-x="805" 
d="M547 587q-29 0 -50 21.5t-21 50.5q0 30 21 51t50 21q31 0 51.5 -21t20.5 -51q0 -29 -20.5 -50.5t-51.5 -21.5zM357 587q-30 0 -51 21.5t-21 50.5q0 30 21 51t51 21t50.5 -21t20.5 -51q0 -29 -20.5 -50.5t-50.5 -21.5zM442 0l-44 309h-6l-153 -309h-139l-72 490h140
l31 -307h7l152 307h136l45 -307h7l132 307h146l-241 -490h-141z" />
    <glyph glyph-name="Ygrave" unicode="&#x1ef2;" horiz-adv-x="637" 
d="M189 0l59 333l-173 383h156l101 -237h8l181 237h167l-305 -383l-59 -333h-135zM338 772l-65 136h148l19 -136h-102z" />
    <glyph glyph-name="ygrave" unicode="&#x1ef3;" horiz-adv-x="553" 
d="M8 -216l151 245l-122 461h146l71 -298h8l173 298h148l-432 -706h-143zM264 588l-65 136h148l19 -136h-102z" />
    <glyph glyph-name="endash" unicode="&#x2013;" horiz-adv-x="611" 
d="M58 368h498l-20 -116h-499z" />
    <glyph glyph-name="emdash" unicode="&#x2014;" horiz-adv-x="917" 
d="M58 368h805l-20 -116h-806z" />
    <glyph glyph-name="quoteleft" unicode="&#x2018;" horiz-adv-x="269" 
d="M264 689l-66 -77q20 -9 35 -29.5t15 -49.5q0 -18 -7 -33.5t-18.5 -27.5t-27 -18.5t-33.5 -6.5q-36 0 -61.5 25t-25.5 61q0 18 8.5 36.5t23.5 37.5l104 125z" />
    <glyph glyph-name="quoteright" unicode="&#x2019;" horiz-adv-x="269" 
d="M83 490l66 77q-20 8 -35 28.5t-15 49.5q0 18 7 34t19 28t27.5 18.5t33.5 6.5q36 0 61.5 -25t25.5 -62q0 -17 -8.5 -35.5t-23.5 -37.5l-105 -125z" />
    <glyph glyph-name="quotesinglbase" unicode="&#x201a;" horiz-adv-x="269" 
d="M-9 -76l66 77q-20 8 -35 28.5t-15 49.5q0 18 7 34t19 28t27.5 18.5t33.5 6.5q36 0 61.5 -25t25.5 -62q0 -17 -8.5 -35.5t-23.5 -37.5l-105 -125z" />
    <glyph glyph-name="quotedblleft" unicode="&#x201c;" horiz-adv-x="488" 
d="M264 689l-66 -77q20 -9 35 -29.5t15 -49.5q0 -18 -7 -33.5t-18.5 -27.5t-27 -18.5t-33.5 -6.5q-36 0 -61.5 25t-25.5 61q0 18 8.5 36.5t23.5 37.5l104 125zM483 689l-66 -77q20 -9 35 -29.5t15 -49.5q0 -18 -7 -33.5t-18.5 -27.5t-27 -18.5t-33.5 -6.5q-36 0 -61.5 25
t-25.5 61q0 18 8.5 36.5t23.5 37.5l104 125z" />
    <glyph glyph-name="quotedblright" unicode="&#x201d;" horiz-adv-x="488" 
d="M83 490l66 77q-20 8 -35 28.5t-15 49.5q0 18 7 34t19 28t27.5 18.5t33.5 6.5q36 0 61.5 -25t25.5 -62q0 -17 -8.5 -35.5t-23.5 -37.5l-105 -125zM302 490l66 77q-20 8 -35 28.5t-15 49.5q0 18 7 34t19 28t27.5 18.5t33.5 6.5q36 0 61.5 -25t25.5 -62q0 -17 -8.5 -35.5
t-23.5 -37.5l-105 -125z" />
    <glyph glyph-name="quotedblbase" unicode="&#x201e;" horiz-adv-x="479" 
d="M-9 -76l66 77q-20 8 -35 28.5t-15 49.5q0 18 7 34t19 28t27.5 18.5t33.5 6.5q36 0 61.5 -25t25.5 -62q0 -17 -8.5 -35.5t-23.5 -37.5l-105 -125zM199 -76l66 77q-20 8 -35 28.5t-15 49.5q0 18 7 34t19 28t27.5 18.5t33.5 6.5q36 0 61.5 -25t25.5 -62q0 -17 -8.5 -35.5
t-23.5 -37.5l-105 -125z" />
    <glyph glyph-name="bullet" unicode="&#x2022;" horiz-adv-x="421" 
d="M205 193q-27 0 -51 10.5t-41.5 28t-28 41.5t-10.5 51t10.5 51t28 41.5t41.5 28t51 10.5t50.5 -10.5t41.5 -28t28 -41.5t10 -51t-10 -51t-28 -41.5t-41.5 -28t-50.5 -10.5z" />
    <glyph glyph-name="ellipsis" unicode="&#x2026;" horiz-adv-x="752" 
d="M86 -6q-36 0 -61.5 25.5t-25.5 61.5t25.5 61t61.5 25t61.5 -25t25.5 -61t-25.5 -61.5t-61.5 -25.5zM327 -6q-36 0 -61.5 25.5t-25.5 61.5t25.5 61t61.5 25t61.5 -25t25.5 -61t-25.5 -61.5t-61.5 -25.5zM569 -6q-36 0 -61.5 25.5t-25.5 61.5t25.5 61t61.5 25t61.5 -25
t25.5 -61t-25.5 -61.5t-61.5 -25.5z" />
    <glyph glyph-name="guilsinglleft" unicode="&#x2039;" horiz-adv-x="387" 
d="M278 107l-84 -66l-171 230l252 230l67 -74l-181 -163z" />
    <glyph glyph-name="guilsinglright" unicode="&#x203a;" horiz-adv-x="387" 
d="M76 435l83 66l172 -230l-253 -230l-66 74l180 163z" />
    <glyph glyph-name="fraction" unicode="&#x2044;" horiz-adv-x="192" 
d="M-233 39l588 692l70 -54l-587 -693z" />
    <glyph glyph-name="uni2074" unicode="&#x2074;" horiz-adv-x="362" 
d="M198 350l12 65h-172l11 64l213 237h87l-40 -227h47l-13 -74h-47l-12 -65h-86zM223 489l19 104h-8l-91 -104h80z" />
    <glyph glyph-name="uni20A3" unicode="&#x20a3;" horiz-adv-x="570" 
d="M29 0l20 114h-68l14 76h68l87 494h441l-21 -116h-318l-30 -176h286l-21 -116h-286l-15 -86h128l-14 -76h-128l-20 -114h-123z" />
    <glyph glyph-name="uni20A4" unicode="&#x20a4;" horiz-adv-x="548" 
d="M491 131q-27 -64 -70 -97.5t-121 -33.5h-321l18 106q35 14 62.5 34.5t43.5 48.5h-101l13 76h105q-1 17 -3.5 32t-6.5 29h-84l13 76h49q-5 17 -7.5 36t-2.5 43q0 43 17 82.5t48.5 70t76.5 48.5t100 18q46 0 80 -13t58 -34t38 -47.5t21 -53.5l-123 -47q-6 32 -26 55.5
t-62 23.5q-46 0 -75 -30t-29 -78q0 -21 2.5 -39t7.5 -35h155l-13 -76h-121q2 -13 4 -26.5t2 -27.5v-7h104l-13 -76h-111q-20 -36 -57 -66l3 -7h150q29 0 49 15t34 44z" />
    <glyph glyph-name="uni20A9" unicode="&#x20a9;" horiz-adv-x="1002" 
d="M867 326l-140 -326h-139l-40 326h-102l-155 -326h-134l-29 326h-102l13 76h82l-25 282h142l20 -282h92l137 282h139l38 -282h93l120 282h145l-122 -282h72l-13 -76h-92zM483 402h56l-3 25l-3 83h-8l-30 -83zM303 303l11 23h-51l2 -23l1 -79h8zM716 303l9 23h-50l3 -23
l3 -78h7z" />
    <glyph glyph-name="uni20AB" unicode="&#x20ab;" horiz-adv-x="587" 
d="M205 -16q-39 0 -75 14.5t-64 42.5t-44.5 69t-16.5 94q0 58 19 110t54 91t84.5 62t110.5 23q57 0 93 -23.5t53 -51.5h8l3 70l9 54h-140l13 74h140l13 71h130l-13 -71h60l-13 -74h-60l-95 -539h-122l10 59h-8q-23 -31 -60.5 -53t-88.5 -22zM252 105q33 0 59.5 13t45 34
t29 48.5t10.5 56.5q0 52 -32 82t-80 30q-33 0 -60 -12t-46.5 -33t-30 -48.5t-10.5 -57.5q0 -28 9.5 -49t25.5 -35.5t37 -21.5t43 -7zM-16 -84h476l-17 -96h-475z" />
    <glyph glyph-name="Euro" unicode="&#x20ac;" horiz-adv-x="653" 
d="M44 469h87q23 50 59 92.5t83 73t105.5 48t126.5 17.5q49 0 88.5 -13t71.5 -36l-71 -106q-21 14 -47 22.5t-61 8.5q-68 0 -121.5 -29.5t-87.5 -77.5h211l-16 -94h-238q-8 -34 -8 -66h234l-16 -94h-202q22 -53 66.5 -80t99.5 -27q42 0 69.5 9t54.5 25l49 -107
q-41 -26 -86 -38.5t-100 -12.5t-103 16t-86.5 45.5t-65 72.5t-38.5 97h-102l16 94h78q1 31 7 66h-73z" />
    <glyph glyph-name="uni20AE" unicode="&#x20ae;" horiz-adv-x="557" 
d="M171 100l-125 -70h-7l20 109l132 75l10 56l-132 -75l20 114l132 75l32 184h-193l21 116h509l-21 -116h-193l-20 -113l125 71h7l-19 -110l-133 -75l-9 -56l132 76l-20 -114l-133 -75l-30 -172h-123z" />
    <glyph glyph-name="uni20B1" unicode="&#x20b1;" horiz-adv-x="659" 
d="M36 0l77 434h-76l14 76h75l31 174h233q92 0 150 -47t66 -127h63l-14 -76h-54q-10 -43 -33.5 -75.5t-57.5 -54.5t-76.5 -33.5t-89.5 -11.5h-139l-46 -259h-123zM361 375q36 0 67.5 15t46.5 44h-240l-10 -59h136zM249 510h233q-8 26 -30.5 42t-59.5 16h-133z" />
    <glyph glyph-name="uni20B8" unicode="&#x20b8;" horiz-adv-x="557" 
d="M153 0l71 400h-193l20 112h509l-20 -112h-193l-71 -400h-123zM61 572l20 112h509l-20 -112h-509z" />
    <glyph glyph-name="uni20B9" unicode="&#x20b9;" horiz-adv-x="581" 
d="M462 8l-1 -8h-164l-209 259l21 117h163q42 0 71.5 15t43.5 45h-350l14 76h342q-8 26 -30 43t-58 17h-244l20 112h533l-13 -76h-122q33 -42 39 -96h66l-14 -76h-57q-9 -43 -32 -75t-54.5 -53.5t-70 -33t-80.5 -12.5h-9l-2 -8z" />
    <glyph glyph-name="uni20BA" unicode="&#x20ba;" horiz-adv-x="550" 
d="M30 395l130 73l38 216h122l-25 -145l135 77l-20 -114l-135 -77l-13 -76l135 78l-20 -114l-136 -78l-22 -123q33 3 61.5 15t51 31.5t37.5 45.5t20 57h119q-11 -58 -38 -106t-68 -82.5t-94 -53.5t-116 -19h-115l29 164l-129 -73l20 114l129 73l13 76l-129 -73z" />
    <glyph glyph-name="uni20BD" unicode="&#x20bd;" horiz-adv-x="609" 
d="M36 0l20 114h-75l14 76h75l12 69h-76l20 112h76l55 313h234q49 0 88.5 -13.5t68 -39t44 -61.5t15.5 -81q0 -54 -20 -97t-55.5 -72.5t-83.5 -45t-104 -15.5h-139l-12 -69h131l-14 -76h-131l-20 -114h-123zM361 375q25 0 47.5 6.5t40 20t27.5 33.5t10 46q0 38 -24.5 62.5
t-71.5 24.5h-131l-34 -193h136z" />
    <glyph glyph-name="uni2116" unicode="&#x2116;" horiz-adv-x="1093" 
d="M135 716h150l210 -480h8l17 138l60 342h134l-127 -716h-134l-222 507h-8l-16 -138l-66 -369h-133zM726 238l15 85h280l-15 -85h-280zM943 732q33 0 61 -11t49 -30.5t32.5 -47.5t11.5 -61q0 -44 -16 -79t-43 -60.5t-63 -39t-76 -13.5q-32 0 -60 11t-48.5 31t-32 48
t-11.5 63q0 37 13 71t38.5 60t61.5 42t83 16zM912 476q40 0 65.5 27t25.5 69q0 33 -19 53.5t-48 20.5q-22 0 -39.5 -8.5t-29.5 -22t-18.5 -31t-6.5 -35.5q0 -35 20 -54t50 -19z" />
    <glyph glyph-name="minus" unicode="&#x2212;" horiz-adv-x="569" 
d="M30 213l20 116h457l-20 -116h-457z" />
    <glyph glyph-name="uni2215" unicode="&#x2215;" horiz-adv-x="480" 
d="M-38 0l423 716h132l-424 -716h-131z" />
    <glyph glyph-name="uniF8FF" horiz-adv-x="1000" 
d="M891 451q4 -21 5.5 -42t1.5 -44q0 -89 -28.5 -163.5t-81 -128.5t-126 -84t-163.5 -30q-86 0 -162 32.5t-132.5 89t-89 132.5t-32.5 162t32.5 162t89 132.5t132.5 89t162 32.5q85 0 154.5 -28.5t123.5 -79.5l-119 -120q-65 62 -159 62q-51 0 -96 -20t-78 -54t-52.5 -79.5
t-19.5 -96.5t19.5 -96.5t52.5 -80t78 -54.5t96 -20q46 0 84 12.5t67 34.5t47.5 52.5t25.5 66.5h-224v161h392z" />
    <glyph glyph-name="one.numerator" horiz-adv-x="272" 
d="M121 350l47 262l-65 -26l-29 72l136 58h65l-65 -366h-89z" />
    <glyph glyph-name="two.denominator" horiz-adv-x="317" 
d="M-36 0l12 63q38 33 70 60q13 12 27 23q13 11 24 20.5t19 16.5q7 7 10 9q7 6 16 13t16.5 16t12.5 18.5t5 19.5q0 17 -11 26.5t-29 9.5q-40 0 -53 -48l-76 29q14 46 51.5 72t91.5 26q56 0 87.5 -28.5t31.5 -72.5q0 -38 -20 -63t-56 -57q-9 -8 -23.5 -20.5t-28.5 -24.5
q-17 -14 -35 -29h134l-15 -79h-261z" />
    <glyph glyph-name="two.numerator" horiz-adv-x="317" 
d="M25 350l12 63q38 33 70 60q13 12 27 23q13 11 24 20.5t19 16.5q7 7 10 9q7 6 16 13t16.5 16t12.5 18.5t5 19.5q0 17 -11.5 26.5t-28.5 9.5q-39 0 -54 -48l-75 29q14 46 51.5 72t91.5 26q55 0 87 -28.5t32 -72.5q0 -38 -20 -63t-56 -57q-9 -8 -24 -20q-15 -13 -29 -25
q-17 -14 -35 -29h135l-15 -79h-261z" />
    <glyph glyph-name="three.numerator" horiz-adv-x="335" 
d="M168 342q-47 0 -84 25.5t-46 75.5l77 28q8 -28 23.5 -40t37.5 -12q21 0 38.5 12t17.5 35q0 19 -14.5 29t-39.5 10h-35l13 70h34q23 0 40 10t17 30q0 15 -12 23.5t-26 8.5q-23 0 -36 -11t-20 -25l-72 32q17 36 52 58.5t89 22.5q51 0 83 -26.5t32 -66.5q0 -32 -17.5 -53.5
t-43.5 -34.5q20 -11 32 -30t12 -43q0 -28 -11 -51.5t-31.5 -40.5t-48.5 -26.5t-61 -9.5z" />
    <glyph glyph-name="four.denominator" horiz-adv-x="362" 
d="M136 0l12 65h-173l12 64l212 237h88l-40 -227h47l-13 -74h-47l-12 -65h-86zM161 139l18 104h-8l-90 -104h80z" />
    <glyph glyph-name="four.numerator" horiz-adv-x="362" 
d="M198 350l12 65h-172l11 64l213 237h87l-40 -227h47l-13 -74h-47l-12 -65h-86zM223 489l19 104h-8l-91 -104h80z" />
    <glyph glyph-name="r.alt" horiz-adv-x="401" 
d="M190 422h8q24 37 64 59.5t94 22.5q17 0 27 -1.5t18 -3.5l-23 -130q-9 5 -22 8t-33 3q-63 0 -105 -39.5t-53 -104.5l-42 -236h-130l86 490h123z" />
    <glyph glyph-name="uni03BC" 
d="M333 0l12 64h-8q-26 -38 -61 -59t-86 -21q-20 0 -39 6.5t-31 17.5h-8l-2 -65l-28 -159h-130l125 706h130l-50 -281q-1 -6 -1.5 -12.5t-0.5 -17.5q0 -32 19 -53t57 -21q30 0 53 11t40 30.5t28 46t17 57.5l42 240h131l-86 -490h-123z" />
    <glyph glyph-name="uni2103" horiz-adv-x="969" 
d="M602 -16q-71 0 -128 24t-97.5 65.5t-62.5 98t-22 121.5q0 81 30 154.5t84.5 130t130.5 89.5t168 33q159 0 245 -115l-103 -86q-14 18 -29.5 32t-34.5 24t-42.5 15.5t-54.5 5.5q-56 0 -103.5 -21t-82.5 -57.5t-55 -86t-20 -106.5q0 -91 52 -144t140 -53q63 0 107 22t86 66
l79 -92q-61 -64 -130 -92t-157 -28zM175 442q-24 0 -45.5 8t-38 23t-26 36t-9.5 47q0 32 11 58.5t30.5 45.5t46 29.5t58.5 10.5q24 0 45.5 -8.5t38 -23.5t26 -36t9.5 -46q0 -32 -11 -58.5t-30.5 -45.5t-46.5 -29.5t-58 -10.5zM183 519q23 0 40 16.5t17 41.5q0 20 -12.5 33
t-32.5 13q-24 0 -41 -16.5t-17 -41.5q0 -21 13 -33.5t33 -12.5z" />
    <glyph glyph-name="uni2109" horiz-adv-x="833" 
d="M302 0l121 684h435l-22 -124h-305l-28 -164h274l-22 -124h-274l-49 -272h-130zM186 442q-24 0 -45.5 8t-38 23t-26 36t-9.5 47q0 32 11 58.5t30.5 45.5t46 29.5t58.5 10.5q24 0 45.5 -8.5t38 -23.5t26 -36t9.5 -46q0 -32 -11 -58.5t-30.5 -45.5t-46.5 -29.5t-58 -10.5z
M194 519q23 0 40 16.5t17 41.5q0 20 -12.5 33t-32.5 13q-24 0 -41 -16.5t-17 -41.5q0 -21 13 -33.5t33 -12.5z" />
    <glyph glyph-name="uni2190" horiz-adv-x="1123" 
d="M287 248v-177l-239 239l239 239v-177h780v-124h-780z" />
    <glyph glyph-name="uni2191" horiz-adv-x="559" 
d="M341 -145h-124v740h-177l239 240l240 -240h-178v-740z" />
    <glyph glyph-name="uni2192" horiz-adv-x="1123" 
d="M56 248v124h779v177l240 -239l-240 -239v177h-779z" />
    <glyph glyph-name="uni2193" horiz-adv-x="559" 
d="M341 71h178l-240 -239l-239 239h177v741h124v-741z" />
    <glyph glyph-name="uni2196" horiz-adv-x="792" 
d="M792 67l-88 -88l-538 537l-126 -125v338h339l-126 -125z" />
    <glyph glyph-name="uni2197" horiz-adv-x="792" 
d="M539 604l-126 125h339v-338l-126 125l-538 -537l-88 88z" />
    <glyph glyph-name="uni2198" horiz-adv-x="792" 
d="M253 112l126 -125h-339v338l126 -125l538 537l88 -88z" />
    <glyph glyph-name="uni2199" horiz-adv-x="792" 
d="M0 649l88 88l538 -537l126 125v-338h-339l126 125z" />
    <glyph glyph-name="uni2639" horiz-adv-x="836" 
d="M287 395q-23 0 -39.5 16.5t-16.5 40.5q0 23 16.5 39t39.5 16t39.5 -16t16.5 -39q0 -24 -16.5 -40.5t-39.5 -16.5zM549 395q-23 0 -39.5 16.5t-16.5 40.5q0 23 16.5 39t39.5 16t39.5 -16t16.5 -39q0 -24 -16.5 -40.5t-39.5 -16.5zM418 -16q-77 0 -145 29.5t-119 80.5
t-80.5 119t-29.5 145t29.5 145t80.5 119t119 80.5t145 29.5t145 -29.5t119 -80.5t80.5 -119t29.5 -145t-29.5 -145t-80.5 -119t-119 -80.5t-145 -29.5zM418 48q64 0 120.5 24.5t98.5 67t66.5 99t24.5 119.5q0 64 -24.5 120.5t-66.5 98.5t-98.5 66.5t-120.5 24.5
q-63 0 -119.5 -24.5t-99 -66.5t-67 -98.5t-24.5 -120.5q0 -63 24.5 -119.5t67 -99t99 -67t119.5 -24.5zM418 301q63 0 113 -32.5t74 -86.5l-67 -31q-17 35 -49.5 55t-70.5 20t-70.5 -20t-48.5 -55l-68 31q24 54 74 86.5t113 32.5z" />
    <glyph glyph-name="uni263A" horiz-adv-x="836" 
d="M549 395q-23 0 -39.5 16.5t-16.5 40.5q0 23 16.5 39t39.5 16t39.5 -16t16.5 -39q0 -24 -16.5 -40.5t-39.5 -16.5zM287 395q-23 0 -39.5 16.5t-16.5 40.5q0 23 16.5 39t39.5 16t39.5 -16t16.5 -39q0 -24 -16.5 -40.5t-39.5 -16.5zM418 152q-63 0 -113 32.5t-74 86.5l68 31
q16 -35 48.5 -55t70.5 -20t70.5 20t49.5 55l67 -31q-24 -54 -74 -86.5t-113 -32.5zM418 -16q-77 0 -145 29.5t-119 80.5t-80.5 119t-29.5 145t29.5 145t80.5 119t119 80.5t145 29.5t145 -29.5t119 -80.5t80.5 -119t29.5 -145t-29.5 -145t-80.5 -119t-119 -80.5t-145 -29.5z
M418 48q64 0 120.5 24.5t98.5 67t66.5 99t24.5 119.5q0 64 -24.5 120.5t-66.5 98.5t-98.5 66.5t-120.5 24.5q-63 0 -119.5 -24.5t-99 -66.5t-67 -98.5t-24.5 -120.5q0 -63 24.5 -119.5t67 -99t99 -67t119.5 -24.5z" />
    <glyph glyph-name="uni2780" horiz-adv-x="836" 
d="M386 177v263l-66 -29l-33 75l123 57h65v-366h-89zM418 -16q-77 0 -145 29.5t-119 80.5t-80.5 119t-29.5 145t29.5 145t80.5 119t119 80.5t145 29.5t145 -29.5t119 -80.5t80.5 -119t29.5 -145t-29.5 -145t-80.5 -119t-119 -80.5t-145 -29.5zM418 69q60 0 112.5 23
t91.5 62.5t62 92t23 111.5q0 60 -23 112.5t-62 91.5t-91.5 62t-112.5 23q-59 0 -111.5 -23t-92 -62t-62.5 -91.5t-23 -112.5q0 -59 23 -111.5t62.5 -92t92 -62.5t111.5 -23z" />
    <glyph glyph-name="uni2781" horiz-adv-x="836" 
d="M287 177v63q32 33 59 60l43.5 43.5l25.5 25.5q18 17 29.5 32t11.5 35q0 14 -11.5 25t-29.5 11q-20 0 -33.5 -12t-18.5 -38l-80 31q11 45 47 71.5t85 26.5q28 0 52 -8t41.5 -22t27.5 -34t10 -44q0 -18 -6.5 -34.5t-16 -31t-20 -26.5t-19.5 -21l-45 -45q-14 -14 -30 -29
h139v-79h-261zM418 -16q-77 0 -145 29.5t-119 80.5t-80.5 119t-29.5 145t29.5 145t80.5 119t119 80.5t145 29.5t145 -29.5t119 -80.5t80.5 -119t29.5 -145t-29.5 -145t-80.5 -119t-119 -80.5t-145 -29.5zM418 69q60 0 112.5 23t91.5 62.5t62 92t23 111.5q0 60 -23 112.5
t-62 91.5t-91.5 62t-112.5 23q-59 0 -111.5 -23t-92 -62t-62.5 -91.5t-23 -112.5q0 -59 23 -111.5t62.5 -92t92 -62.5t111.5 -23z" />
    <glyph glyph-name="uni2782" horiz-adv-x="836" 
d="M417 169q-48 0 -88 24t-53 77l83 30q5 -30 22 -42t36 -12q20 0 34.5 12t14.5 32t-16 31t-41 11h-38v70h34q23 0 36.5 9.5t13.5 28.5q0 16 -11.5 25t-28.5 9q-22 0 -34 -11.5t-17 -25.5l-78 31q13 36 45.5 59.5t85.5 23.5q28 0 51 -8t39.5 -22.5t25.5 -33t9 -39.5
q0 -48 -43 -78q24 -13 40 -34.5t16 -49.5t-11.5 -49.5t-30.5 -36.5t-44 -23t-52 -8zM418 -16q-77 0 -145 29.5t-119 80.5t-80.5 119t-29.5 145t29.5 145t80.5 119t119 80.5t145 29.5t145 -29.5t119 -80.5t80.5 -119t29.5 -145t-29.5 -145t-80.5 -119t-119 -80.5t-145 -29.5z
M418 69q60 0 112.5 23t91.5 62.5t62 92t23 111.5q0 60 -23 112.5t-62 91.5t-91.5 62t-112.5 23q-59 0 -111.5 -23t-92 -62t-62.5 -91.5t-23 -112.5q0 -59 23 -111.5t62.5 -92t92 -62.5t111.5 -23z" />
    <glyph glyph-name="uni2783" horiz-adv-x="836" 
d="M419 177v65h-172v64l171 237h87v-227h48v-74h-48v-65h-86zM419 423h-8l-76 -107h84v107zM418 -16q-77 0 -145 29.5t-119 80.5t-80.5 119t-29.5 145t29.5 145t80.5 119t119 80.5t145 29.5t145 -29.5t119 -80.5t80.5 -119t29.5 -145t-29.5 -145t-80.5 -119t-119 -80.5
t-145 -29.5zM418 69q60 0 112.5 23t91.5 62.5t62 92t23 111.5q0 60 -23 112.5t-62 91.5t-91.5 62t-112.5 23q-59 0 -111.5 -23t-92 -62t-62.5 -91.5t-23 -112.5q0 -59 23 -111.5t62.5 -92t92 -62.5t111.5 -23z" />
    <glyph glyph-name="uni2784" horiz-adv-x="836" 
d="M418 -16q-77 0 -145 29.5t-119 80.5t-80.5 119t-29.5 145t29.5 145t80.5 119t119 80.5t145 29.5t145 -29.5t119 -80.5t80.5 -119t29.5 -145t-29.5 -145t-80.5 -119t-119 -80.5t-145 -29.5zM418 69q60 0 112.5 23t91.5 62.5t62 92t23 111.5q0 60 -23 112.5t-62 91.5
t-91.5 62t-112.5 23q-59 0 -111.5 -23t-92 -62t-62.5 -91.5t-23 -112.5q0 -59 23 -111.5t62.5 -92t92 -62.5t111.5 -23zM417 169q-21 0 -42 5t-39.5 16t-33 28t-21.5 42l79 31q5 -21 20 -33t36 -12q22 0 36.5 14.5t14.5 37.5t-14.5 37.5t-35.5 14.5q-17 0 -30.5 -8
t-21.5 -21l-73 32l23 189h219v-72h-152l-11 -66q25 17 62 17q24 0 46 -8.5t38.5 -24.5t26.5 -39.5t10 -52.5t-11 -52.5t-30 -40t-44 -25.5t-52 -9z" />
    <glyph glyph-name="uni2785" horiz-adv-x="836" 
d="M418 -16q-77 0 -145 29.5t-119 80.5t-80.5 119t-29.5 145t29.5 145t80.5 119t119 80.5t145 29.5t145 -29.5t119 -80.5t80.5 -119t29.5 -145t-29.5 -145t-80.5 -119t-119 -80.5t-145 -29.5zM418 69q60 0 112.5 23t91.5 62.5t62 92t23 111.5q0 60 -23 112.5t-62 91.5
t-91.5 62t-112.5 23q-59 0 -111.5 -23t-92 -62t-62.5 -91.5t-23 -112.5q0 -59 23 -111.5t62.5 -92t92 -62.5t111.5 -23zM414 169q-30 0 -55 10.5t-43.5 28t-28.5 41t-10 49.5q0 32 13 59t30 52q10 15 28 40l36 50q21 28 44 60l67 -49l-76 -96q4 2 9 3t10 1q21 0 41.5 -9
t36.5 -25.5t25.5 -39t9.5 -48.5t-10.5 -49t-29.5 -40.5t-44 -27.5t-53 -10zM413 245q23 0 36.5 15t13.5 36q0 20 -13.5 35.5t-36.5 15.5q-22 0 -35.5 -15.5t-13.5 -35.5q0 -21 13 -36t36 -15z" />
    <glyph glyph-name="uni2786" horiz-adv-x="836" 
d="M418 -16q-77 0 -145 29.5t-119 80.5t-80.5 119t-29.5 145t29.5 145t80.5 119t119 80.5t145 29.5t145 -29.5t119 -80.5t80.5 -119t29.5 -145t-29.5 -145t-80.5 -119t-119 -80.5t-145 -29.5zM418 69q60 0 112.5 23t91.5 62.5t62 92t23 111.5q0 60 -23 112.5t-62 91.5
t-91.5 62t-112.5 23q-59 0 -111.5 -23t-92 -62t-62.5 -91.5t-23 -112.5q0 -59 23 -111.5t62.5 -92t92 -62.5t111.5 -23zM307 202l152 260h-164v81h261v-77l-171 -304z" />
    <glyph glyph-name="uni2787" horiz-adv-x="836" 
d="M418 -16q-77 0 -145 29.5t-119 80.5t-80.5 119t-29.5 145t29.5 145t80.5 119t119 80.5t145 29.5t145 -29.5t119 -80.5t80.5 -119t29.5 -145t-29.5 -145t-80.5 -119t-119 -80.5t-145 -29.5zM418 69q60 0 112.5 23t91.5 62.5t62 92t23 111.5q0 60 -23 112.5t-62 91.5
t-91.5 62t-112.5 23q-59 0 -111.5 -23t-92 -62t-62.5 -91.5t-23 -112.5q0 -59 23 -111.5t62.5 -92t92 -62.5t111.5 -23zM418 169q-26 0 -51 7.5t-44.5 22t-31 36t-11.5 48.5q0 28 14 50.5t38 36.5q-19 12 -29.5 32t-10.5 40q0 25 10 45t27.5 34.5t40 22t48.5 7.5
q25 0 48 -7.5t40.5 -22t27.5 -34.5t10 -45q0 -20 -10.5 -40t-29.5 -32q24 -14 38 -36.5t14 -50.5t-12 -49t-31.5 -35.5t-44 -22t-50.5 -7.5zM418 402q15 0 27.5 10t12.5 27q0 16 -11.5 26.5t-28.5 10.5t-28.5 -10t-11.5 -27t12 -27t28 -10zM418 244q19 0 34.5 12.5
t15.5 32.5t-15.5 32.5t-34.5 12.5q-20 0 -35 -12.5t-15 -32.5t15 -32.5t35 -12.5z" />
    <glyph glyph-name="uni2788" horiz-adv-x="836" 
d="M418 -16q-77 0 -145 29.5t-119 80.5t-80.5 119t-29.5 145t29.5 145t80.5 119t119 80.5t145 29.5t145 -29.5t119 -80.5t80.5 -119t29.5 -145t-29.5 -145t-80.5 -119t-119 -80.5t-145 -29.5zM418 69q60 0 112.5 23t91.5 62.5t62 92t23 111.5q0 60 -23 112.5t-62 91.5
t-91.5 62t-112.5 23q-59 0 -111.5 -23t-92 -62t-62.5 -91.5t-23 -112.5q0 -59 23 -111.5t62.5 -92t92 -62.5t111.5 -23zM415 551q30 0 55 -10.5t43.5 -28t28.5 -41t10 -49.5q0 -32 -13 -59t-30 -52q-11 -15 -28 -40q-18 -26 -36 -50q-21 -29 -44 -60l-67 49l77 96
q-4 -2 -9.5 -3t-10.5 -1q-21 0 -41.5 9t-36.5 25.5t-25.5 39t-9.5 48.5t10.5 49t29.5 40.5t43.5 27.5t53.5 10zM416 475q-23 0 -36.5 -15t-13.5 -36q0 -20 13.5 -35.5t36.5 -15.5q22 0 36 15.5t14 35.5q0 21 -13.5 36t-36.5 15z" />
    <glyph glyph-name="uni278A" horiz-adv-x="836" 
d="M475 543h-65l-123 -57l32 -75l67 29v-263h89v366zM418 -16q-77 0 -145 29.5t-119 80.5t-80.5 119t-29.5 145t29.5 145t80.5 119t119 80.5t145 29.5t145 -29.5t119 -80.5t80.5 -119t29.5 -145t-29.5 -145t-80.5 -119t-119 -80.5t-145 -29.5z" />
    <glyph glyph-name="uni278B" horiz-adv-x="836" 
d="M548 256h-140q16 15 30 29l45 45q9 9 19.5 21t20.5 26.5t16.5 31t6.5 34.5q0 24 -10 44t-28 34t-42 22t-52 8q-49 0 -85 -26.5t-47 -71.5l81 -31q5 26 18.5 38t32.5 12q18 0 29.5 -11t11.5 -25q0 -20 -11.5 -35t-29.5 -32q-2 -2 -8 -9l-16.5 -16.5l-20.5 -20.5l-23 -23
l-60 -60v-63h262v79zM418 -16q-77 0 -145 29.5t-119 80.5t-80.5 119t-29.5 145t29.5 145t80.5 119t119 80.5t145 29.5t145 -29.5t119 -80.5t80.5 -119t29.5 -145t-29.5 -145t-80.5 -119t-119 -80.5t-145 -29.5z" />
    <glyph glyph-name="uni278C" horiz-adv-x="836" 
d="M417 168q27 0 52 8t44 23t30.5 36.5t11.5 49.5q0 27 -18 49.5t-48 34.5q23 10 38 30.5t15 48.5q0 43 -34 72.5t-91 29.5q-53 0 -84.5 -24t-44.5 -60l76 -31q5 14 16.5 26.5t34.5 12.5q17 0 28.5 -9.5t11.5 -25.5q0 -19 -13.5 -28.5t-36.5 -9.5h-35v-71h39
q25 0 40.5 -10.5t15.5 -30.5t-14 -32t-34 -12q-19 0 -36 12t-22 41l-83 -30q13 -52 53 -76t88 -24zM418 -16q-77 0 -145 29.5t-119 80.5t-80.5 119t-29.5 145t29.5 145t80.5 119t119 80.5t145 29.5t145 -29.5t119 -80.5t80.5 -119t29.5 -145t-29.5 -145t-80.5 -119
t-119 -80.5t-145 -29.5z" />
    <glyph glyph-name="uni278D" horiz-adv-x="836" 
d="M504 242h48v74h-48v227h-87l-171 -237v-64h172v-65h86v65zM334 316l76 107h8v-107h-84zM418 -16q-77 0 -145 29.5t-119 80.5t-80.5 119t-29.5 145t29.5 145t80.5 119t119 80.5t145 29.5t145 -29.5t119 -80.5t80.5 -119t29.5 -145t-29.5 -145t-80.5 -119t-119 -80.5
t-145 -29.5z" />
    <glyph glyph-name="uni278E" horiz-adv-x="836" 
d="M418 -16q-77 0 -145 29.5t-119 80.5t-80.5 119t-29.5 145t29.5 145t80.5 119t119 80.5t145 29.5t145 -29.5t119 -80.5t80.5 -119t29.5 -145t-29.5 -145t-80.5 -119t-119 -80.5t-145 -29.5zM418 169q27 0 52 9t43.5 25.5t30 40t11.5 52.5t-10 52.5t-26.5 39.5t-38 24.5
t-45.5 8.5q-19 0 -37 -7.5t-29 -21.5l14 78h152v72h-219l-23 -189l73 -32q8 13 21 21t31 8q21 0 35 -14.5t14 -37.5t-14 -37.5t-36 -14.5q-21 0 -36 12t-20 33l-79 -31q7 -25 21.5 -42t32.5 -28t39.5 -16t42.5 -5z" />
    </font>
</defs>
</svg>
